osu file format v14

[General]
AudioFilename: audio.ogg
AudioLeadIn: 0
PreviewTime: 49435
Countdown: 0
SampleSet: Normal
StackLeniency: 0.7
Mode: 1
LetterboxInBreaks: 0
WidescreenStoryboard: 0

[Editor]
Bookmarks: 1998,13998,26373,31998,49998,73998,86560,99873,123498,150498
DistanceSpacing: 0.1
BeatDivisor: 4
GridSize: 32
TimelineZoom: 2.4

[Metadata]
Title:TOMB
TitleUnicode:トゥーム
Artist:KANKAN
ArtistUnicode:缶缶
Creator:LemonDust
Version:INNER ONI
Source:
Tags:pop j-pop jpop japanese gaston_2199 Atreevete female vocal biz yowanecity second 2nd album zero two 02
BeatmapID:3669949
BeatmapSetID:1790940

[Difficulty]
HPDrainRate:6
CircleSize:5
OverallDifficulty:6
ApproachRate:5
SliderMultiplier:1.4
SliderTickRate:1

[Events]
//Background and Video events
0,0,"Untitled-1.png",0,60
//Break Periods
2,38198,41860
2,111698,115360
//Storyboard Layer 0 (Background)
//Storyboard Layer 1 (Fail)
//Storyboard Layer 2 (Pass)
//Storyboard Layer 3 (Foreground)
//Storyboard Layer 4 (Overlay)
//Storyboard Sound Samples

[TimingPoints]
498,375,4,1,0,70,1,0
498,-90.9090909090909,4,1,0,90,0,0
1248,-90.9090909090909,4,1,0,80,0,0
1341,-92.3076923076923,4,1,0,80,0,0
1435,-93.75,4,1,0,80,0,0
1498,-95.2380952380952,4,1,0,80,0,0
1560,-96.7741935483871,4,1,0,80,0,0
1623,-98.3606557377049,4,1,0,80,0,0
1810,-100,4,1,0,80,0,0
1998,-90.9090909090909,4,1,0,90,0,0
13623,-90.9090909090909,4,1,0,70,0,0
13716,-93.0232558139535,4,1,0,70,0,0
13810,-95.2380952380952,4,1,0,70,0,0
13904,-97.5609756097561,4,1,0,70,0,0
13998,-100,4,1,0,70,0,0
14185,-100,4,1,0,80,0,0
19974,-100,4,1,0,90,0,0
20373,-100,4,1,0,85,0,0
20466,-98.7654320987654,4,1,0,85,0,0
20560,-97.5609756097561,4,1,0,85,0,0
20654,-96.3855421686747,4,1,0,85,0,0
20748,-95.2380952380952,4,1,0,85,0,0
20841,-94.1176470588235,4,1,0,85,0,0
20935,-93.0232558139535,4,1,0,85,0,0
21029,-91.9540229885057,4,1,0,85,0,0
21123,-90.9090909090909,4,1,0,85,0,0
21310,-100,4,1,0,85,0,0
21873,-100,4,1,0,85,0,0
21966,-98.7654320987654,4,1,0,85,0,0
22060,-97.5609756097561,4,1,0,85,0,0
22154,-96.3855421686747,4,1,0,85,0,0
22248,-95.2380952380952,4,1,0,85,0,0
22341,-94.1176470588235,4,1,0,85,0,0
22435,-93.0232558139535,4,1,0,85,0,0
22529,-91.9540229885057,4,1,0,85,0,0
22623,-90.9090909090909,4,1,0,85,0,0
22810,-100,4,1,0,85,0,0
25435,-100,4,1,0,85,0,0
25529,-98.3574309039048,4,1,0,85,0,0
25623,-96.7773153972709,4,1,0,85,0,0
25810,-95.2380952380952,4,1,0,85,0,0
25873,-93.7470704040499,4,1,0,85,0,0
25935,-92.3105326317733,4,1,0,85,0,0
25998,-90.9090909090909,4,1,0,90,0,0
26373,-90.9090909090909,4,1,0,90,0,0
31810,-83.3333333333333,4,1,0,90,0,0
31998,-90.9090909090908,4,1,0,90,0,0
32373,-90.9090909090909,4,1,0,90,0,0
32466,-89.8876404494382,4,1,0,90,0,0
32560,-88.8888888888889,4,1,0,90,0,0
32654,-87.9120879120879,4,1,0,90,0,0
32748,-86.9565217391304,4,1,0,90,0,0
32841,-86.0215053763441,4,1,0,90,0,0
32935,-85.1063829787234,4,1,0,90,0,0
33029,-84.2105263157895,4,1,0,90,0,0
33123,-83.3333333333333,4,1,0,90,0,0
33310,-90.9090909090909,4,1,0,90,0,0
33873,-90.9090909090909,4,1,0,90,0,0
33966,-89.8876404494382,4,1,0,90,0,0
34060,-88.8888888888889,4,1,0,90,0,0
34154,-87.9120879120879,4,1,0,90,0,0
34248,-86.9565217391304,4,1,0,90,0,0
34341,-86.0215053763441,4,1,0,90,0,0
34435,-85.1063829787234,4,1,0,90,0,0
34529,-84.2105263157895,4,1,0,90,0,0
34623,-83.3333333333333,4,1,0,90,0,0
34810,-90.9090909090909,4,1,0,90,0,0
36498,-90.9090909090909,4,1,0,90,0,0
36560,-91.3978494623656,4,1,0,90,0,0
36623,-91.8918918918919,4,1,0,90,0,0
36685,-92.3913043478261,4,1,0,90,0,0
36779,-92.896174863388,4,1,0,90,0,0
36873,-93.4065934065934,4,1,0,90,0,0
36966,-93.9226519337017,4,1,0,90,0,0
37060,-94.4444444444444,4,1,0,90,0,0
37154,-94.9720670391061,4,1,0,90,0,0
37248,-95.5056179775281,4,1,0,90,0,0
37341,-96.045197740113,4,1,0,90,0,0
37435,-96.5909090909091,4,1,0,90,0,0
37529,-97.1428571428571,4,1,0,90,0,0
37623,-97.7011494252874,4,1,0,90,0,0
37716,-98.2658959537572,4,1,0,90,0,0
37810,-98.8372093023256,4,1,0,90,0,0
37904,-99.4152046783626,4,1,0,90,0,0
37998,-100,4,1,0,90,0,0
38091,-100,4,1,0,40,0,0
43060,-111.111111111111,4,1,0,80,0,0
43123,-110,4,1,0,80,0,0
43185,-108.910891089109,4,1,0,80,0,0
43248,-107.843137254902,4,1,0,80,0,0
43341,-106.796116504854,4,1,0,80,0,0
43435,-105.769230769231,4,1,0,80,0,0
43529,-104.761904761905,4,1,0,80,0,0
43623,-103.77358490566,4,1,0,80,0,0
43685,-102.803738317757,4,1,0,80,0,0
43748,-101.851851851852,4,1,0,80,0,0
43810,-100.917431192661,4,1,0,80,0,0
43998,-100,4,1,0,90,0,0
44279,-111.111111111111,4,1,0,80,0,0
46810,-111.111111111111,4,1,0,80,0,0
46904,-105.263157894737,4,1,0,90,0,0
46998,-100,4,1,0,90,0,0
49623,-100,4,1,0,90,0,0
49998,-83.3333333333333,4,1,0,100,0,1
55248,-83.3333333333333,4,1,0,100,0,1
55341,-84.7457627118644,4,1,0,100,0,1
55435,-86.2068965517241,4,1,0,100,0,1
55529,-87.719298245614,4,1,0,100,0,1
55623,-89.2857142857143,4,1,0,100,0,1
55810,-90.9090909090909,4,1,0,100,0,1
55998,-76.9230769230769,4,1,0,100,0,1
56185,-83.3333333333333,4,1,0,100,0,1
58998,-83.3333333333333,4,1,0,100,0,1
59091,-83.7696335078534,4,1,0,100,0,1
59185,-84.2105263157895,4,1,0,100,0,1
59279,-84.6560846560847,4,1,0,100,0,1
59373,-85.1063829787234,4,1,0,100,0,1
59466,-85.5614973262032,4,1,0,100,0,1
59560,-86.0215053763441,4,1,0,100,0,1
59654,-86.4864864864865,4,1,0,100,0,1
59748,-86.9565217391304,4,1,0,100,0,1
59841,-87.431693989071,4,1,0,100,0,1
59935,-87.9120879120879,4,1,0,100,0,1
60029,-88.3977900552486,4,1,0,100,0,1
60123,-88.8888888888889,4,1,0,100,0,1
60216,-89.3854748603352,4,1,0,100,0,1
60310,-89.8876404494382,4,1,0,100,0,1
60404,-90.3954802259887,4,1,0,100,0,1
60498,-90.9090909090909,4,1,0,100,0,1
61623,-90.9090909090909,4,1,0,100,0,1
61810,-88.8888888888889,4,1,0,100,0,1
61873,-86.9565217391304,4,1,0,100,0,1
61935,-85.1063829787234,4,1,0,100,0,1
61998,-83.3333333333333,4,1,0,100,0,1
67248,-83.3333333333333,4,1,0,100,0,1
67341,-84.7457627118644,4,1,0,100,0,1
67435,-86.2068965517241,4,1,0,100,0,1
67529,-87.719298245614,4,1,0,100,0,1
67623,-89.2857142857143,4,1,0,100,0,1
67810,-90.9090909090909,4,1,0,100,0,1
67998,-76.9230769230769,4,1,0,100,0,1
68185,-83.3333333333333,4,1,0,100,0,1
70998,-83.7661249790585,4,1,0,100,0,1
71091,-84.1795128110696,4,1,0,100,0,1
71185,-84.5970010363133,4,1,0,100,0,1
71279,-85.0186509665558,4,1,0,100,0,1
71373,-85.4445251420515,4,1,0,100,0,1
71466,-85.8746873624663,4,1,0,100,0,1
71560,-86.3092027187399,4,1,0,100,0,1
71654,-86.7481376259203,4,1,0,100,0,1
71748,-87.1915598570058,4,1,0,100,0,1
71935,-88.0921443830246,4,1,0,100,0,1
72029,-88.549449333112,4,1,0,100,0,1
72123,-89.0115269927456,4,1,0,100,0,1
72310,-89.950302457892,4,1,0,100,0,1
72498,-90.9090909090909,4,1,0,100,0,1
72873,-90.9090909090909,4,1,0,100,0,1
73060,-88.8888888888889,4,1,0,100,0,1
73123,-86.9565217391304,4,1,0,100,0,1
73185,-85.1063829787234,4,1,0,100,0,1
73248,-83.3333333333333,4,1,0,90,0,1
73623,-76.9230769230769,4,1,0,90,0,0
73998,-90.9090909090909,4,1,0,100,0,0
85998,-90.9090909090909,4,1,0,50,0,0
86560,-111.111111111111,4,1,0,80,0,0
86935,-111.111111111111,4,1,0,80,0,0
87029,-109.375,4,1,0,80,0,0
87123,-107.692307692308,4,1,0,80,0,0
87216,-106.060606060606,4,1,0,80,0,0
87310,-104.477611940299,4,1,0,80,0,0
87373,-102.941176470588,4,1,0,80,0,0
87435,-101.449275362319,4,1,0,80,0,0
87498,-100,4,1,0,80,0,0
87873,-100,4,1,0,80,0,0
87966,-98.7654320987654,4,1,0,80,0,0
88060,-97.5609756097561,4,1,0,80,0,0
88154,-96.3855421686747,4,1,0,80,0,0
88248,-95.2380952380952,4,1,0,80,0,0
88341,-94.1176470588235,4,1,0,80,0,0
88435,-93.0232558139535,4,1,0,80,0,0
88529,-91.9540229885057,4,1,0,80,0,0
88623,-90.9090909090909,4,1,0,80,0,0
88810,-100,4,1,0,80,0,0
89373,-98.9010989010989,4,1,0,80,0,0
89466,-97.8260869565217,4,1,0,80,0,0
89560,-96.7741935483871,4,1,0,80,0,0
89654,-95.7446808510638,4,1,0,80,0,0
89748,-94.7368421052632,4,1,0,80,0,0
89841,-93.75,4,1,0,80,0,0
89935,-92.7835051546392,4,1,0,80,0,0
90029,-91.8367346938775,4,1,0,80,0,0
90123,-90.9090909090909,4,1,0,80,0,0
90310,-100,4,1,0,80,0,0
92185,-100,4,1,0,80,0,0
92279,-99.3377483443709,4,1,0,80,0,0
92373,-98.6842105263158,4,1,0,80,0,0
92466,-98.0392156862745,4,1,0,80,0,0
92560,-97.4025974025974,4,1,0,80,0,0
92654,-96.7741935483871,4,1,0,80,0,0
92748,-96.1538461538461,4,1,0,80,0,0
92841,-95.5414012738854,4,1,0,80,0,0
92935,-94.9367088607595,4,1,0,80,0,0
93029,-94.3396226415094,4,1,0,80,0,0
93123,-93.75,4,1,0,80,0,0
93216,-93.167701863354,4,1,0,80,0,0
93310,-92.5925925925926,4,1,0,80,0,0
93373,-92.0245398773006,4,1,0,80,0,0
93435,-91.4634146341463,4,1,0,80,0,0
93498,-90.9090909090909,4,1,0,80,0,0
93685,-100,4,1,0,80,0,0
93873,-98.9010989010989,4,1,0,80,0,0
93966,-97.8260869565217,4,1,0,80,0,0
94060,-96.7741935483871,4,1,0,80,0,0
94154,-95.7446808510638,4,1,0,80,0,0
94248,-94.7368421052632,4,1,0,80,0,0
94341,-93.75,4,1,0,80,0,0
94435,-92.7835051546392,4,1,0,80,0,0
94529,-91.8367346938775,4,1,0,80,0,0
94716,-100,4,1,0,80,0,0
98373,-99.3377483443709,4,1,0,80,0,0
98466,-98.6842105263158,4,1,0,80,0,0
98560,-98.0392156862745,4,1,0,80,0,0
98654,-97.4025974025974,4,1,0,80,0,0
98748,-96.7741935483871,4,1,0,90,0,0
98841,-96.1538461538461,4,1,0,90,0,0
98935,-95.5414012738854,4,1,0,90,0,0
98998,-94.9367088607595,4,1,0,90,0,0
99060,-94.3396226415094,4,1,0,90,0,0
99123,-93.75,4,1,0,90,0,0
99216,-93.167701863354,4,1,0,90,0,0
99310,-92.5925925925926,4,1,0,90,0,0
99373,-92.0245398773006,4,1,0,90,0,0
99435,-91.4634146341463,4,1,0,90,0,0
99498,-90.9090909090909,4,1,0,90,0,0
105310,-83.3333333333333,4,1,0,90,0,0
105498,-90.9090909090909,4,1,0,90,0,0
105685,-90.9090909090909,4,1,0,90,0,0
105779,-90.0900900900901,4,1,0,90,0,0
105873,-89.2857142857143,4,1,0,90,0,0
105966,-88.4955752212389,4,1,0,90,0,0
106060,-87.719298245614,4,1,0,90,0,0
106154,-86.9565217391304,4,1,0,90,0,0
106248,-86.2068965517241,4,1,0,90,0,0
106341,-85.4700854700855,4,1,0,90,0,0
106435,-84.7457627118644,4,1,0,90,0,0
106529,-84.0336134453781,4,1,0,90,0,0
106623,-83.3333333333333,4,1,0,90,0,0
106810,-90.9090909090909,4,1,0,90,0,0
107185,-90.1631953836444,4,1,0,90,0,0
107279,-89.4294401717045,4,1,0,90,0,0
107373,-88.7075312694048,4,1,0,90,0,0
107466,-87.9971840901091,4,1,0,90,0,0
107560,-87.2981230903535,4,1,0,90,0,0
107654,-86.617583369424,4,1,0,90,0,0
107748,-85.940185630801,4,1,0,90,0,0
107841,-85.273300929479,4,1,0,90,0,0
107935,-84.6166864105601,4,1,0,90,0,0
108029,-83.9701066420354,4,1,0,90,0,0
108123,-83.3333333333333,4,1,0,90,0,0
108310,-90.9090909090909,4,1,0,90,0,0
109998,-90.4731747037004,4,1,0,90,0,0
110060,-90.9545681931875,4,1,0,90,0,0
110123,-91.441111923921,4,1,0,90,0,0
110185,-91.9328889910365,4,1,0,90,0,0
110279,-92.4299842869027,4,1,0,90,0,0
110373,-92.9324845499744,4,1,0,80,0,0
110466,-93.4404784152495,4,1,0,80,0,0
110560,-93.9540564663879,4,1,0,80,0,0
110654,-94.4733112895607,4,1,0,80,0,0
110748,-94.9983375290932,4,1,0,80,0,0
110841,-95.5292319449752,4,1,0,70,0,0
110935,-96.066093472309,4,1,0,70,0,0
110998,-96.6090232827746,4,1,0,70,0,0
111060,-97.1581248481904,4,1,0,70,0,0
111123,-97.7135040062537,4,1,0,70,0,0
111216,-98.275269028549,4,1,0,60,0,0
111310,-98.8435306909163,4,1,0,60,0,0
111404,-99.4184023462743,4,1,0,60,0,0
111498,-100,4,1,0,60,0,0
116560,-111.111111111111,4,1,0,80,0,0
116623,-110,4,1,0,80,0,0
116685,-108.910891089109,4,1,0,80,0,0
116748,-107.843137254902,4,1,0,80,0,0
116841,-106.796116504854,4,1,0,80,0,0
116935,-105.769230769231,4,1,0,80,0,0
117029,-104.761904761905,4,1,0,80,0,0
117123,-103.77358490566,4,1,0,80,0,0
117216,-102.803738317757,4,1,0,80,0,0
117310,-101.851851851852,4,1,0,80,0,0
117404,-100.917431192661,4,1,0,80,0,0
117498,-100,4,1,0,90,0,0
120310,-100,4,1,0,90,0,0
120404,-95.2380952380952,4,1,0,90,0,0
120498,-90.9090909090909,4,1,0,90,0,0
123123,-100,4,1,0,90,0,0
123498,-83.3333333333333,4,1,0,100,0,1
128748,-83.3333333333333,4,1,0,100,0,1
128841,-84.7457627118644,4,1,0,100,0,1
128935,-86.2068965517241,4,1,0,100,0,1
129029,-87.719298245614,4,1,0,100,0,1
129123,-89.2857142857143,4,1,0,100,0,1
129310,-90.9090909090909,4,1,0,100,0,1
129498,-76.9230769230769,4,1,0,100,0,1
129685,-83.3333333333333,4,1,0,100,0,1
132498,-83.3333333333333,4,1,0,100,0,1
132591,-83.7696335078534,4,1,0,100,0,1
132685,-84.2105263157895,4,1,0,100,0,1
132779,-84.6560846560847,4,1,0,100,0,1
132873,-85.1063829787234,4,1,0,100,0,1
132966,-85.5614973262032,4,1,0,100,0,1
133060,-86.0215053763441,4,1,0,100,0,1
133154,-86.4864864864865,4,1,0,100,0,1
133248,-86.9565217391304,4,1,0,100,0,1
133341,-87.431693989071,4,1,0,100,0,1
133435,-87.9120879120879,4,1,0,100,0,1
133529,-88.3977900552486,4,1,0,100,0,1
133623,-88.8888888888889,4,1,0,100,0,1
133716,-89.3854748603352,4,1,0,100,0,1
133810,-89.8876404494382,4,1,0,100,0,1
133904,-90.3954802259887,4,1,0,100,0,1
133998,-90.9090909090909,4,1,0,100,0,1
135123,-90.9090909090909,4,1,0,100,0,1
135310,-88.8888888888889,4,1,0,100,0,1
135373,-86.9565217391304,4,1,0,100,0,1
135435,-85.1063829787234,4,1,0,100,0,1
135498,-83.3333333333333,4,1,0,100,0,1
140748,-83.3333333333333,4,1,0,100,0,1
140841,-84.7457627118644,4,1,0,100,0,1
140935,-86.2068965517241,4,1,0,100,0,1
141029,-87.719298245614,4,1,0,100,0,1
141123,-89.2857142857143,4,1,0,100,0,1
141310,-90.9090909090909,4,1,0,100,0,1
141498,-76.9230769230769,4,1,0,100,0,1
141685,-83.3333333333333,4,1,0,100,0,1
144498,-83.3333333333333,4,1,0,100,0,1
144591,-83.7696335078534,4,1,0,100,0,1
144685,-84.2105263157895,4,1,0,100,0,1
144779,-84.6560846560847,4,1,0,100,0,1
144873,-85.1063829787234,4,1,0,100,0,1
144966,-85.5614973262032,4,1,0,100,0,1
145060,-86.0215053763441,4,1,0,100,0,1
145154,-86.4864864864865,4,1,0,100,0,1
145248,-86.9565217391304,4,1,0,100,0,1
145341,-87.431693989071,4,1,0,100,0,1
145435,-87.9120879120879,4,1,0,100,0,1
145529,-88.3977900552486,4,1,0,100,0,1
145623,-88.8888888888889,4,1,0,100,0,1
145716,-89.3854748603352,4,1,0,100,0,1
145810,-89.8876404494382,4,1,0,100,0,1
145904,-90.3954802259887,4,1,0,100,0,1
145998,-90.9090909090909,4,1,0,100,0,1
146373,-90.9090909090909,4,1,0,100,0,1
146560,-88.8888888888889,4,1,0,100,0,1
146623,-86.9565217391304,4,1,0,100,0,1
146685,-85.1063829787234,4,1,0,100,0,1
146748,-83.3333333333333,4,1,0,90,0,1
147123,-83.3333333333333,4,1,0,90,0,0
147498,-125,4,1,0,40,0,0
150498,-90.9090909090909,4,1,0,90,0,0
162498,-100,4,1,0,90,0,0

[HitObjects]
256,192,498,5,0,0:0:0:0:
256,192,591,1,8,0:0:0:0:
256,192,779,1,0,0:0:0:0:
256,192,873,1,0,0:0:0:0:
256,192,1060,1,8,0:0:0:0:
256,192,1248,1,0,0:0:0:0:
256,192,1341,1,8,0:0:0:0:
256,192,1435,1,0,0:0:0:0:
256,192,1498,1,0,0:0:0:0:
256,192,1560,1,0,0:0:0:0:
256,192,1623,1,8,0:0:0:0:
256,192,1810,5,8,0:0:0:0:
256,192,1998,1,4,0:0:0:0:
256,192,2185,1,8,0:0:0:0:
256,192,2373,1,8,0:0:0:0:
256,192,2466,1,8,0:0:0:0:
256,192,2560,1,0,0:0:0:0:
256,192,2654,1,8,0:0:0:0:
256,192,2748,1,0,0:0:0:0:
256,192,2841,1,0,0:0:0:0:
256,192,3029,1,8,0:0:0:0:
256,192,3216,1,0,0:0:0:0:
256,192,3310,1,0,0:0:0:0:
256,192,3498,1,0,0:0:0:0:
256,192,3591,1,8,0:0:0:0:
256,192,3779,1,8,0:0:0:0:
256,192,3873,1,0,0:0:0:0:
256,192,3966,1,0,0:0:0:0:
256,192,4060,1,8,0:0:0:0:
256,192,4248,1,0,0:0:0:0:
256,192,4623,1,8,0:0:0:0:
256,192,4716,1,0,0:0:0:0:
256,192,4810,1,8,0:0:0:0:
256,192,4998,1,8,0:0:0:0:
256,192,5185,1,0,0:0:0:0:
256,192,5279,1,0,0:0:0:0:
256,192,5373,1,8,0:0:0:0:
256,192,5560,1,0,0:0:0:0:
256,192,5748,1,8,0:0:0:0:
256,192,5841,1,8,0:0:0:0:
256,192,6029,1,0,0:0:0:0:
256,192,6123,1,8,0:0:0:0:
256,192,6216,1,0,0:0:0:0:
256,192,6310,1,0,0:0:0:0:
256,192,6498,1,0,0:0:0:0:
256,192,6591,1,8,0:0:0:0:
256,192,6779,1,8,0:0:0:0:
256,192,6873,1,8,0:0:0:0:
256,192,6966,1,8,0:0:0:0:
256,192,7060,1,0,0:0:0:0:
256,192,7154,1,0,0:0:0:0:
256,192,7248,1,8,0:0:0:0:
256,192,7341,1,0,0:0:0:0:
256,192,7435,1,8,0:0:0:0:
256,192,7623,1,8,0:0:0:0:
256,192,7716,1,0,0:0:0:0:
256,192,7998,1,4,0:0:0:0:
256,192,8185,1,8,0:0:0:0:
256,192,8373,1,8,0:0:0:0:
256,192,8466,1,8,0:0:0:0:
256,192,8560,1,0,0:0:0:0:
256,192,8654,1,8,0:0:0:0:
256,192,8748,1,0,0:0:0:0:
256,192,8841,1,0,0:0:0:0:
256,192,9029,1,8,0:0:0:0:
256,192,9216,1,0,0:0:0:0:
256,192,9310,1,0,0:0:0:0:
256,192,9498,1,0,0:0:0:0:
256,192,9591,1,8,0:0:0:0:
256,192,9779,1,8,0:0:0:0:
256,192,9873,1,0,0:0:0:0:
256,192,9966,1,0,0:0:0:0:
256,192,10060,1,8,0:0:0:0:
256,192,10248,1,0,0:0:0:0:
256,192,10623,1,0,0:0:0:0:
256,192,10716,1,0,0:0:0:0:
256,192,10810,1,8,0:0:0:0:
256,192,10998,1,8,0:0:0:0:
256,192,11185,1,0,0:0:0:0:
256,192,11373,1,8,0:0:0:0:
256,192,11560,1,0,0:0:0:0:
256,192,11748,1,8,0:0:0:0:
256,192,11841,1,8,0:0:0:0:
256,192,12029,1,0,0:0:0:0:
256,192,12123,1,8,0:0:0:0:
256,192,12310,1,0,0:0:0:0:
256,192,12498,1,0,0:0:0:0:
256,192,12591,1,8,0:0:0:0:
256,192,12779,1,8,0:0:0:0:
256,192,12873,1,8,0:0:0:0:
256,192,12966,1,8,0:0:0:0:
256,192,13060,1,0,0:0:0:0:
256,192,13154,1,0,0:0:0:0:
256,192,13248,1,8,0:0:0:0:
256,192,13341,1,0,0:0:0:0:
256,192,13435,1,8,0:0:0:0:
256,192,13623,1,8,0:0:0:0:
256,192,13716,1,0,0:0:0:0:
256,192,13810,1,0,0:0:0:0:
256,192,13904,1,0,0:0:0:0:
256,192,13998,1,8,0:0:0:0:
256,192,14185,1,0,0:0:0:0:
256,192,14279,1,0,0:0:0:0:
256,192,14373,1,8,0:0:0:0:
256,192,14560,1,8,0:0:0:0:
256,192,14748,1,0,0:0:0:0:
256,192,14935,1,8,0:0:0:0:
256,192,15029,1,8,0:0:0:0:
256,192,15123,1,0,0:0:0:0:
256,192,15310,1,8,0:0:0:0:
256,192,15404,1,0,0:0:0:0:
256,192,15498,1,8,0:0:0:0:
256,192,15685,1,0,0:0:0:0:
256,192,15779,1,0,0:0:0:0:
256,192,15873,1,8,0:0:0:0:
256,192,16060,1,0,0:0:0:0:
256,192,16247,1,8,0:0:0:0:
256,192,16341,1,8,0:0:0:0:
256,192,16435,1,0,0:0:0:0:
256,192,16623,1,8,0:0:0:0:
256,192,16810,1,0,0:0:0:0:
256,192,16998,1,8,0:0:0:0:
256,192,17279,1,8,0:0:0:0:
256,192,17373,1,0,0:0:0:0:
256,192,17560,1,0,0:0:0:0:
256,192,17654,1,0,0:0:0:0:
256,192,17748,1,8,0:0:0:0:
256,192,17935,1,8,0:0:0:0:
256,192,18123,1,0,0:0:0:0:
256,192,18310,1,8,0:0:0:0:
256,192,18404,1,8,0:0:0:0:
256,192,18498,1,8,0:0:0:0:
256,192,18685,1,0,0:0:0:0:
256,192,18873,1,8,0:0:0:0:
256,192,18966,1,8,0:0:0:0:
256,192,19060,1,0,0:0:0:0:
256,192,19154,1,0,0:0:0:0:
256,192,19248,1,8,0:0:0:0:
256,192,19435,1,8,0:0:0:0:
256,192,19623,1,0,0:0:0:0:
256,192,19810,1,8,0:0:0:0:
256,192,19998,1,12,0:0:0:0:
256,192,20373,1,8,0:0:0:0:
256,192,20466,1,8,0:0:0:0:
256,192,20560,1,0,0:0:0:0:
256,192,20654,1,0,0:0:0:0:
256,192,20748,1,8,0:0:0:0:
256,192,20841,1,0,0:0:0:0:
256,192,20935,1,8,0:0:0:0:
256,192,21029,1,8,0:0:0:0:
256,192,21123,1,0,0:0:0:0:
256,192,21310,1,8,0:0:0:0:
256,192,21404,1,0,0:0:0:0:
256,192,21498,1,0,0:0:0:0:
256,192,21685,1,8,0:0:0:0:
256,192,21873,1,8,0:0:0:0:
256,192,21966,1,0,0:0:0:0:
256,192,22060,1,0,0:0:0:0:
256,192,22154,1,0,0:0:0:0:
256,192,22248,1,8,0:0:0:0:
256,192,22341,1,0,0:0:0:0:
256,192,22435,1,8,0:0:0:0:
256,192,22529,1,0,0:0:0:0:
256,192,22623,1,0,0:0:0:0:
256,192,22810,1,8,0:0:0:0:
256,192,22998,1,0,0:0:0:0:
256,192,23185,1,8,0:0:0:0:
256,192,23279,1,0,0:0:0:0:
256,192,23373,1,0,0:0:0:0:
256,192,23466,1,0,0:0:0:0:
256,192,23560,1,8,0:0:0:0:
256,192,23654,1,8,0:0:0:0:
256,192,23748,1,8,0:0:0:0:
256,192,23935,1,0,0:0:0:0:
256,192,24029,1,8,0:0:0:0:
256,192,24123,1,0,0:0:0:0:
256,192,24310,1,8,0:0:0:0:
256,192,24498,1,0,0:0:0:0:
256,192,24685,1,8,0:0:0:0:
256,192,24779,1,0,0:0:0:0:
256,192,24873,1,8,0:0:0:0:
256,192,24966,1,0,0:0:0:0:
256,192,25060,1,8,0:0:0:0:
256,192,25154,1,8,0:0:0:0:
256,192,25248,1,0,0:0:0:0:
256,192,25435,1,0,0:0:0:0:
256,192,25529,1,0,0:0:0:0:
256,192,25623,1,8,0:0:0:0:
256,192,25810,1,0,0:0:0:0:
256,192,25873,1,0,0:0:0:0:
256,192,25935,1,0,0:0:0:0:
256,192,25998,1,8,0:0:0:0:
256,192,26373,1,8,0:0:0:0:
256,192,26560,1,0,0:0:0:0:
256,192,26748,1,8,0:0:0:0:
256,192,26935,1,0,0:0:0:0:
256,192,27029,1,0,0:0:0:0:
256,192,27123,1,8,0:0:0:0:
256,192,27310,1,0,0:0:0:0:
256,192,27404,1,0,0:0:0:0:
256,192,27498,1,8,0:0:0:0:
256,192,27591,1,8,0:0:0:0:
256,192,27685,1,0,0:0:0:0:
256,192,27779,1,8,0:0:0:0:
256,192,27966,1,0,0:0:0:0:
256,192,28060,1,8,0:0:0:0:
256,192,28154,1,0,0:0:0:0:
256,192,28248,1,8,0:0:0:0:
256,192,28341,1,8,0:0:0:0:
256,192,28435,1,0,0:0:0:0:
256,192,28623,1,8,0:0:0:0:
256,192,28810,1,8,0:0:0:0:
256,192,28998,1,0,0:0:0:0:
256,192,29091,1,8,0:0:0:0:
256,192,29185,1,0,0:0:0:0:
256,192,29279,1,8,0:0:0:0:
256,192,29560,1,0,0:0:0:0:
256,192,29748,1,8,0:0:0:0:
256,192,29841,1,0,0:0:0:0:
256,192,29935,1,0,0:0:0:0:
256,192,30029,1,8,0:0:0:0:
256,192,30310,1,0,0:0:0:0:
256,192,30404,1,0,0:0:0:0:
256,192,30498,1,8,0:0:0:0:
256,192,30591,1,0,0:0:0:0:
256,192,30685,1,8,0:0:0:0:
256,192,30873,1,8,0:0:0:0:
256,192,31060,1,0,0:0:0:0:
256,192,31154,1,8,0:0:0:0:
256,192,31248,1,0,0:0:0:0:
256,192,31341,1,0,0:0:0:0:
256,192,31435,1,8,0:0:0:0:
256,192,31529,1,0,0:0:0:0:
256,192,31623,1,8,0:0:0:0:
256,192,31810,1,12,0:0:0:0:
256,192,32185,1,0,0:0:0:0:
256,192,32373,1,8,0:0:0:0:
256,192,32466,1,8,0:0:0:0:
256,192,32560,1,0,0:0:0:0:
256,192,32654,1,0,0:0:0:0:
256,192,32748,1,8,0:0:0:0:
256,192,32841,1,0,0:0:0:0:
256,192,32935,1,8,0:0:0:0:
256,192,33029,1,8,0:0:0:0:
256,192,33123,1,0,0:0:0:0:
256,192,33310,1,8,0:0:0:0:
256,192,33404,1,0,0:0:0:0:
256,192,33498,1,0,0:0:0:0:
256,192,33685,1,8,0:0:0:0:
256,192,33873,1,8,0:0:0:0:
256,192,33966,1,0,0:0:0:0:
256,192,34060,1,0,0:0:0:0:
256,192,34154,1,0,0:0:0:0:
256,192,34248,1,8,0:0:0:0:
256,192,34341,1,0,0:0:0:0:
256,192,34435,1,8,0:0:0:0:
256,192,34529,1,0,0:0:0:0:
256,192,34623,1,0,0:0:0:0:
256,192,34810,1,8,0:0:0:0:
256,192,34998,1,0,0:0:0:0:
256,192,35185,1,0,0:0:0:0:
256,192,35279,1,0,0:0:0:0:
256,192,35373,1,8,0:0:0:0:
256,192,35466,1,8,0:0:0:0:
256,192,35560,1,8,0:0:0:0:
256,192,35654,1,0,0:0:0:0:
256,192,35748,1,8,0:0:0:0:
256,192,35935,1,8,0:0:0:0:
256,192,36029,1,0,0:0:0:0:
256,192,36216,1,0,0:0:0:0:
256,192,36310,1,8,0:0:0:0:
256,192,36498,1,8,0:0:0:0:
256,192,36560,1,8,0:0:0:0:
256,192,36623,1,8,0:0:0:0:
256,192,36685,1,0,0:0:0:0:
256,192,36779,1,0,0:0:0:0:
256,192,36873,1,8,0:0:0:0:
256,192,36966,1,8,0:0:0:0:
256,192,37060,1,0,0:0:0:0:
256,192,37154,1,0,0:0:0:0:
256,192,37248,1,8,0:0:0:0:
256,192,37341,1,0,0:0:0:0:
256,192,37435,1,8,0:0:0:0:
256,192,37529,1,0,0:0:0:0:
256,192,37623,1,8,0:0:0:0:
256,192,37716,1,8,0:0:0:0:
256,192,37810,1,8,0:0:0:0:
256,192,37904,1,8,0:0:0:0:
256,192,37998,1,0,0:0:0:0:
256,192,43060,5,0,0:0:0:0:
256,192,43123,1,0,0:0:0:0:
256,192,43185,1,0,0:0:0:0:
256,192,43248,1,8,0:0:0:0:
256,192,43341,1,8,0:0:0:0:
256,192,43435,1,0,0:0:0:0:
256,192,43529,1,0,0:0:0:0:
256,192,43623,1,8,0:0:0:0:
256,192,43685,1,0,0:0:0:0:
256,192,43748,1,0,0:0:0:0:
256,192,43810,1,8,0:0:0:0:
256,192,43904,1,8,0:0:0:0:
256,192,43998,1,0,0:0:0:0:
256,192,44279,1,0,0:0:0:0:
256,192,44373,1,8,0:0:0:0:
256,192,44560,1,0,0:0:0:0:
256,192,44748,1,8,0:0:0:0:
256,192,44935,1,0,0:0:0:0:
256,192,45029,1,0,0:0:0:0:
256,192,45123,1,8,0:0:0:0:
256,192,45216,1,0,0:0:0:0:
256,192,45310,1,0,0:0:0:0:
256,192,45498,1,8,0:0:0:0:
256,192,45685,1,8,0:0:0:0:
256,192,45779,1,0,0:0:0:0:
256,192,45873,1,8,0:0:0:0:
256,192,45966,1,8,0:0:0:0:
256,192,46060,1,0,0:0:0:0:
256,192,46154,1,0,0:0:0:0:
256,192,46248,1,8,0:0:0:0:
256,192,46529,1,0,0:0:0:0:
256,192,46623,1,8,0:0:0:0:
256,192,46810,1,8,0:0:0:0:
256,192,46904,1,8,0:0:0:0:
256,192,46998,1,0,0:0:0:0:
256,192,47185,1,0,0:0:0:0:
256,192,47373,1,8,0:0:0:0:
256,192,47560,1,0,0:0:0:0:
256,192,47654,1,0,0:0:0:0:
256,192,47748,1,8,0:0:0:0:
256,192,47935,1,8,0:0:0:0:
256,192,48029,1,0,0:0:0:0:
256,192,48123,1,8,0:0:0:0:
256,192,48310,1,0,0:0:0:0:
256,192,48498,1,0,0:0:0:0:
256,192,48591,1,8,0:0:0:0:
256,192,48685,1,0,0:0:0:0:
256,192,48779,1,0,0:0:0:0:
256,192,48873,1,8,0:0:0:0:
256,192,48966,1,8,0:0:0:0:
256,192,49060,1,0,0:0:0:0:
256,192,49123,1,0,0:0:0:0:
256,192,49185,1,0,0:0:0:0:
256,192,49248,1,8,0:0:0:0:
256,192,49623,1,8,0:0:0:0:
256,192,49810,1,0,0:0:0:0:
256,192,49998,1,12,0:0:0:0:
256,192,50185,1,0,0:0:0:0:
256,192,50279,1,0,0:0:0:0:
256,192,50373,1,8,0:0:0:0:
256,192,50560,1,0,0:0:0:0:
256,192,50748,1,8,0:0:0:0:
256,192,50841,1,0,0:0:0:0:
256,192,50935,1,8,0:0:0:0:
256,192,51029,1,8,0:0:0:0:
256,192,51123,1,0,0:0:0:0:
256,192,51216,1,0,0:0:0:0:
256,192,51310,1,8,0:0:0:0:
256,192,51404,1,0,0:0:0:0:
256,192,51498,1,8,0:0:0:0:
256,192,51591,1,8,0:0:0:0:
256,192,51685,1,0,0:0:0:0:
256,192,51779,1,0,0:0:0:0:
256,192,51873,1,8,0:0:0:0:
256,192,51966,1,0,0:0:0:0:
256,192,52060,1,8,0:0:0:0:
256,192,52248,1,0,0:0:0:0:
256,192,52435,1,8,0:0:0:0:
256,192,52529,1,0,0:0:0:0:
256,192,52623,1,8,0:0:0:0:
256,192,52810,1,0,0:0:0:0:
256,192,52998,1,8,0:0:0:0:
256,192,53091,1,0,0:0:0:0:
256,192,53185,1,8,0:0:0:0:
256,192,53279,1,0,0:0:0:0:
256,192,53373,1,8,0:0:0:0:
256,192,53560,1,0,0:0:0:0:
256,192,53748,1,0,0:0:0:0:
256,192,53841,1,8,0:0:0:0:
256,192,53935,1,0,0:0:0:0:
256,192,54029,1,0,0:0:0:0:
256,192,54123,1,8,0:0:0:0:
256,192,54216,1,0,0:0:0:0:
256,192,54310,1,8,0:0:0:0:
256,192,54404,1,0,0:0:0:0:
256,192,54498,1,0,0:0:0:0:
256,192,54685,1,0,0:0:0:0:
256,192,54779,1,0,0:0:0:0:
256,192,54873,1,8,0:0:0:0:
256,192,55060,1,0,0:0:0:0:
256,192,55248,1,0,0:0:0:0:
256,192,55341,1,8,0:0:0:0:
256,192,55435,1,0,0:0:0:0:
256,192,55529,1,8,0:0:0:0:
256,192,55623,1,8,0:0:0:0:
256,192,55810,1,0,0:0:0:0:
256,192,55998,1,12,0:0:0:0:
256,192,56185,1,0,0:0:0:0:
256,192,56279,1,0,0:0:0:0:
256,192,56373,1,8,0:0:0:0:
256,192,56560,1,0,0:0:0:0:
256,192,56748,1,8,0:0:0:0:
256,192,56841,1,0,0:0:0:0:
256,192,56935,1,8,0:0:0:0:
256,192,57029,1,0,0:0:0:0:
256,192,57123,1,8,0:0:0:0:
256,192,57216,1,0,0:0:0:0:
256,192,57310,1,0,0:0:0:0:
256,192,57404,1,0,0:0:0:0:
256,192,57498,1,8,0:0:0:0:
256,192,57591,1,8,0:0:0:0:
256,192,57685,1,0,0:0:0:0:
256,192,57779,1,0,0:0:0:0:
256,192,57873,1,8,0:0:0:0:
256,192,57966,1,0,0:0:0:0:
256,192,58060,1,8,0:0:0:0:
256,192,58248,1,0,0:0:0:0:
256,192,58435,1,8,0:0:0:0:
256,192,58529,1,0,0:0:0:0:
256,192,58623,1,8,0:0:0:0:
256,192,58810,1,0,0:0:0:0:
256,192,58998,1,8,0:0:0:0:
256,192,59091,1,0,0:0:0:0:
256,192,59185,1,8,0:0:0:0:
256,192,59279,1,8,0:0:0:0:
256,192,59373,1,0,0:0:0:0:
256,192,59466,1,0,0:0:0:0:
256,192,59560,1,8,0:0:0:0:
256,192,59654,1,0,0:0:0:0:
256,192,59748,1,8,0:0:0:0:
256,192,59841,1,0,0:0:0:0:
256,192,59935,1,0,0:0:0:0:
256,192,60029,1,0,0:0:0:0:
256,192,60123,1,8,0:0:0:0:
256,192,60310,1,0,0:0:0:0:
256,192,60498,1,8,0:0:0:0:
256,192,60685,1,0,0:0:0:0:
256,192,60779,1,0,0:0:0:0:
256,192,60873,1,8,0:0:0:0:
256,192,61060,1,0,0:0:0:0:
256,192,61154,1,0,0:0:0:0:
256,192,61248,1,8,0:0:0:0:
256,192,61341,1,8,0:0:0:0:
256,192,61435,1,8,0:0:0:0:
256,192,61529,1,0,0:0:0:0:
256,192,61623,1,8,0:0:0:0:
256,192,61810,1,0,0:0:0:0:
256,192,61873,1,0,0:0:0:0:
256,192,61935,1,0,0:0:0:0:
256,192,61998,1,8,0:0:0:0:
256,192,62185,1,0,0:0:0:0:
256,192,62279,1,0,0:0:0:0:
256,192,62373,1,8,0:0:0:0:
256,192,62560,1,0,0:0:0:0:
256,192,62748,1,8,0:0:0:0:
256,192,62841,1,0,0:0:0:0:
256,192,62935,1,8,0:0:0:0:
256,192,63029,1,8,0:0:0:0:
256,192,63123,1,0,0:0:0:0:
256,192,63216,1,0,0:0:0:0:
256,192,63310,1,8,0:0:0:0:
256,192,63404,1,0,0:0:0:0:
256,192,63498,1,8,0:0:0:0:
256,192,63591,1,8,0:0:0:0:
256,192,63685,1,0,0:0:0:0:
256,192,63779,1,0,0:0:0:0:
256,192,63873,1,8,0:0:0:0:
256,192,63966,1,0,0:0:0:0:
256,192,64060,1,8,0:0:0:0:
256,192,64248,1,0,0:0:0:0:
256,192,64435,1,0,0:0:0:0:
256,192,64529,1,0,0:0:0:0:
256,192,64623,1,8,0:0:0:0:
256,192,64810,1,8,0:0:0:0:
256,192,64904,1,0,0:0:0:0:
256,192,64998,1,8,0:0:0:0:
256,192,65091,1,8,0:0:0:0:
256,192,65185,1,0,0:0:0:0:
256,192,65373,1,8,0:0:0:0:
256,192,65560,1,0,0:0:0:0:
256,192,65748,1,8,0:0:0:0:
256,192,65841,1,8,0:0:0:0:
256,192,65935,1,0,0:0:0:0:
256,192,66029,1,0,0:0:0:0:
256,192,66123,1,8,0:0:0:0:
256,192,66216,1,0,0:0:0:0:
256,192,66310,1,8,0:0:0:0:
256,192,66404,1,0,0:0:0:0:
256,192,66498,1,8,0:0:0:0:
256,192,66685,1,8,0:0:0:0:
256,192,66779,1,8,0:0:0:0:
256,192,66873,1,0,0:0:0:0:
256,192,67060,1,8,0:0:0:0:
256,192,67248,1,0,0:0:0:0:
256,192,67341,1,8,0:0:0:0:
256,192,67435,1,0,0:0:0:0:
256,192,67529,1,8,0:0:0:0:
256,192,67623,1,8,0:0:0:0:
256,192,67810,1,0,0:0:0:0:
256,192,67998,1,12,0:0:0:0:
256,192,68185,1,0,0:0:0:0:
256,192,68279,1,0,0:0:0:0:
256,192,68373,1,8,0:0:0:0:
256,192,68560,1,0,0:0:0:0:
256,192,68748,1,8,0:0:0:0:
256,192,68841,1,0,0:0:0:0:
256,192,68935,1,8,0:0:0:0:
256,192,69029,1,0,0:0:0:0:
256,192,69123,1,8,0:0:0:0:
256,192,69216,1,0,0:0:0:0:
256,192,69310,1,0,0:0:0:0:
256,192,69404,1,0,0:0:0:0:
256,192,69498,1,8,0:0:0:0:
256,192,69591,1,8,0:0:0:0:
256,192,69685,1,0,0:0:0:0:
256,192,69779,1,0,0:0:0:0:
256,192,69873,1,8,0:0:0:0:
256,192,69966,1,0,0:0:0:0:
256,192,70060,1,8,0:0:0:0:
256,192,70248,1,0,0:0:0:0:
256,192,70435,1,8,0:0:0:0:
256,192,70529,1,0,0:0:0:0:
256,192,70623,1,8,0:0:0:0:
256,192,70810,1,0,0:0:0:0:
256,192,70998,1,8,0:0:0:0:
256,192,71091,1,0,0:0:0:0:
256,192,71185,1,8,0:0:0:0:
256,192,71279,1,8,0:0:0:0:
256,192,71373,1,0,0:0:0:0:
256,192,71466,1,0,0:0:0:0:
256,192,71560,1,8,0:0:0:0:
256,192,71654,1,0,0:0:0:0:
256,192,71748,1,8,0:0:0:0:
256,192,71935,1,0,0:0:0:0:
256,192,72029,1,0,0:0:0:0:
256,192,72123,1,8,0:0:0:0:
256,192,72310,1,0,0:0:0:0:
256,192,72498,1,12,0:0:0:0:
256,192,72873,1,12,0:0:0:0:
256,192,73060,1,0,0:0:0:0:
256,192,73123,1,0,0:0:0:0:
256,192,73185,1,0,0:0:0:0:
256,192,73248,1,12,0:0:0:0:
256,192,73435,1,12,0:0:0:0:
256,192,73623,1,0,0:0:0:0:
256,192,73998,1,4,0:0:0:0:
256,192,74185,1,8,0:0:0:0:
256,192,74373,1,8,0:0:0:0:
256,192,74466,1,8,0:0:0:0:
256,192,74560,1,0,0:0:0:0:
256,192,74654,1,8,0:0:0:0:
256,192,74748,1,0,0:0:0:0:
256,192,74841,1,0,0:0:0:0:
256,192,75029,1,8,0:0:0:0:
256,192,75216,1,0,0:0:0:0:
256,192,75310,1,0,0:0:0:0:
256,192,75498,1,0,0:0:0:0:
256,192,75591,1,8,0:0:0:0:
256,192,75779,1,8,0:0:0:0:
256,192,75873,1,0,0:0:0:0:
256,192,75966,1,0,0:0:0:0:
256,192,76060,1,8,0:0:0:0:
256,192,76248,1,0,0:0:0:0:
256,192,76623,1,0,0:0:0:0:
256,192,76716,1,0,0:0:0:0:
256,192,76810,1,8,0:0:0:0:
256,192,76998,1,8,0:0:0:0:
256,192,77185,1,0,0:0:0:0:
256,192,77373,1,8,0:0:0:0:
256,192,77560,1,0,0:0:0:0:
256,192,77748,1,8,0:0:0:0:
256,192,77841,1,8,0:0:0:0:
256,192,78029,1,0,0:0:0:0:
256,192,78123,1,8,0:0:0:0:
256,192,78310,1,0,0:0:0:0:
256,192,78498,1,0,0:0:0:0:
256,192,78591,1,8,0:0:0:0:
256,192,78779,1,8,0:0:0:0:
256,192,78873,1,8,0:0:0:0:
256,192,78966,1,8,0:0:0:0:
256,192,79060,1,0,0:0:0:0:
256,192,79154,1,0,0:0:0:0:
256,192,79248,1,8,0:0:0:0:
256,192,79341,1,0,0:0:0:0:
256,192,79435,1,8,0:0:0:0:
256,192,79623,1,8,0:0:0:0:
256,192,79716,1,0,0:0:0:0:
256,192,79998,1,4,0:0:0:0:
256,192,80185,1,8,0:0:0:0:
256,192,80373,1,8,0:0:0:0:
256,192,80466,1,8,0:0:0:0:
256,192,80560,1,0,0:0:0:0:
256,192,80654,1,8,0:0:0:0:
256,192,80748,1,0,0:0:0:0:
256,192,80841,1,0,0:0:0:0:
256,192,81029,1,8,0:0:0:0:
256,192,81216,1,0,0:0:0:0:
256,192,81310,1,0,0:0:0:0:
256,192,81498,1,0,0:0:0:0:
256,192,81591,1,8,0:0:0:0:
256,192,81779,1,8,0:0:0:0:
256,192,81873,1,0,0:0:0:0:
256,192,81966,1,0,0:0:0:0:
256,192,82060,1,8,0:0:0:0:
256,192,82248,1,0,0:0:0:0:
256,192,82623,1,0,0:0:0:0:
256,192,82716,1,0,0:0:0:0:
256,192,82810,1,8,0:0:0:0:
256,192,82998,1,8,0:0:0:0:
256,192,83185,1,0,0:0:0:0:
256,192,83373,1,8,0:0:0:0:
256,192,83560,1,0,0:0:0:0:
256,192,83748,1,8,0:0:0:0:
256,192,83841,1,8,0:0:0:0:
256,192,84029,1,0,0:0:0:0:
256,192,84123,1,8,0:0:0:0:
256,192,84310,1,0,0:0:0:0:
256,192,84498,1,0,0:0:0:0:
256,192,84591,1,8,0:0:0:0:
256,192,84779,1,8,0:0:0:0:
256,192,84873,1,8,0:0:0:0:
256,192,84966,1,8,0:0:0:0:
256,192,85060,1,0,0:0:0:0:
256,192,85154,1,0,0:0:0:0:
256,192,85248,1,8,0:0:0:0:
256,192,85341,1,0,0:0:0:0:
256,192,85435,1,8,0:0:0:0:
256,192,85623,1,8,0:0:0:0:
256,192,85716,1,0,0:0:0:0:
256,192,85810,1,0,0:0:0:0:
256,192,85904,1,0,0:0:0:0:
256,192,85998,12,0,86373,0:0:0:0:
256,192,86560,5,0,0:0:0:0:
256,192,86748,1,8,0:0:0:0:
256,192,86935,1,0,0:0:0:0:
256,192,87029,1,0,0:0:0:0:
256,192,87123,1,8,0:0:0:0:
256,192,87216,1,8,0:0:0:0:
256,192,87310,1,0,0:0:0:0:
256,192,87373,1,0,0:0:0:0:
256,192,87435,1,0,0:0:0:0:
256,192,87498,1,8,0:0:0:0:
256,192,87685,1,0,0:0:0:0:
256,192,87779,1,0,0:0:0:0:
256,192,87873,1,8,0:0:0:0:
256,192,87966,1,8,0:0:0:0:
256,192,88060,1,0,0:0:0:0:
256,192,88154,1,0,0:0:0:0:
256,192,88248,1,8,0:0:0:0:
256,192,88341,1,0,0:0:0:0:
256,192,88435,1,8,0:0:0:0:
256,192,88529,1,8,0:0:0:0:
256,192,88623,1,8,0:0:0:0:
256,192,88810,1,8,0:0:0:0:
256,192,88904,1,8,0:0:0:0:
256,192,88998,1,0,0:0:0:0:
256,192,89185,1,0,0:0:0:0:
256,192,89373,1,8,0:0:0:0:
256,192,89466,1,0,0:0:0:0:
256,192,89560,1,0,0:0:0:0:
256,192,89654,1,0,0:0:0:0:
256,192,89748,1,8,0:0:0:0:
256,192,89841,1,0,0:0:0:0:
256,192,89935,1,8,0:0:0:0:
256,192,90029,1,0,0:0:0:0:
256,192,90123,1,0,0:0:0:0:
256,192,90310,1,0,0:0:0:0:
256,192,90404,1,0,0:0:0:0:
256,192,90498,1,8,0:0:0:0:
256,192,90685,1,8,0:0:0:0:
256,192,90779,1,0,0:0:0:0:
256,192,90873,1,0,0:0:0:0:
256,192,90966,1,0,0:0:0:0:
256,192,91060,1,8,0:0:0:0:
256,192,91154,1,8,0:0:0:0:
256,192,91248,1,8,0:0:0:0:
256,192,91435,1,0,0:0:0:0:
256,192,91529,1,8,0:0:0:0:
256,192,91810,1,8,0:0:0:0:
256,192,91998,1,0,0:0:0:0:
256,192,92185,1,8,0:0:0:0:
256,192,92279,1,0,0:0:0:0:
256,192,92373,1,8,0:0:0:0:
256,192,92466,1,8,0:0:0:0:
256,192,92560,1,0,0:0:0:0:
256,192,92654,1,0,0:0:0:0:
256,192,92748,1,8,0:0:0:0:
256,192,92841,1,0,0:0:0:0:
256,192,92935,1,0,0:0:0:0:
256,192,93029,1,0,0:0:0:0:
256,192,93123,1,8,0:0:0:0:
256,192,93216,1,0,0:0:0:0:
256,192,93310,1,8,0:0:0:0:
256,192,93373,1,0,0:0:0:0:
256,192,93435,1,0,0:0:0:0:
256,192,93498,1,8,0:0:0:0:
256,192,93685,1,0,0:0:0:0:
256,192,93873,1,8,0:0:0:0:
256,192,93966,1,8,0:0:0:0:
256,192,94060,1,0,0:0:0:0:
256,192,94154,1,0,0:0:0:0:
256,192,94248,1,8,0:0:0:0:
256,192,94341,1,0,0:0:0:0:
256,192,94435,1,8,0:0:0:0:
256,192,94529,1,8,0:0:0:0:
256,192,94716,1,0,0:0:0:0:
256,192,94810,1,8,0:0:0:0:
256,192,94998,1,8,0:0:0:0:
256,192,95185,1,0,0:0:0:0:
256,192,95279,1,8,0:0:0:0:
256,192,95466,1,8,0:0:0:0:
256,192,95560,1,0,0:0:0:0:
256,192,95654,1,0,0:0:0:0:
256,192,95748,1,8,0:0:0:0:
256,192,95841,1,0,0:0:0:0:
256,192,96029,1,8,0:0:0:0:
256,192,96123,1,0,0:0:0:0:
256,192,96310,1,0,0:0:0:0:
256,192,96498,1,8,0:0:0:0:
256,192,96685,1,0,0:0:0:0:
256,192,96779,1,8,0:0:0:0:
256,192,96966,1,0,0:0:0:0:
256,192,97060,1,0,0:0:0:0:
256,192,97154,1,8,0:0:0:0:
256,192,97248,1,8,0:0:0:0:
256,192,97435,1,8,0:0:0:0:
256,192,97529,1,0,0:0:0:0:
256,192,97716,1,0,0:0:0:0:
256,192,97810,1,8,0:0:0:0:
256,192,97998,1,0,0:0:0:0:
256,192,98091,1,8,0:0:0:0:
256,192,98185,1,0,0:0:0:0:
256,192,98279,1,8,0:0:0:0:
256,192,98373,1,0,0:0:0:0:
256,192,98466,1,0,0:0:0:0:
256,192,98560,1,8,0:0:0:0:
256,192,98654,1,0,0:0:0:0:
256,192,98748,1,8,0:0:0:0:
256,192,98841,1,8,0:0:0:0:
256,192,98935,1,0,0:0:0:0:
256,192,98998,1,0,0:0:0:0:
256,192,99060,1,0,0:0:0:0:
256,192,99123,1,8,0:0:0:0:
256,192,99216,1,0,0:0:0:0:
256,192,99310,1,8,0:0:0:0:
256,192,99373,1,0,0:0:0:0:
256,192,99435,1,0,0:0:0:0:
256,192,99498,1,8,0:0:0:0:
256,192,99873,1,8,0:0:0:0:
256,192,100060,1,0,0:0:0:0:
256,192,100248,1,8,0:0:0:0:
256,192,100435,1,0,0:0:0:0:
256,192,100529,1,0,0:0:0:0:
256,192,100623,1,8,0:0:0:0:
256,192,100810,1,0,0:0:0:0:
256,192,100904,1,0,0:0:0:0:
256,192,100998,1,8,0:0:0:0:
256,192,101091,1,8,0:0:0:0:
256,192,101185,1,0,0:0:0:0:
256,192,101279,1,0,0:0:0:0:
256,192,101373,1,8,0:0:0:0:
256,192,101560,1,0,0:0:0:0:
256,192,101748,1,8,0:0:0:0:
256,192,101935,1,8,0:0:0:0:
256,192,102029,1,0,0:0:0:0:
256,192,102123,1,8,0:0:0:0:
256,192,102310,1,8,0:0:0:0:
256,192,102498,1,0,0:0:0:0:
256,192,102779,1,0,0:0:0:0:
256,192,102873,1,8,0:0:0:0:
256,192,103060,1,0,0:0:0:0:
256,192,103248,1,8,0:0:0:0:
256,192,103341,1,0,0:0:0:0:
256,192,103435,1,0,0:0:0:0:
256,192,103623,1,8,0:0:0:0:
256,192,103810,1,0,0:0:0:0:
256,192,103904,1,8,0:0:0:0:
256,192,103998,1,8,0:0:0:0:
256,192,104091,1,8,0:0:0:0:
256,192,104185,1,0,0:0:0:0:
256,192,104373,1,8,0:0:0:0:
256,192,104560,1,8,0:0:0:0:
256,192,104654,1,0,0:0:0:0:
256,192,104748,1,0,0:0:0:0:
256,192,104841,1,8,0:0:0:0:
256,192,104935,1,0,0:0:0:0:
256,192,105029,1,8,0:0:0:0:
256,192,105123,1,0,0:0:0:0:
256,192,105310,1,12,0:0:0:0:
256,192,105685,1,8,0:0:0:0:
256,192,105779,1,0,0:0:0:0:
256,192,105873,1,8,0:0:0:0:
256,192,105966,1,8,0:0:0:0:
256,192,106060,1,0,0:0:0:0:
256,192,106154,1,0,0:0:0:0:
256,192,106248,1,8,0:0:0:0:
256,192,106341,1,0,0:0:0:0:
256,192,106435,1,8,0:0:0:0:
256,192,106529,1,8,0:0:0:0:
256,192,106623,1,0,0:0:0:0:
256,192,106810,1,8,0:0:0:0:
256,192,106998,1,0,0:0:0:0:
256,192,107185,1,8,0:0:0:0:
256,192,107279,1,0,0:0:0:0:
256,192,107373,1,8,0:0:0:0:
256,192,107466,1,8,0:0:0:0:
256,192,107560,1,0,0:0:0:0:
256,192,107654,1,0,0:0:0:0:
256,192,107748,1,8,0:0:0:0:
256,192,107841,1,0,0:0:0:0:
256,192,107935,1,8,0:0:0:0:
256,192,108029,1,8,0:0:0:0:
256,192,108123,1,8,0:0:0:0:
256,192,108310,1,8,0:0:0:0:
256,192,108498,1,0,0:0:0:0:
256,192,108685,1,8,0:0:0:0:
256,192,108779,1,8,0:0:0:0:
256,192,108873,1,0,0:0:0:0:
256,192,109060,1,8,0:0:0:0:
256,192,109154,1,0,0:0:0:0:
256,192,109248,1,8,0:0:0:0:
256,192,109341,1,8,0:0:0:0:
256,192,109435,1,0,0:0:0:0:
256,192,109529,1,0,0:0:0:0:
256,192,109623,1,8,0:0:0:0:
256,192,109810,1,0,0:0:0:0:
256,192,109998,1,8,0:0:0:0:
256,192,110060,1,8,0:0:0:0:
256,192,110123,1,8,0:0:0:0:
256,192,110185,1,0,0:0:0:0:
256,192,110279,1,0,0:0:0:0:
256,192,110373,1,8,0:0:0:0:
256,192,110466,1,8,0:0:0:0:
256,192,110560,1,0,0:0:0:0:
256,192,110654,1,0,0:0:0:0:
256,192,110748,1,8,0:0:0:0:
256,192,110841,1,0,0:0:0:0:
256,192,110935,1,8,0:0:0:0:
256,192,111029,1,0,0:0:0:0:
256,192,111123,1,8,0:0:0:0:
256,192,111216,1,8,0:0:0:0:
256,192,111310,1,8,0:0:0:0:
256,192,111404,1,8,0:0:0:0:
256,192,111498,1,0,0:0:0:0:
256,192,116560,5,0,0:0:0:0:
256,192,116623,1,0,0:0:0:0:
256,192,116685,1,0,0:0:0:0:
256,192,116748,1,8,0:0:0:0:
256,192,116841,1,8,0:0:0:0:
256,192,116935,1,0,0:0:0:0:
256,192,117029,1,0,0:0:0:0:
256,192,117123,1,8,0:0:0:0:
256,192,117216,1,0,0:0:0:0:
256,192,117310,1,8,0:0:0:0:
256,192,117404,1,8,0:0:0:0:
256,192,117498,1,0,0:0:0:0:
256,192,117779,1,0,0:0:0:0:
256,192,117873,1,8,0:0:0:0:
256,192,118060,1,0,0:0:0:0:
256,192,118248,1,8,0:0:0:0:
256,192,118435,1,0,0:0:0:0:
256,192,118529,1,0,0:0:0:0:
256,192,118623,1,8,0:0:0:0:
256,192,118810,1,0,0:0:0:0:
256,192,118998,1,8,0:0:0:0:
256,192,119185,1,8,0:0:0:0:
256,192,119279,1,0,0:0:0:0:
256,192,119373,1,8,0:0:0:0:
256,192,119466,1,8,0:0:0:0:
256,192,119560,1,0,0:0:0:0:
256,192,119654,1,0,0:0:0:0:
256,192,119748,1,8,0:0:0:0:
256,192,120029,1,0,0:0:0:0:
256,192,120123,1,8,0:0:0:0:
256,192,120310,1,8,0:0:0:0:
256,192,120404,1,8,0:0:0:0:
256,192,120498,1,0,0:0:0:0:
256,192,120685,1,0,0:0:0:0:
256,192,120873,1,8,0:0:0:0:
256,192,121060,1,0,0:0:0:0:
256,192,121154,1,0,0:0:0:0:
256,192,121248,1,8,0:0:0:0:
256,192,121435,1,8,0:0:0:0:
256,192,121529,1,0,0:0:0:0:
256,192,121623,1,8,0:0:0:0:
256,192,121810,1,0,0:0:0:0:
256,192,121998,1,0,0:0:0:0:
256,192,122091,1,8,0:0:0:0:
256,192,122185,1,0,0:0:0:0:
256,192,122279,1,0,0:0:0:0:
256,192,122373,1,8,0:0:0:0:
256,192,122466,1,8,0:0:0:0:
256,192,122560,1,0,0:0:0:0:
256,192,122623,1,0,0:0:0:0:
256,192,122685,1,0,0:0:0:0:
256,192,122748,1,8,0:0:0:0:
256,192,123123,1,0,0:0:0:0:
256,192,123310,1,0,0:0:0:0:
256,192,123498,1,12,0:0:0:0:
256,192,123685,1,0,0:0:0:0:
256,192,123779,1,0,0:0:0:0:
256,192,123873,1,8,0:0:0:0:
256,192,124060,1,0,0:0:0:0:
256,192,124248,1,8,0:0:0:0:
256,192,124341,1,0,0:0:0:0:
256,192,124435,1,8,0:0:0:0:
256,192,124529,1,8,0:0:0:0:
256,192,124623,1,0,0:0:0:0:
256,192,124716,1,0,0:0:0:0:
256,192,124810,1,8,0:0:0:0:
256,192,124904,1,0,0:0:0:0:
256,192,124998,1,8,0:0:0:0:
256,192,125091,1,8,0:0:0:0:
256,192,125185,1,0,0:0:0:0:
256,192,125279,1,0,0:0:0:0:
256,192,125373,1,8,0:0:0:0:
256,192,125466,1,0,0:0:0:0:
256,192,125560,1,8,0:0:0:0:
256,192,125748,1,0,0:0:0:0:
256,192,125935,1,8,0:0:0:0:
256,192,126029,1,0,0:0:0:0:
256,192,126123,1,8,0:0:0:0:
256,192,126310,1,0,0:0:0:0:
256,192,126498,1,8,0:0:0:0:
256,192,126591,1,0,0:0:0:0:
256,192,126685,1,8,0:0:0:0:
256,192,126779,1,0,0:0:0:0:
256,192,126873,1,8,0:0:0:0:
256,192,127060,1,0,0:0:0:0:
256,192,127248,1,0,0:0:0:0:
256,192,127341,1,8,0:0:0:0:
256,192,127435,1,0,0:0:0:0:
256,192,127529,1,0,0:0:0:0:
256,192,127623,1,8,0:0:0:0:
256,192,127716,1,0,0:0:0:0:
256,192,127810,1,8,0:0:0:0:
256,192,127904,1,0,0:0:0:0:
256,192,127998,1,0,0:0:0:0:
256,192,128185,1,0,0:0:0:0:
256,192,128279,1,0,0:0:0:0:
256,192,128373,1,8,0:0:0:0:
256,192,128560,1,0,0:0:0:0:
256,192,128748,1,0,0:0:0:0:
256,192,128841,1,8,0:0:0:0:
256,192,128935,1,0,0:0:0:0:
256,192,129029,1,8,0:0:0:0:
256,192,129123,1,8,0:0:0:0:
256,192,129310,1,0,0:0:0:0:
256,192,129498,1,12,0:0:0:0:
256,192,129685,1,0,0:0:0:0:
256,192,129779,1,0,0:0:0:0:
256,192,129873,1,8,0:0:0:0:
256,192,130060,1,0,0:0:0:0:
256,192,130248,1,8,0:0:0:0:
256,192,130341,1,0,0:0:0:0:
256,192,130435,1,8,0:0:0:0:
256,192,130529,1,0,0:0:0:0:
256,192,130623,1,8,0:0:0:0:
256,192,130716,1,0,0:0:0:0:
256,192,130810,1,0,0:0:0:0:
256,192,130904,1,0,0:0:0:0:
256,192,130998,1,8,0:0:0:0:
256,192,131091,1,8,0:0:0:0:
256,192,131185,1,0,0:0:0:0:
256,192,131279,1,0,0:0:0:0:
256,192,131373,1,8,0:0:0:0:
256,192,131466,1,0,0:0:0:0:
256,192,131560,1,8,0:0:0:0:
256,192,131748,1,0,0:0:0:0:
256,192,131935,1,8,0:0:0:0:
256,192,132029,1,0,0:0:0:0:
256,192,132123,1,8,0:0:0:0:
256,192,132310,1,0,0:0:0:0:
256,192,132498,1,8,0:0:0:0:
256,192,132591,1,0,0:0:0:0:
256,192,132685,1,8,0:0:0:0:
256,192,132779,1,8,0:0:0:0:
256,192,132873,1,0,0:0:0:0:
256,192,132966,1,0,0:0:0:0:
256,192,133060,1,8,0:0:0:0:
256,192,133154,1,0,0:0:0:0:
256,192,133248,1,8,0:0:0:0:
256,192,133341,1,0,0:0:0:0:
256,192,133435,1,0,0:0:0:0:
256,192,133529,1,0,0:0:0:0:
256,192,133623,1,8,0:0:0:0:
256,192,133810,1,0,0:0:0:0:
256,192,133998,1,8,0:0:0:0:
256,192,134185,1,0,0:0:0:0:
256,192,134373,1,0,0:0:0:0:
256,192,134560,1,0,0:0:0:0:
256,192,134654,1,0,0:0:0:0:
256,192,134748,1,8,0:0:0:0:
256,192,134841,1,8,0:0:0:0:
256,192,134935,1,0,0:0:0:0:
256,192,135029,1,0,0:0:0:0:
256,192,135123,1,8,0:0:0:0:
256,192,135310,1,0,0:0:0:0:
256,192,135373,1,0,0:0:0:0:
256,192,135435,1,0,0:0:0:0:
256,192,135498,1,8,0:0:0:0:
256,192,135685,1,0,0:0:0:0:
256,192,135779,1,0,0:0:0:0:
256,192,135873,1,8,0:0:0:0:
256,192,136060,1,0,0:0:0:0:
256,192,136248,1,8,0:0:0:0:
256,192,136341,1,0,0:0:0:0:
256,192,136435,1,8,0:0:0:0:
256,192,136529,1,8,0:0:0:0:
256,192,136623,1,0,0:0:0:0:
256,192,136716,1,0,0:0:0:0:
256,192,136810,1,8,0:0:0:0:
256,192,136904,1,0,0:0:0:0:
256,192,136998,1,8,0:0:0:0:
256,192,137091,1,8,0:0:0:0:
256,192,137185,1,0,0:0:0:0:
256,192,137279,1,0,0:0:0:0:
256,192,137373,1,8,0:0:0:0:
256,192,137466,1,0,0:0:0:0:
256,192,137560,1,8,0:0:0:0:
256,192,137748,1,0,0:0:0:0:
256,192,137935,1,0,0:0:0:0:
256,192,138029,1,0,0:0:0:0:
256,192,138123,1,8,0:0:0:0:
256,192,138310,1,8,0:0:0:0:
256,192,138404,1,0,0:0:0:0:
256,192,138498,1,8,0:0:0:0:
256,192,138591,1,8,0:0:0:0:
256,192,138685,1,0,0:0:0:0:
256,192,138873,1,8,0:0:0:0:
256,192,139060,1,0,0:0:0:0:
256,192,139248,1,8,0:0:0:0:
256,192,139341,1,8,0:0:0:0:
256,192,139435,1,0,0:0:0:0:
256,192,139529,1,0,0:0:0:0:
256,192,139623,1,8,0:0:0:0:
256,192,139716,1,0,0:0:0:0:
256,192,139810,1,8,0:0:0:0:
256,192,139904,1,0,0:0:0:0:
256,192,139998,1,8,0:0:0:0:
256,192,140185,1,8,0:0:0:0:
256,192,140279,1,8,0:0:0:0:
256,192,140373,1,0,0:0:0:0:
256,192,140560,1,8,0:0:0:0:
256,192,140748,1,0,0:0:0:0:
256,192,140841,1,8,0:0:0:0:
256,192,140935,1,0,0:0:0:0:
256,192,141029,1,8,0:0:0:0:
256,192,141123,1,8,0:0:0:0:
256,192,141310,1,0,0:0:0:0:
256,192,141498,1,12,0:0:0:0:
256,192,141685,1,0,0:0:0:0:
256,192,141779,1,0,0:0:0:0:
256,192,141873,1,8,0:0:0:0:
256,192,142060,1,0,0:0:0:0:
256,192,142248,1,8,0:0:0:0:
256,192,142341,1,0,0:0:0:0:
256,192,142435,1,8,0:0:0:0:
256,192,142529,1,0,0:0:0:0:
256,192,142623,1,8,0:0:0:0:
256,192,142716,1,0,0:0:0:0:
256,192,142810,1,0,0:0:0:0:
256,192,142904,1,0,0:0:0:0:
256,192,142998,1,8,0:0:0:0:
256,192,143091,1,8,0:0:0:0:
256,192,143185,1,0,0:0:0:0:
256,192,143279,1,0,0:0:0:0:
256,192,143373,1,8,0:0:0:0:
256,192,143466,1,0,0:0:0:0:
256,192,143560,1,8,0:0:0:0:
256,192,143748,1,0,0:0:0:0:
256,192,143935,1,8,0:0:0:0:
256,192,144029,1,0,0:0:0:0:
256,192,144123,1,8,0:0:0:0:
256,192,144310,1,0,0:0:0:0:
256,192,144498,1,8,0:0:0:0:
256,192,144591,1,0,0:0:0:0:
256,192,144685,1,8,0:0:0:0:
256,192,144779,1,8,0:0:0:0:
256,192,144873,1,0,0:0:0:0:
256,192,144966,1,0,0:0:0:0:
256,192,145060,1,8,0:0:0:0:
256,192,145154,1,0,0:0:0:0:
256,192,145248,1,8,0:0:0:0:
256,192,145435,1,0,0:0:0:0:
256,192,145529,1,0,0:0:0:0:
256,192,145623,1,8,0:0:0:0:
256,192,145810,1,0,0:0:0:0:
256,192,145998,1,12,0:0:0:0:
256,192,146373,1,12,0:0:0:0:
256,192,146560,1,0,0:0:0:0:
256,192,146623,1,0,0:0:0:0:
256,192,146685,1,0,0:0:0:0:
256,192,146748,1,12,0:0:0:0:
256,192,146935,1,12,0:0:0:0:
256,192,147123,1,0,0:0:0:0:
256,192,147498,1,8,0:0:0:0:
256,192,147685,1,0,0:0:0:0:
256,192,147873,1,8,0:0:0:0:
256,192,148060,1,8,0:0:0:0:
256,192,148248,1,0,0:0:0:0:
256,192,148435,1,0,0:0:0:0:
256,192,148623,1,8,0:0:0:0:
256,192,148810,1,0,0:0:0:0:
256,192,148998,1,8,0:0:0:0:
256,192,149185,1,8,0:0:0:0:
256,192,149373,1,8,0:0:0:0:
256,192,149560,1,0,0:0:0:0:
256,192,149748,1,8,0:0:0:0:
256,192,150498,1,4,0:0:0:0:
256,192,150685,1,8,0:0:0:0:
256,192,150873,1,8,0:0:0:0:
256,192,150966,1,8,0:0:0:0:
256,192,151060,1,0,0:0:0:0:
256,192,151154,1,8,0:0:0:0:
256,192,151248,1,0,0:0:0:0:
256,192,151341,1,0,0:0:0:0:
256,192,151529,1,8,0:0:0:0:
256,192,151716,1,0,0:0:0:0:
256,192,151810,1,0,0:0:0:0:
256,192,151998,1,0,0:0:0:0:
256,192,152091,1,8,0:0:0:0:
256,192,152279,1,8,0:0:0:0:
256,192,152373,1,0,0:0:0:0:
256,192,152466,1,0,0:0:0:0:
256,192,152560,1,8,0:0:0:0:
256,192,152748,1,0,0:0:0:0:
256,192,153123,1,8,0:0:0:0:
256,192,153216,1,0,0:0:0:0:
256,192,153310,1,8,0:0:0:0:
256,192,153498,1,8,0:0:0:0:
256,192,153685,1,0,0:0:0:0:
256,192,153779,1,0,0:0:0:0:
256,192,153873,1,8,0:0:0:0:
256,192,154060,1,0,0:0:0:0:
256,192,154248,1,8,0:0:0:0:
256,192,154341,1,8,0:0:0:0:
256,192,154529,1,0,0:0:0:0:
256,192,154623,1,8,0:0:0:0:
256,192,154716,1,0,0:0:0:0:
256,192,154810,1,0,0:0:0:0:
256,192,154998,1,0,0:0:0:0:
256,192,155091,1,8,0:0:0:0:
256,192,155279,1,8,0:0:0:0:
256,192,155373,1,8,0:0:0:0:
256,192,155466,1,8,0:0:0:0:
256,192,155560,1,0,0:0:0:0:
256,192,155654,1,0,0:0:0:0:
256,192,155748,1,8,0:0:0:0:
256,192,155841,1,0,0:0:0:0:
256,192,155935,1,8,0:0:0:0:
256,192,156123,1,8,0:0:0:0:
256,192,156216,1,0,0:0:0:0:
256,192,156498,1,4,0:0:0:0:
256,192,156685,1,8,0:0:0:0:
256,192,156873,1,8,0:0:0:0:
256,192,156966,1,8,0:0:0:0:
256,192,157060,1,0,0:0:0:0:
256,192,157154,1,8,0:0:0:0:
256,192,157248,1,0,0:0:0:0:
256,192,157341,1,0,0:0:0:0:
256,192,157529,1,8,0:0:0:0:
256,192,157716,1,0,0:0:0:0:
256,192,157810,1,0,0:0:0:0:
256,192,157998,1,0,0:0:0:0:
256,192,158091,1,8,0:0:0:0:
256,192,158279,1,8,0:0:0:0:
256,192,158373,1,0,0:0:0:0:
256,192,158466,1,0,0:0:0:0:
256,192,158560,1,8,0:0:0:0:
256,192,158748,1,0,0:0:0:0:
256,192,159123,1,0,0:0:0:0:
256,192,159216,1,0,0:0:0:0:
256,192,159310,1,8,0:0:0:0:
256,192,159498,1,8,0:0:0:0:
256,192,159685,1,0,0:0:0:0:
256,192,159873,1,8,0:0:0:0:
256,192,160060,1,0,0:0:0:0:
256,192,160248,1,8,0:0:0:0:
256,192,160341,1,8,0:0:0:0:
256,192,160529,1,0,0:0:0:0:
256,192,160623,1,8,0:0:0:0:
256,192,160810,1,0,0:0:0:0:
256,192,160998,1,0,0:0:0:0:
256,192,161091,1,8,0:0:0:0:
256,192,161279,1,8,0:0:0:0:
256,192,161373,5,8,0:0:0:0:
256,192,161466,1,8,0:0:0:0:
256,192,161560,1,0,0:0:0:0:
256,192,161654,1,0,0:0:0:0:
256,192,161748,1,8,0:0:0:0:
256,192,161935,1,8,0:0:0:0:
256,192,162123,1,8,0:0:0:0:
256,192,162216,1,0,0:0:0:0:
256,192,162310,1,0,0:0:0:0:
256,192,162498,12,0,162873,0:0:0:0:
