osu file format v14

[General]
AudioFilename: audio.ogg
AudioLeadIn: 0
PreviewTime: 55579
Countdown: 0
SampleSet: Normal
StackLeniency: 0.7
Mode: 1
LetterboxInBreaks: 0
WidescreenStoryboard: 1

[Editor]
Bookmarks: 1356,12023,17356,22690,33356,44022,44023,56023,66690,77356,88023,98690,109356,132023,142690,153356,164023,176023,186690,197356,208023
DistanceSpacing: 0.8
BeatDivisor: 3
GridSize: 32
TimelineZoom: 1.2

[Metadata]
Title:Bloody Mary
TitleUnicode:Bloody Mary
Artist:KANKAN
ArtistUnicode:缶缶
Creator:gaston_2199
Version:Kantan
Source:
Tags:ROAR FAKE TYPE. フェイク タイプ TOPHAMHAT-KYO DYES IWASAKI sakiyama biz japanese pop jpop j-pop female vocal
BeatmapID:3626229
BeatmapSetID:1771346

[Difficulty]
HPDrainRate:8
CircleSize:2
OverallDifficulty:3
ApproachRate:10
SliderMultiplier:1.4
SliderTickRate:1

[Events]
//Background and Video events
0,0,"BG.jpg",0,60
//Break Periods
//Storyboard Layer 0 (Background)
//Storyboard Layer 1 (Fail)
//Storyboard Layer 2 (Pass)
//Storyboard Layer 3 (Foreground)
//Storyboard Layer 4 (Overlay)
//Storyboard Sound Samples

[TimingPoints]
1356,333.333333333333,4,1,0,80,1,0
12244,-100,4,1,0,70,0,0
17352,-100,4,1,0,80,0,0
33345,-100,4,1,0,90,0,0
54578,-100,4,1,0,50,0,0
56022,-100,4,1,0,100,0,1
77355,-100,4,1,0,100,0,0
77522,-100,4,1,0,90,0,0
88022,-100,4,1,0,80,0,0
88244,-100,4,1,0,70,0,0
93343,-100,4,1,0,80,0,0
109341,-100,4,1,0,90,0,0
130633,-100,4,1,0,50,0,0
132022,-100,4,1,0,100,0,1
153355,-100,4,1,0,100,0,0
153578,-100,4,1,0,80,0,0
174633,-100,4,1,0,50,0,0
176022,-100,4,1,0,100,0,1
197355,-100,4,1,0,90,0,0

[HitObjects]
256,192,1356,5,4,0:0:0:0:
256,192,2578,1,8,0:0:0:0:
256,192,4244,1,8,0:0:0:0:
256,192,5244,1,8,0:0:0:0:
256,192,6911,1,8,0:0:0:0:
256,192,7911,1,8,0:0:0:0:
256,192,9578,1,8,0:0:0:0:
256,192,10578,1,8,0:0:0:0:
256,192,12022,1,4,0:0:0:0:
256,192,13355,1,0,0:0:0:0:
256,192,14022,1,8,0:0:0:0:
256,192,14689,1,0,0:0:0:0:
256,192,16022,1,0,0:0:0:0:
256,160,16689,1,8,0:0:0:0:
256,192,17355,1,0,0:0:0:0:
256,192,18355,1,8,0:0:0:0:
256,192,18689,1,0,0:0:0:0:
256,192,19355,1,8,0:0:0:0:
256,192,20022,1,0,0:0:0:0:
256,192,20689,1,8,0:0:0:0:
256,192,21355,1,8,0:0:0:0:
256,192,21689,1,8,0:0:0:0:
256,160,22022,1,0,0:0:0:0:
256,192,22689,1,0,0:0:0:0:
256,192,23689,1,8,0:0:0:0:
256,192,24022,1,0,0:0:0:0:
256,192,24689,1,8,0:0:0:0:
256,192,25355,1,0,0:0:0:0:
256,192,26355,1,8,0:0:0:0:
256,192,26689,1,8,0:0:0:0:
256,160,27355,1,0,0:0:0:0:
256,192,28022,1,8,0:0:0:0:
256,192,28689,1,8,0:0:0:0:
256,192,29355,1,0,0:0:0:0:
256,192,30355,1,8,0:0:0:0:
256,192,30689,1,0,0:0:0:0:
256,192,31355,1,8,0:0:0:0:
256,192,32022,1,0,0:0:0:0:
256,192,32355,1,8,0:0:0:0:
256,160,32689,1,8,0:0:0:0:
224,128,33355,1,4,0:0:0:0:
224,128,34689,1,8,0:0:0:0:
224,128,36022,1,0,0:0:0:0:
224,128,36689,1,8,0:0:0:0:
224,128,37355,1,0,0:0:0:0:
224,128,38689,1,0,0:0:0:0:
224,128,39355,1,8,0:0:0:0:
224,128,40022,1,0,0:0:0:0:
224,128,40355,1,0,0:0:0:0:
224,128,40689,1,8,0:0:0:0:
224,128,41355,1,0,0:0:0:0:
224,128,42022,1,8,0:0:0:0:
224,128,42355,1,8,0:0:0:0:
224,128,42689,1,0,0:0:0:0:
224,128,43355,1,8,0:0:0:0:
224,128,44022,1,0,0:0:0:0:
224,128,45355,1,8,0:0:0:0:
224,128,46689,1,0,0:0:0:0:
224,128,47355,1,8,0:0:0:0:
224,128,48022,1,0,0:0:0:0:
224,128,49355,1,8,0:0:0:0:
224,128,50022,1,0,0:0:0:0:
224,128,50689,1,8,0:0:0:0:
224,128,52022,1,0,0:0:0:0:
224,128,52355,1,8,0:0:0:0:
224,128,53022,1,8,0:0:0:0:
224,128,53355,1,0,0:0:0:0:
224,128,54022,1,8,0:0:0:0:
224,128,54355,1,8,0:0:0:0:
224,128,54689,1,0,0:0:0:0:
224,128,56022,1,4,0:0:0:0:
224,128,56689,1,8,0:0:0:0:
224,128,57355,1,0,0:0:0:0:
224,128,57689,1,8,0:0:0:0:
221,97,58022,1,0,0:0:0:0:
224,128,58689,1,8,0:0:0:0:
224,128,59355,1,0,0:0:0:0:
165,118,60022,1,8,0:0:0:0:
224,128,61355,1,0,0:0:0:0:
224,128,62022,1,8,0:0:0:0:
215,108,62689,1,0,0:0:0:0:
224,128,64022,1,8,0:0:0:0:
224,128,64355,1,8,0:0:0:0:
219,112,64689,1,0,0:0:0:0:
224,128,65355,1,8,0:0:0:0:
224,128,66022,1,0,0:0:0:0:
224,128,66355,1,8,0:0:0:0:
224,128,66689,1,4,0:0:0:0:
224,128,67355,1,8,0:0:0:0:
224,128,68022,1,0,0:0:0:0:
224,128,68355,1,0,0:0:0:0:
224,128,68689,1,8,0:0:0:0:
224,128,69355,1,0,0:0:0:0:
224,128,70022,1,8,0:0:0:0:
224,128,70689,1,0,0:0:0:0:
224,128,72022,1,0,0:0:0:0:
224,128,72689,1,8,0:0:0:0:
224,128,73355,1,0,0:0:0:0:
224,128,73689,1,8,0:0:0:0:
224,128,74022,1,0,0:0:0:0:
224,128,74689,1,8,0:0:0:0:
224,128,75355,1,8,0:0:0:0:
224,128,76022,1,0,0:0:0:0:
224,128,76689,1,8,0:0:0:0:
224,128,77022,1,8,0:0:0:0:
224,128,77355,1,4,0:0:0:0:
224,128,78022,1,8,0:0:0:0:
224,128,79355,1,8,0:0:0:0:
224,128,80022,1,0,0:0:0:0:
224,128,80689,1,8,0:0:0:0:
224,128,81689,1,0,0:0:0:0:
224,128,82022,1,8,0:0:0:0:
224,128,82689,1,0,0:0:0:0:
224,128,83355,1,8,0:0:0:0:
224,128,84689,1,8,0:0:0:0:
224,128,85355,1,0,0:0:0:0:
224,128,86022,1,8,0:0:0:0:
224,128,87022,1,0,0:0:0:0:
224,128,87355,1,8,0:0:0:0:
256,192,88022,1,4,0:0:0:0:
256,192,89355,1,0,0:0:0:0:
256,192,90022,1,8,0:0:0:0:
256,192,90689,1,0,0:0:0:0:
256,192,92022,1,0,0:0:0:0:
256,160,92689,1,8,0:0:0:0:
256,192,93355,1,0,0:0:0:0:
256,192,94355,1,8,0:0:0:0:
256,192,94689,1,0,0:0:0:0:
256,192,95355,1,8,0:0:0:0:
256,192,96022,1,0,0:0:0:0:
256,192,96689,1,8,0:0:0:0:
256,192,97355,1,8,0:0:0:0:
256,192,97689,1,8,0:0:0:0:
256,160,98022,1,0,0:0:0:0:
256,192,98689,1,0,0:0:0:0:
256,192,99689,1,8,0:0:0:0:
256,192,100022,1,0,0:0:0:0:
256,192,100689,1,8,0:0:0:0:
256,192,101355,1,0,0:0:0:0:
256,192,102355,1,8,0:0:0:0:
256,192,102689,1,8,0:0:0:0:
256,160,103355,1,0,0:0:0:0:
256,192,104022,1,8,0:0:0:0:
256,192,104689,1,8,0:0:0:0:
256,192,105355,1,0,0:0:0:0:
256,192,106355,1,8,0:0:0:0:
256,192,106689,1,0,0:0:0:0:
256,192,107355,1,8,0:0:0:0:
256,192,108022,1,0,0:0:0:0:
256,192,108355,1,8,0:0:0:0:
256,160,108689,1,8,0:0:0:0:
224,128,109355,5,4,0:0:0:0:
224,128,110689,1,8,0:0:0:0:
224,128,112022,5,0,0:0:0:0:
224,128,112689,1,8,0:0:0:0:
224,128,113355,1,0,0:0:0:0:
224,128,114689,1,0,0:0:0:0:
224,128,115355,1,0,0:0:0:0:
224,128,116022,1,8,0:0:0:0:
224,128,116355,1,8,0:0:0:0:
224,128,116689,1,0,0:0:0:0:
224,128,117355,1,8,0:0:0:0:
224,128,118022,1,0,0:0:0:0:
224,128,118355,1,8,0:0:0:0:
224,128,118689,1,0,0:0:0:0:
224,128,119355,1,8,0:0:0:0:
224,128,119689,1,8,0:0:0:0:
224,128,120022,1,0,0:0:0:0:
224,128,121355,1,8,0:0:0:0:
224,128,122689,1,0,0:0:0:0:
219,94,123355,1,8,0:0:0:0:
224,128,124022,1,0,0:0:0:0:
224,128,125355,1,8,0:0:0:0:
224,128,126022,1,0,0:0:0:0:
224,128,126689,1,8,0:0:0:0:
224,128,128022,1,0,0:0:0:0:
224,128,128355,1,8,0:0:0:0:
224,128,129022,1,8,0:0:0:0:
224,128,129355,1,0,0:0:0:0:
224,128,130022,1,8,0:0:0:0:
224,128,130689,1,0,0:0:0:0:
224,128,132022,1,4,0:0:0:0:
224,128,132689,1,8,0:0:0:0:
224,128,133355,1,0,0:0:0:0:
224,128,133689,1,8,0:0:0:0:
221,97,134022,1,0,0:0:0:0:
224,128,134689,1,8,0:0:0:0:
224,128,135355,1,0,0:0:0:0:
165,118,136022,1,8,0:0:0:0:
224,128,137355,1,0,0:0:0:0:
224,128,138022,1,8,0:0:0:0:
215,108,138689,1,0,0:0:0:0:
224,128,140022,1,8,0:0:0:0:
224,128,140355,1,8,0:0:0:0:
219,112,140689,1,0,0:0:0:0:
224,128,141355,1,8,0:0:0:0:
224,128,142022,1,0,0:0:0:0:
224,128,142355,1,8,0:0:0:0:
224,128,142689,1,4,0:0:0:0:
224,128,143355,1,8,0:0:0:0:
224,128,144022,1,0,0:0:0:0:
224,128,144355,1,0,0:0:0:0:
224,128,144689,1,8,0:0:0:0:
224,128,145355,1,0,0:0:0:0:
224,128,146022,1,8,0:0:0:0:
224,128,146689,1,0,0:0:0:0:
224,128,148022,1,0,0:0:0:0:
224,128,148689,1,8,0:0:0:0:
224,128,149355,1,0,0:0:0:0:
224,128,149689,1,8,0:0:0:0:
224,128,150022,1,0,0:0:0:0:
224,128,150689,1,8,0:0:0:0:
224,128,151355,1,8,0:0:0:0:
224,128,152022,1,0,0:0:0:0:
224,128,152689,1,8,0:0:0:0:
224,128,153022,1,8,0:0:0:0:
224,128,153355,1,4,0:0:0:0:
247,201,154022,5,8,0:0:0:0:
234,140,155689,1,0,0:0:0:0:
234,140,156022,1,0,0:0:0:0:
247,201,156689,1,8,0:0:0:0:
234,140,158355,1,8,0:0:0:0:
234,140,158689,1,0,0:0:0:0:
247,201,159355,1,8,0:0:0:0:
234,140,161022,1,0,0:0:0:0:
234,140,161355,1,0,0:0:0:0:
247,201,162022,1,8,0:0:0:0:
234,140,163689,1,8,0:0:0:0:
234,140,164022,1,4,0:0:0:0:
234,140,164689,1,8,0:0:0:0:
234,140,166022,1,8,0:0:0:0:
234,140,166689,1,0,0:0:0:0:
234,140,167355,1,8,0:0:0:0:
234,140,168022,1,0,0:0:0:0:
234,140,168355,1,0,0:0:0:0:
234,140,168689,1,8,0:0:0:0:
234,140,169355,1,0,0:0:0:0:
227,115,170022,1,8,0:0:0:0:
227,115,170689,1,0,0:0:0:0:
227,115,171022,1,8,0:0:0:0:
227,115,171355,1,0,0:0:0:0:
227,115,172022,1,8,0:0:0:0:
227,115,173355,1,0,0:0:0:0:
227,115,174022,1,8,0:0:0:0:
227,115,174355,1,8,0:0:0:0:
227,115,174689,1,0,0:0:0:0:
224,128,176022,1,4,0:0:0:0:
224,128,176689,1,8,0:0:0:0:
224,128,177355,1,0,0:0:0:0:
224,128,177689,1,8,0:0:0:0:
221,97,178022,1,0,0:0:0:0:
183,47,178355,1,0,0:0:0:0:
224,128,178689,1,8,0:0:0:0:
224,128,179355,1,0,0:0:0:0:
165,118,180022,1,8,0:0:0:0:
224,128,181355,1,0,0:0:0:0:
224,128,182022,1,8,0:0:0:0:
215,108,182689,1,0,0:0:0:0:
224,128,184022,1,8,0:0:0:0:
224,128,184355,1,8,0:0:0:0:
219,112,184689,1,0,0:0:0:0:
66,19,185022,1,0,0:0:0:0:
224,128,185355,1,8,0:0:0:0:
224,128,186022,1,0,0:0:0:0:
224,128,186355,1,8,0:0:0:0:
224,128,186689,1,4,0:0:0:0:
224,128,187355,1,8,0:0:0:0:
224,128,188022,1,0,0:0:0:0:
224,128,188355,1,0,0:0:0:0:
224,128,188689,1,8,0:0:0:0:
194,14,189022,1,8,0:0:0:0:
224,128,189355,1,0,0:0:0:0:
224,128,190022,1,8,0:0:0:0:
224,128,190689,1,0,0:0:0:0:
224,128,192022,1,0,0:0:0:0:
224,128,192689,1,8,0:0:0:0:
224,128,193355,1,0,0:0:0:0:
224,128,193689,1,8,0:0:0:0:
224,128,194022,1,0,0:0:0:0:
224,128,194689,1,8,0:0:0:0:
224,128,195355,1,8,0:0:0:0:
224,128,196022,1,0,0:0:0:0:
123,32,196355,1,8,0:0:0:0:
224,128,196689,1,8,0:0:0:0:
224,128,197022,1,8,0:0:0:0:
224,128,197355,1,4,0:0:0:0:
224,128,198022,5,8,0:0:0:0:
224,128,199355,1,8,0:0:0:0:
224,128,200022,1,0,0:0:0:0:
224,128,200689,1,8,0:0:0:0:
224,128,201689,1,0,0:0:0:0:
224,128,202022,1,8,0:0:0:0:
224,128,202689,1,0,0:0:0:0:
224,128,203355,1,8,0:0:0:0:
224,128,204689,1,8,0:0:0:0:
224,128,205355,1,0,0:0:0:0:
224,128,206022,1,8,0:0:0:0:
224,128,207022,1,0,0:0:0:0:
224,128,207355,1,8,0:0:0:0:
224,128,208022,1,4,0:0:0:0:
224,128,208689,1,8,0:0:0:0:
224,128,209689,1,0,0:0:0:0:
224,128,210022,1,8,0:0:0:0:
224,128,210689,1,0,0:0:0:0:
224,128,211355,1,8,0:0:0:0:
224,128,211689,1,0,0:0:0:0:
224,128,212355,1,0,0:0:0:0:
224,128,212689,1,8,0:0:0:0:
224,128,213355,1,0,0:0:0:0:
224,128,214022,1,8,0:0:0:0:
224,128,215022,1,0,0:0:0:0:
224,128,215355,1,8,0:0:0:0:
224,128,216022,1,0,0:0:0:0:
224,128,216689,1,8,0:0:0:0:
239,19,217022,1,0,0:0:0:0:
224,128,217689,1,0,0:0:0:0:
224,128,218022,1,8,0:0:0:0:
224,128,218689,1,4,0:0:0:0:
