osu file format v14

[General]
AudioFilename: audio.ogg
AudioLeadIn: 0
PreviewTime: 55579
Countdown: 0
SampleSet: Normal
StackLeniency: 0.7
Mode: 1
LetterboxInBreaks: 0
WidescreenStoryboard: 1

[Editor]
Bookmarks: 1356,12023,17356,22690,33356,44022,44023,56023,66690,77356,88023,98690,109356,132023,142690,153356,164023,176023,186690,197356,208023
DistanceSpacing: 0.8
BeatDivisor: 3
GridSize: 32
TimelineZoom: 1.8

[Metadata]
Title:Bloody Mary
TitleUnicode:Bloody Mary
Artist:KANKAN
ArtistUnicode:缶缶
Creator:gaston_2199
Version:Futsuu
Source:
Tags:ROAR FAKE TYPE. フェイク タイプ TOPHAMHAT-KYO DYES IWASAKI sakiyama biz japanese pop jpop j-pop female vocal
BeatmapID:3626227
BeatmapSetID:1771346

[Difficulty]
HPDrainRate:7
CircleSize:2
OverallDifficulty:4
ApproachRate:10
SliderMultiplier:1.4
SliderTickRate:1

[Events]
//Background and Video events
0,0,"BG.jpg",0,60
//Break Periods
//Storyboard Layer 0 (Background)
//Storyboard Layer 1 (Fail)
//Storyboard Layer 2 (Pass)
//Storyboard Layer 3 (Foreground)
//Storyboard Layer 4 (Overlay)
//Storyboard Sound Samples

[TimingPoints]
1356,333.333333333333,4,1,0,80,1,0
1356,-111.111111111111,4,1,0,80,0,0
12244,-111.111111111111,4,1,0,70,0,0
17012,-105.263157894737,4,1,0,70,0,0
17352,-100,4,1,0,80,0,0
33345,-100,4,1,0,90,0,0
54578,-83.3333333333333,4,1,0,50,0,0
56022,-90.9090909090909,4,1,0,100,0,1
77355,-90.9090909090909,4,1,0,100,0,0
77522,-111.111111111111,4,1,0,90,0,0
88022,-100,4,1,0,80,0,0
88244,-111.111111111111,4,1,0,70,0,0
93003,-105.263157894737,4,1,0,70,0,0
93343,-100,4,1,0,80,0,0
109341,-100,4,1,0,90,0,0
130633,-100,4,1,0,50,0,0
132022,-90.9090909090909,4,1,0,100,0,1
153355,-90.9090909090909,4,1,0,100,0,0
153578,-111.111111111111,4,1,0,80,0,0
174633,-111.111111111111,4,1,0,50,0,0
176022,-83.3333333333333,4,1,0,100,0,1
197355,-83.3333333333333,4,1,0,90,0,0
197578,-100,4,1,0,90,0,0
208022,-90.9090909090909,4,1,0,90,0,0
218689,-83.3333333333333,4,1,0,90,0,0

[HitObjects]
256,192,1356,5,4,0:0:0:0:
256,192,2022,1,0,0:0:0:0:
256,192,2578,1,8,0:0:0:0:
256,192,4244,1,8,0:0:0:0:
256,192,4689,1,0,0:0:0:0:
256,192,5244,1,8,0:0:0:0:
256,192,5689,1,0,0:0:0:0:
256,192,6911,1,8,0:0:0:0:
256,192,7355,1,0,0:0:0:0:
256,192,7911,1,8,0:0:0:0:
256,192,8355,1,0,0:0:0:0:
256,192,9578,1,8,0:0:0:0:
256,192,10022,1,0,0:0:0:0:
256,192,10578,1,8,0:0:0:0:
256,192,11022,1,0,0:0:0:0:
256,192,12022,1,4,0:0:0:0:
256,192,12689,1,8,0:0:0:0:
256,192,13355,1,0,0:0:0:0:
256,192,14022,1,0,0:0:0:0:
256,192,14355,1,8,0:0:0:0:
256,192,14689,1,0,0:0:0:0:
256,192,15355,1,8,0:0:0:0:
256,192,16022,1,0,0:0:0:0:
256,160,16689,1,8,0:0:0:0:
256,160,17022,1,8,0:0:0:0:
256,192,17355,1,0,0:0:0:0:
256,192,18022,1,8,0:0:0:0:
256,192,18355,1,0,0:0:0:0:
256,192,18689,1,8,0:0:0:0:
256,192,19022,1,8,0:0:0:0:
256,192,19355,1,0,0:0:0:0:
256,192,19689,1,8,0:0:0:0:
256,192,20022,1,0,0:0:0:0:
256,192,20689,1,8,0:0:0:0:
256,192,21355,1,0,0:0:0:0:
256,192,21689,1,8,0:0:0:0:
256,160,22022,1,0,0:0:0:0:
256,160,22355,1,8,0:0:0:0:
256,192,22689,1,0,0:0:0:0:
256,192,23355,1,8,0:0:0:0:
256,192,23689,1,8,0:0:0:0:
256,192,24022,1,0,0:0:0:0:
256,192,24355,1,8,0:0:0:0:
256,192,24689,1,0,0:0:0:0:
256,192,25022,1,8,0:0:0:0:
256,192,25355,1,0,0:0:0:0:
256,192,26022,1,8,0:0:0:0:
256,192,26355,1,0,0:0:0:0:
256,192,26689,1,8,0:0:0:0:
256,192,27022,1,8,0:0:0:0:
256,160,27355,1,0,0:0:0:0:
256,160,27689,1,0,0:0:0:0:
256,192,28022,1,8,0:0:0:0:
256,192,28689,1,0,0:0:0:0:
256,192,29355,1,8,0:0:0:0:
256,192,29911,1,0,0:0:0:0:
256,192,30355,1,8,0:0:0:0:
256,192,30689,1,0,0:0:0:0:
256,192,31355,1,0,0:0:0:0:
256,192,31689,1,8,0:0:0:0:
256,192,32022,1,0,0:0:0:0:
256,192,32355,1,8,0:0:0:0:
256,160,32689,1,8,0:0:0:0:
224,128,33022,1,8,0:0:0:0:
224,128,33355,1,4,0:0:0:0:
224,128,33689,1,8,0:0:0:0:
224,128,34022,1,0,0:0:0:0:
224,128,34689,1,8,0:0:0:0:
224,128,35022,1,8,0:0:0:0:
224,128,35355,1,0,0:0:0:0:
224,128,36022,1,0,0:0:0:0:
224,128,36355,1,8,0:0:0:0:
224,128,36689,1,8,0:0:0:0:
224,128,37355,1,8,0:0:0:0:
224,128,37689,1,0,0:0:0:0:
224,128,38022,1,8,0:0:0:0:
224,128,38689,1,0,0:0:0:0:
224,128,39022,1,8,0:0:0:0:
224,128,39355,1,0,0:0:0:0:
224,128,39689,1,8,0:0:0:0:
224,128,40022,1,0,0:0:0:0:
224,128,40355,1,0,0:0:0:0:
224,128,40689,1,8,0:0:0:0:
224,128,41355,1,8,0:0:0:0:
224,128,41689,1,0,0:0:0:0:
224,128,42022,1,8,0:0:0:0:
224,128,42355,1,8,0:0:0:0:
224,128,42689,1,0,0:0:0:0:
224,128,43022,1,8,0:0:0:0:
224,128,43355,1,8,0:0:0:0:
224,128,43689,1,8,0:0:0:0:
224,128,44022,1,0,0:0:0:0:
224,128,44355,1,8,0:0:0:0:
224,128,44689,1,0,0:0:0:0:
224,128,45355,1,8,0:0:0:0:
224,128,45689,1,8,0:0:0:0:
224,128,46022,1,0,0:0:0:0:
224,128,46689,1,0,0:0:0:0:
224,128,47355,1,0,0:0:0:0:
224,128,47689,1,8,0:0:0:0:
224,128,48022,1,0,0:0:0:0:
224,128,48578,1,8,0:0:0:0:
224,128,49355,1,0,0:0:0:0:
224,128,50022,1,0,0:0:0:0:
224,128,50355,1,8,0:0:0:0:
224,128,50689,1,0,0:0:0:0:
224,128,51244,1,8,0:0:0:0:
224,128,52022,1,0,0:0:0:0:
224,128,52355,1,8,0:0:0:0:
224,128,52578,1,0,0:0:0:0:
224,128,53022,1,8,0:0:0:0:
224,128,53355,1,0,0:0:0:0:
224,128,53578,1,8,0:0:0:0:
224,128,54022,1,8,0:0:0:0:
224,128,54355,1,8,0:0:0:0:
224,128,54689,1,0,0:0:0:0:
224,128,56022,1,4,0:0:0:0:
224,128,56689,1,8,0:0:0:0:
224,128,57022,1,8,0:0:0:0:
224,128,57355,1,0,0:0:0:0:
224,128,57689,1,8,0:0:0:0:
221,97,58022,1,0,0:0:0:0:
224,128,58355,1,8,0:0:0:0:
224,128,58689,1,0,0:0:0:0:
224,128,59355,1,0,0:0:0:0:
224,128,59689,1,8,0:0:0:0:
165,118,60022,1,0,0:0:0:0:
224,128,60355,1,8,0:0:0:0:
224,128,61022,1,8,0:0:0:0:
224,128,61355,1,0,0:0:0:0:
224,128,62022,1,8,0:0:0:0:
215,108,62689,1,0,0:0:0:0:
224,128,63022,1,8,0:0:0:0:
224,128,63355,1,0,0:0:0:0:
224,128,64022,1,8,0:0:0:0:
224,128,64355,1,8,0:0:0:0:
219,112,64689,1,0,0:0:0:0:
224,128,65022,1,0,0:0:0:0:
224,128,65355,1,8,0:0:0:0:
224,128,65689,1,0,0:0:0:0:
224,128,66022,1,8,0:0:0:0:
224,128,66355,1,8,0:0:0:0:
224,128,66689,1,4,0:0:0:0:
224,128,67355,1,0,0:0:0:0:
224,128,67689,1,8,0:0:0:0:
224,128,68022,1,0,0:0:0:0:
224,128,68355,1,0,0:0:0:0:
224,128,68689,1,8,0:0:0:0:
224,128,69022,1,8,0:0:0:0:
224,128,69355,1,0,0:0:0:0:
224,128,70022,1,8,0:0:0:0:
224,128,70355,1,8,0:0:0:0:
224,128,70689,1,0,0:0:0:0:
224,128,71022,1,8,0:0:0:0:
224,128,71689,1,8,0:0:0:0:
224,128,72022,1,0,0:0:0:0:
224,128,72355,1,8,0:0:0:0:
224,128,72689,1,0,0:0:0:0:
224,128,73022,1,0,0:0:0:0:
224,128,73355,1,8,0:0:0:0:
224,128,73689,1,8,0:0:0:0:
224,128,74022,1,0,0:0:0:0:
224,128,74689,1,8,0:0:0:0:
224,128,75022,1,0,0:0:0:0:
224,128,75355,1,8,0:0:0:0:
224,128,75689,1,8,0:0:0:0:
224,128,76022,1,0,0:0:0:0:
224,128,76355,1,8,0:0:0:0:
224,128,76689,1,8,0:0:0:0:
224,128,77022,1,8,0:0:0:0:
224,128,77355,1,4,0:0:0:0:
224,128,78022,1,8,0:0:0:0:
224,128,78355,1,0,0:0:0:0:
224,128,79022,1,0,0:0:0:0:
224,128,79355,1,8,0:0:0:0:
224,128,80022,1,0,0:0:0:0:
224,128,80689,1,8,0:0:0:0:
224,128,81022,1,0,0:0:0:0:
224,128,81689,1,0,0:0:0:0:
224,128,82022,1,8,0:0:0:0:
224,128,82355,1,8,0:0:0:0:
224,128,82689,1,0,0:0:0:0:
224,128,83355,1,8,0:0:0:0:
224,128,83689,1,0,0:0:0:0:
224,128,84355,1,0,0:0:0:0:
224,128,84689,1,8,0:0:0:0:
224,128,85355,1,0,0:0:0:0:
224,128,86022,1,8,0:0:0:0:
256,64,86355,1,0,0:0:0:0:
224,128,87022,1,0,0:0:0:0:
224,128,87355,1,8,0:0:0:0:
224,128,87689,1,8,0:0:0:0:
256,192,88022,1,4,0:0:0:0:
256,192,88689,1,8,0:0:0:0:
256,192,89355,1,0,0:0:0:0:
256,192,90022,1,0,0:0:0:0:
256,192,90355,1,8,0:0:0:0:
256,192,90689,1,0,0:0:0:0:
256,192,91355,1,8,0:0:0:0:
256,192,92022,1,0,0:0:0:0:
256,160,92689,1,8,0:0:0:0:
256,160,93022,1,8,0:0:0:0:
256,192,93355,1,0,0:0:0:0:
256,192,94022,1,8,0:0:0:0:
256,192,94355,1,0,0:0:0:0:
256,192,94689,1,8,0:0:0:0:
256,192,95022,1,8,0:0:0:0:
256,192,95355,1,0,0:0:0:0:
256,192,95689,1,8,0:0:0:0:
256,192,96022,1,0,0:0:0:0:
256,192,96689,1,8,0:0:0:0:
256,192,97355,1,0,0:0:0:0:
256,192,97689,1,8,0:0:0:0:
256,160,98022,1,0,0:0:0:0:
256,160,98355,1,8,0:0:0:0:
256,192,98689,1,0,0:0:0:0:
256,192,99355,1,8,0:0:0:0:
256,192,99689,1,8,0:0:0:0:
256,192,100022,1,0,0:0:0:0:
256,192,100355,1,8,0:0:0:0:
256,192,100689,1,0,0:0:0:0:
256,192,101022,1,8,0:0:0:0:
256,192,101355,1,0,0:0:0:0:
256,192,102022,1,8,0:0:0:0:
256,192,102355,1,0,0:0:0:0:
256,192,102689,1,8,0:0:0:0:
256,192,103022,1,8,0:0:0:0:
256,160,103355,1,0,0:0:0:0:
256,160,103689,1,0,0:0:0:0:
256,192,104022,1,8,0:0:0:0:
256,192,104689,1,0,0:0:0:0:
256,192,105355,1,8,0:0:0:0:
256,192,105911,1,0,0:0:0:0:
256,192,106355,1,8,0:0:0:0:
256,192,106689,1,0,0:0:0:0:
256,192,107355,1,0,0:0:0:0:
256,192,107689,1,8,0:0:0:0:
256,192,108022,1,0,0:0:0:0:
256,192,108355,1,8,0:0:0:0:
256,160,108689,1,8,0:0:0:0:
224,128,109022,1,8,0:0:0:0:
224,128,109355,1,4,0:0:0:0:
224,128,109689,1,8,0:0:0:0:
224,128,110022,1,0,0:0:0:0:
224,128,110689,1,8,0:0:0:0:
224,128,111022,1,8,0:0:0:0:
224,128,111355,1,0,0:0:0:0:
224,128,112022,5,0,0:0:0:0:
224,128,112689,1,8,0:0:0:0:
224,128,113022,1,8,0:0:0:0:
224,128,113355,1,0,0:0:0:0:
224,128,113689,1,8,0:0:0:0:
224,128,114022,1,0,0:0:0:0:
224,128,114689,1,0,0:0:0:0:
224,128,115022,1,8,0:0:0:0:
224,128,115355,1,0,0:0:0:0:
224,128,115689,1,0,0:0:0:0:
224,128,116022,1,8,0:0:0:0:
224,128,116355,1,8,0:0:0:0:
224,128,116689,1,0,0:0:0:0:
224,128,117355,1,8,0:0:0:0:
224,128,117689,1,0,0:0:0:0:
224,128,118022,1,8,0:0:0:0:
224,128,118355,1,8,0:0:0:0:
224,128,118689,1,0,0:0:0:0:
224,128,119022,1,8,0:0:0:0:
224,128,119355,1,8,0:0:0:0:
224,128,119689,1,8,0:0:0:0:
224,128,120022,1,0,0:0:0:0:
224,128,120355,1,8,0:0:0:0:
224,128,120689,1,0,0:0:0:0:
224,128,121355,1,8,0:0:0:0:
224,128,121689,1,8,0:0:0:0:
224,128,122022,1,0,0:0:0:0:
224,128,122689,1,8,0:0:0:0:
219,94,123355,1,0,0:0:0:0:
175,28,123689,1,8,0:0:0:0:
224,128,124022,1,0,0:0:0:0:
224,128,124578,1,8,0:0:0:0:
224,128,125355,1,0,0:0:0:0:
224,128,126022,1,0,0:0:0:0:
224,128,126355,1,8,0:0:0:0:
224,128,126689,1,0,0:0:0:0:
224,128,127244,1,8,0:0:0:0:
224,128,128022,1,0,0:0:0:0:
224,128,128355,1,8,0:0:0:0:
224,128,128578,1,0,0:0:0:0:
224,128,129022,1,8,0:0:0:0:
224,128,129355,1,0,0:0:0:0:
224,128,129578,1,8,0:0:0:0:
224,128,130022,1,8,0:0:0:0:
224,128,130244,1,8,0:0:0:0:
224,128,130689,1,0,0:0:0:0:
224,128,132022,1,4,0:0:0:0:
224,128,132689,1,8,0:0:0:0:
224,128,133022,1,8,0:0:0:0:
224,128,133355,1,0,0:0:0:0:
224,128,133689,1,8,0:0:0:0:
221,97,134022,1,0,0:0:0:0:
224,128,134355,1,8,0:0:0:0:
224,128,134689,1,0,0:0:0:0:
224,128,135355,1,0,0:0:0:0:
224,128,135689,1,8,0:0:0:0:
165,118,136022,1,0,0:0:0:0:
224,128,136355,1,8,0:0:0:0:
224,128,137022,1,8,0:0:0:0:
224,128,137355,1,0,0:0:0:0:
224,128,138022,1,8,0:0:0:0:
215,108,138689,1,0,0:0:0:0:
224,128,139022,1,8,0:0:0:0:
224,128,139355,1,0,0:0:0:0:
224,128,140022,1,8,0:0:0:0:
224,128,140355,1,8,0:0:0:0:
219,112,140689,1,0,0:0:0:0:
224,128,141022,1,0,0:0:0:0:
224,128,141355,1,8,0:0:0:0:
224,128,141689,1,0,0:0:0:0:
224,128,142022,1,8,0:0:0:0:
224,128,142355,1,8,0:0:0:0:
224,128,142689,1,4,0:0:0:0:
224,128,143355,1,0,0:0:0:0:
224,128,143689,1,8,0:0:0:0:
224,128,144022,1,0,0:0:0:0:
224,128,144355,1,0,0:0:0:0:
224,128,144689,1,8,0:0:0:0:
224,128,145022,1,8,0:0:0:0:
224,128,145355,1,0,0:0:0:0:
224,128,146022,1,8,0:0:0:0:
224,128,146355,1,8,0:0:0:0:
224,128,146689,1,0,0:0:0:0:
224,128,147022,1,8,0:0:0:0:
224,128,147689,1,8,0:0:0:0:
224,128,148022,1,0,0:0:0:0:
224,128,148355,1,8,0:0:0:0:
224,128,148689,1,0,0:0:0:0:
224,128,149022,1,0,0:0:0:0:
224,128,149355,1,8,0:0:0:0:
224,128,149689,1,8,0:0:0:0:
224,128,150022,1,0,0:0:0:0:
224,128,150689,1,8,0:0:0:0:
224,128,151022,1,0,0:0:0:0:
224,128,151355,1,8,0:0:0:0:
224,128,151689,1,8,0:0:0:0:
224,128,152022,1,0,0:0:0:0:
224,128,152355,1,8,0:0:0:0:
224,128,152689,1,8,0:0:0:0:
224,128,153022,1,8,0:0:0:0:
224,128,153355,1,4,0:0:0:0:
247,201,154022,5,8,0:0:0:0:
247,201,154578,1,0,0:0:0:0:
234,140,155689,1,0,0:0:0:0:
234,140,156022,1,0,0:0:0:0:
247,201,156689,1,8,0:0:0:0:
247,201,157244,1,0,0:0:0:0:
234,140,158355,1,8,0:0:0:0:
234,140,158689,1,0,0:0:0:0:
247,201,159355,1,8,0:0:0:0:
247,201,159911,1,0,0:0:0:0:
234,140,161022,1,0,0:0:0:0:
234,140,161355,1,0,0:0:0:0:
247,201,162022,1,8,0:0:0:0:
247,201,162578,1,0,0:0:0:0:
234,140,163689,1,8,0:0:0:0:
234,140,164022,1,4,0:0:0:0:
234,140,164689,1,8,0:0:0:0:
234,140,165355,1,0,0:0:0:0:
234,140,166022,1,8,0:0:0:0:
234,140,166689,1,0,0:0:0:0:
234,140,167022,1,0,0:0:0:0:
234,140,167355,1,8,0:0:0:0:
234,140,168022,1,8,0:0:0:0:
234,140,168355,1,0,0:0:0:0:
234,140,168689,1,8,0:0:0:0:
234,140,169022,1,8,0:0:0:0:
234,140,169355,1,0,0:0:0:0:
227,115,170022,1,8,0:0:0:0:
227,115,170355,1,0,0:0:0:0:
227,115,170689,1,8,0:0:0:0:
227,115,171022,1,8,0:0:0:0:
227,115,171355,1,0,0:0:0:0:
227,115,171689,1,8,0:0:0:0:
227,115,172022,1,0,0:0:0:0:
227,115,172578,1,8,0:0:0:0:
227,115,173355,1,0,0:0:0:0:
227,115,173689,1,8,0:0:0:0:
227,115,174022,1,0,0:0:0:0:
227,115,174355,1,8,0:0:0:0:
227,115,174689,1,0,0:0:0:0:
224,128,176022,1,4,0:0:0:0:
304,47,176355,1,0,0:0:0:0:
224,128,176689,1,8,0:0:0:0:
224,128,177022,1,8,0:0:0:0:
224,128,177355,1,0,0:0:0:0:
224,128,177689,1,8,0:0:0:0:
221,97,178022,1,0,0:0:0:0:
224,128,178355,1,8,0:0:0:0:
224,128,178689,1,0,0:0:0:0:
224,128,179355,1,0,0:0:0:0:
224,128,179689,1,8,0:0:0:0:
165,118,180022,1,0,0:0:0:0:
224,128,180355,1,8,0:0:0:0:
224,128,181022,1,8,0:0:0:0:
224,128,181355,1,0,0:0:0:0:
224,128,182022,1,8,0:0:0:0:
215,108,182689,1,0,0:0:0:0:
224,128,183022,1,8,0:0:0:0:
224,128,183355,1,0,0:0:0:0:
224,128,184022,1,8,0:0:0:0:
224,128,184355,1,8,0:0:0:0:
219,112,184689,1,0,0:0:0:0:
224,128,185022,1,0,0:0:0:0:
224,128,185355,1,8,0:0:0:0:
224,128,185689,1,0,0:0:0:0:
224,128,186022,1,8,0:0:0:0:
224,128,186355,1,8,0:0:0:0:
224,128,186689,1,4,0:0:0:0:
224,128,187022,1,8,0:0:0:0:
224,128,187355,1,0,0:0:0:0:
224,128,187689,1,8,0:0:0:0:
224,128,188022,1,0,0:0:0:0:
224,128,188355,1,0,0:0:0:0:
224,128,188689,1,8,0:0:0:0:
224,128,189022,1,8,0:0:0:0:
224,128,189355,1,0,0:0:0:0:
224,128,190022,1,8,0:0:0:0:
224,128,190355,1,8,0:0:0:0:
224,128,190689,1,0,0:0:0:0:
224,128,191022,1,8,0:0:0:0:
224,128,191689,1,8,0:0:0:0:
224,128,192022,1,0,0:0:0:0:
224,128,192355,1,8,0:0:0:0:
224,128,192689,1,0,0:0:0:0:
224,128,193022,1,0,0:0:0:0:
224,128,193355,1,8,0:0:0:0:
224,128,193689,1,8,0:0:0:0:
224,128,194022,1,0,0:0:0:0:
224,128,194689,1,8,0:0:0:0:
224,128,195022,1,0,0:0:0:0:
224,128,195355,1,8,0:0:0:0:
224,128,195689,1,8,0:0:0:0:
224,128,196022,1,0,0:0:0:0:
224,128,196355,1,8,0:0:0:0:
224,128,196689,1,8,0:0:0:0:
224,128,197022,1,8,0:0:0:0:
224,128,197355,1,4,0:0:0:0:
224,128,198022,5,8,0:0:0:0:
224,128,198355,1,0,0:0:0:0:
224,128,199022,1,0,0:0:0:0:
224,128,199355,1,8,0:0:0:0:
224,128,200022,1,0,0:0:0:0:
224,128,200689,1,8,0:0:0:0:
224,128,201022,1,0,0:0:0:0:
224,128,201689,1,0,0:0:0:0:
224,128,202022,1,8,0:0:0:0:
224,128,202355,1,8,0:0:0:0:
224,128,202689,1,0,0:0:0:0:
224,128,203355,1,8,0:0:0:0:
224,128,203689,1,0,0:0:0:0:
224,128,204355,1,0,0:0:0:0:
224,128,204689,1,8,0:0:0:0:
224,128,205355,1,0,0:0:0:0:
224,128,206022,1,8,0:0:0:0:
224,128,206355,1,0,0:0:0:0:
224,128,207022,1,0,0:0:0:0:
224,128,207355,1,8,0:0:0:0:
224,128,207689,1,8,0:0:0:0:
224,128,208022,1,4,0:0:0:0:
224,128,208689,1,8,0:0:0:0:
224,128,209022,1,0,0:0:0:0:
224,128,209689,1,0,0:0:0:0:
224,128,210022,1,8,0:0:0:0:
224,128,210355,1,0,0:0:0:0:
224,128,210689,1,0,0:0:0:0:
224,128,211355,1,8,0:0:0:0:
224,128,211689,1,0,0:0:0:0:
224,128,212355,1,0,0:0:0:0:
224,128,212689,1,8,0:0:0:0:
224,128,213022,1,8,0:0:0:0:
224,128,213355,1,0,0:0:0:0:
224,128,214022,1,8,0:0:0:0:
224,128,214355,1,0,0:0:0:0:
224,128,215022,1,0,0:0:0:0:
224,128,215355,1,8,0:0:0:0:
224,128,215689,1,0,0:0:0:0:
224,128,216022,1,0,0:0:0:0:
224,128,216689,1,8,0:0:0:0:
239,19,217022,1,0,0:0:0:0:
224,128,217689,1,0,0:0:0:0:
224,128,218022,1,8,0:0:0:0:
224,128,218355,1,8,0:0:0:0:
224,128,218689,1,4,0:0:0:0:
