osu file format v14

[General]
AudioFilename: audio.mp3
AudioLeadIn: 0
PreviewTime: 182417
Countdown: 0
SampleSet: Normal
StackLeniency: 0.6
Mode: 0
LetterboxInBreaks: 0
WidescreenStoryboard: 0

[Editor]
Bookmarks: 37695,73251,113251,148806,184362,224362,264362
DistanceSpacing: 1.2
BeatDivisor: 4
GridSize: 4
TimelineZoom: 2.5

[Metadata]
Title:God knows...
TitleUnicode:God knows...
Artist:KANAN
ArtistUnicode:KANAN
Creator:Kalibe
Version:Insane
Source:涼宮ハルヒの憂鬱
Tags:The Melancholy of Haruhi Suzumiya mirash japanese jp jazz collaboration anime cover ヤマイ utaite suzumiya haruhi no yuuutsu
BeatmapID:2847694
BeatmapSetID:1327294

[Difficulty]
HPDrainRate:6
CircleSize:4
OverallDifficulty:8
ApproachRate:9
SliderMultiplier:2.2
SliderTickRate:1

[Events]
//Background and Video events
0,0,"nagato.jpg",0,0
//Break Periods
//Storyboard Layer 0 (Background)
//Storyboard Layer 1 (Fail)
//Storyboard Layer 2 (Pass)
//Storyboard Layer 3 (Foreground)
//Storyboard Layer 4 (Overlay)
//Storyboard Sound Samples

[TimingPoints]
2140,555.555555555556,4,1,1,35,1,0
2140,-142.857142857143,4,1,1,35,0,0
9640,588.235294117647,4,1,1,35,1,0
9640,-142.857142857143,4,1,1,35,0,0
10081,594.059405940594,4,1,1,35,1,0
10081,-142.857142857143,4,1,1,35,0,0
10477,612.244897959184,4,1,1,35,1,0
10477,-142.857142857143,4,1,1,35,0,0
10630,750,4,1,1,35,1,0
10755,555.555555555556,4,1,1,35,1,0
11032,555.555555555556,4,1,1,35,1,0
11032,-142.857142857143,4,1,1,35,0,0
16309,576.923076923077,4,1,1,35,1,0
16309,-142.857142857143,4,1,1,35,0,0
16741,612.244897959184,4,1,1,35,1,0
16741,-142.857142857143,4,1,1,35,0,0
17149,540.540540540541,4,1,1,35,1,0
17149,-142.857142857143,4,1,1,35,0,0
17419,526.315789473684,4,1,1,35,1,0
17682,576.923076923077,4,1,1,35,1,0
17682,-142.857142857143,4,1,1,35,0,0
18248,566.037735849057,5,1,1,35,1,0
18248,-142.857142857143,5,1,1,35,0,0
18541,545.454545454546,5,1,1,35,1,0
18541,-142.857142857143,5,1,1,35,0,0
18813,566.037735849057,5,1,1,35,1,0
18954,535.714285714286,5,1,1,35,1,0
19081,555.555555555556,5,1,1,35,1,0
19241,555.555555555556,5,1,1,35,1,0
19917,555.555555555556,5,1,1,40,1,0
19917,-181.818181818181,5,1,1,40,0,0
26306,-250,5,1,1,40,0,0
26584,-181.818181818181,5,1,1,40,0,0
37695,-117.647058823529,5,1,1,50,0,0
71584,-250,5,1,1,50,0,0
72788,-100,5,1,1,55,0,0
73251,-86.9565217391304,5,1,1,60,0,0
80936,-66.6666666666667,5,1,1,60,0,0
81306,-86.9565217391304,5,1,1,60,0,0
98714,-68.9655172413793,5,1,1,60,0,0
99084,-86.9565217391304,5,1,1,60,0,0
106306,-133.333333333333,5,1,1,60,0,0
107140,-100,5,1,1,60,0,0
108806,-80,5,1,1,60,0,0
113251,-100,5,1,1,50,0,0
118667,-66.6666666666667,5,1,1,50,0,0
118714,-66.6666666666667,5,1,1,50,0,0
119084,-100,5,1,1,50,0,0
122140,-133.333333333333,5,1,1,50,0,0
131584,-250,5,1,1,40,0,0
146538,-133.333333333333,5,1,1,45,0,0
147371,-100,5,1,1,50,0,0
156954,-142.857142857143,5,1,1,50,0,0
157232,-100,5,1,1,50,0,0
175195,-68.9655172413793,5,1,1,50,0,0
175473,-100,5,1,1,50,0,0
182695,-250,5,1,1,50,0,0
183899,-100,5,1,1,55,0,0
184362,-86.9565217391304,5,1,1,60,0,0
219917,-100,5,1,1,60,0,0
224362,-153.846153846153,5,1,1,45,0,0
251028,-111.111111111111,5,1,1,55,0,0
264362,-80,5,1,1,60,0,0
268528,-57.1428571428571,5,1,1,60,0,0
270751,-100,5,1,1,60,0,0
271028,-66.6666666666667,5,1,1,60,0,0
279640,-57.1428571428571,5,1,1,60,0,0
279917,-57.1428571428571,5,1,1,30,0,0
280473,-100,5,1,1,40,0,0
280751,-50,5,1,1,50,0,0
281028,-100,5,1,1,40,0,0
281305,-100,5,1,1,70,0,0
281769,-200,5,1,1,30,0,0
281862,-66.6666666666667,5,1,1,60,0,0
286306,-100,5,1,1,60,0,0
286584,-57.1428571428571,5,1,1,60,0,0
289084,-133.333333333333,5,1,1,60,0,0
289362,-66.6666666666667,5,1,1,60,0,0
289964,-66.6666666666667,5,1,1,40,0,0
290658,-57.1428571428571,5,1,1,50,0,0
291028,-66.6666666666667,5,1,1,60,0,0
293251,-100,5,1,1,60,0,0
293528,-80,5,1,1,60,0,0
293806,-66.6666666666667,5,1,1,60,0,0
294084,-57.1428571428571,5,1,1,60,0,0
294362,-50,5,1,1,60,0,0
295473,-100,5,1,1,60,0,0
295751,-80,5,1,1,60,0,0
296028,-66.6666666666667,5,1,1,60,0,0
296305,-57.1428571428571,5,1,1,60,0,0
297140,-50,5,1,1,60,0,0
297417,-250,5,1,1,60,0,0
298251,-250,5,1,1,50,0,0
299917,-100,5,1,1,50,0,0

[Colours]
Combo1 : 128,132,159
Combo2 : 175,185,162

[HitObjects]
37,201,2140,6,0,L|130:188,1,76.9999976501466,2|0,3:2|3:0,0:0:0:0:
175,143,2556,2,0,L|185:195,1,38.4999988250733,2|0,2:2|1:0,0:0:0:0:
313,287,2880,1,0,0:0:0:0:
313,287,2973,2,0,L|232:273,1,76.9999976501466,2|0,2:2|3:0,0:0:0:0:
274,208,3436,2,0,P|258:245|253:317,1,102.666663533529,2|0,2:2|0:0,0:0:0:0:
381,382,4084,1,0,1:0:0:0:
512,286,4362,6,0,P|484:274|444:243,1,76.9999976501466,2|0,3:2|3:0,0:0:0:0:
415,180,4778,1,2,2:2:0:0:
508,82,4917,2,0,P|475:101|427:111,1,76.9999976501466,0|2,1:0|2:0,0:0:0:0:
259,195,5473,5,8,1:3:0:0:
193,162,5751,5,0,2:0:0:0:
193,162,5890,1,0,2:0:0:0:
104,195,6028,1,0,1:0:0:0:
226,234,6306,5,0,3:0:0:0:
308,323,6445,5,8,1:3:0:0:
237,384,6584,2,0,P|237:354|224:302,1,76.9999976501466,2|0,3:2|3:0,0:0:0:0:
155,272,7001,2,0,L|68:292,1,76.9999976501466,2|0,2:2|2:0,0:0:0:0:
79,289,7417,2,0,L|67:235,1,38.4999988250733,2|0,2:0|2:0,0:0:0:0:
19,166,7695,1,0,3:0:0:0:
90,143,7834,2,0,L|139:162,1,38.4999988250733,2|0,2:2|2:0,0:0:0:0:
265,115,8158,1,0,3:0:0:0:
265,115,8251,2,0,L|349:101,1,76.9999976501466,0|0,1:0|3:0,0:0:0:0:
401,40,8714,1,0,3:0:0:0:
444,53,8806,5,6,2:2:0:0:
332,183,9084,1,0,3:0:0:0:
332,183,9223,1,2,0:2:0:0:
196,77,9640,2,0,P|166:71|112:47,1,76.9999976501466,2|0,2:2|3:0,0:0:0:0:
19,153,10081,2,0,P|50:146|96:128,1,76.9999976501466,2|0,2:2|2:0,0:0:0:0:
166,146,10477,2,0,P|173:161|177:190,1,38.4999988250733,2|0,3:3|2:0,0:0:0:0:
42,258,10754,5,0,1:0:0:0:
42,258,10893,1,0,2:0:0:0:
42,258,11032,2,0,P|35:280|-5:338,1,76.9999976501466,2|0,3:2|3:0,0:0:0:0:
62,367,11448,1,0,2:0:0:0:
141,324,11587,1,0,1:0:0:0:
206,359,11865,1,2,2:0:0:0:
273,331,12143,1,8,3:0:0:0:
358,251,12282,2,0,L|347:196,1,38.4999988250733,2|0,2:2|2:0,0:0:0:0:
284,244,12559,1,0,2:0:0:0:
385,325,12698,2,0,P|405:333|469:346,1,76.9999976501466,0|2,1:0|2:0,0:0:0:0:
512,255,13115,5,2,2:0:0:0:
512,255,13184,1,2,2:0:0:0:
512,255,13254,2,0,P|473:235|451:199,1,76.9999976501466,2|0,3:2|3:0,0:0:0:0:
388,246,13670,1,0,2:0:0:0:
267,177,13809,2,0,P|307:167|340:131,1,76.9999976501466,0|0,1:0|2:0,0:0:0:0:
393,57,14226,6,0,L|407:100,1,38.4999988250733,2|0,2:2|3:0,0:0:0:0:
258,24,14504,2,0,L|232:97,1,76.9999976501466,2|0,2:2|2:0,0:0:0:0:
318,134,14920,1,0,1:0:0:0:
125,216,15198,1,0,3:0:0:0:
61,114,15337,5,0,1:0:0:0:
13,123,15476,2,0,L|93:144,1,76.9999976501466,4|0,3:2|3:0,0:0:0:0:
200,236,15893,1,2,2:2:0:0:
140,320,16032,2,0,L|124:372,1,38.4999988250733,0|0,1:0|2:0,0:0:0:0:
290,284,16309,6,0,P|284:264|279:199,1,76.9999976501466,2|0,2:2|3:0,0:0:0:0:
158,84,16741,2,0,P|191:102|227:116,1,76.9999976501466,0|0,1:0|2:0,0:0:0:0:
398,83,17149,2,0,P|361:97|319:123,1,76.9999976501466,0|0,1:0|3:0,0:0:0:0:
254,254,17594,5,0,0:0:0:0:
254,254,17682,1,4,0:0:0:0:
431,191,17970,5,4,0:3:0:0:
340,265,18114,1,2,0:3:0:0:
196,193,18248,2,0,L|154:201,1,38.4999988250733,8|0,0:0|2:0,0:0:0:0:
255,252,18541,6,0,L|266:339,1,76.9999976501466,4|0,0:3|0:0,0:0:0:0:
337,364,18954,1,0,2:0:0:0:
426,271,19081,1,2,2:0:0:0:
278,318,19241,1,6,2:3:0:0:
443,369,19379,5,8,1:0:0:0:
452,376,19657,1,8,1:0:0:0:
226,314,19917,6,0,P|194:315|95:337,1,121.000003692627,4|0,0:2|0:0,0:0:0:0:
83,265,20751,1,0,2:0:0:0:
83,265,20890,2,0,P|46:276|-6:302,1,90.7500027694703,0|2,2:0|0:2,0:0:0:0:
203,325,21584,5,0,0:0:0:0:
315,347,21862,1,2,2:2:0:0:
412,274,22140,2,0,P|406:245|405:149,1,121.000003692627,0|0,3:0|3:0,0:0:0:0:
435,92,22973,1,0,2:0:0:0:
410,28,23251,2,0,P|381:38|348:60,1,60.5000018463135,0|0,3:0|2:0,0:0:0:0:
333,71,23667,1,2,2:0:0:0:
310,56,23806,2,0,P|279:47|242:43,1,60.5000018463135,0|2,1:0|2:3,0:0:0:0:
57,24,24362,6,0,P|101:85|145:82,1,121.000003692627,2|0,3:2|0:0,0:0:0:0:
229,133,25195,1,0,2:0:0:0:
229,133,25334,2,0,P|234:151|236:232,1,90.7500027694703,0|0,2:0|2:0,0:0:0:0:
151,313,26028,1,0,0:0:0:0:
67,215,26306,6,2,B|68:207|68:207|72:202|72:202|75:193,1,22,2|2,2:3|2:3,2:2:0:0:
309,267,26584,6,0,P|337:273|368:282,1,60.5000018463135,0|0,0:0|2:0,0:0:0:0:
416,235,27140,2,0,P|433:261|444:296,1,60.5000018463135,0|2,0:0|2:3,0:0:0:0:
512,315,27695,2,0,P|500:343|473:367,1,60.5000018463135,0|0,0:0|2:0,0:0:0:0:
408,376,28251,1,0,0:0:0:0:
254,325,28528,1,0,2:0:0:0:
178,366,28667,6,0,L|159:372,1,15.1250004615784,2|0,0:2|2:0,0:0:0:0:
173,357,28806,2,0,P|173:339|166:234,1,121.000003692627,0|0,0:0|0:0,0:0:0:0:
316,114,29640,1,0,2:0:0:0:
316,114,29778,2,0,P|311:132|303:210,1,90.7500027694703,0|0,2:0|2:0,0:0:0:0:
302,203,30473,2,0,L|242:188,1,60.5000018463135,0|0,0:0|2:0,0:0:0:0:
123,99,31028,6,0,B|51:84|72:118|-5:112,1,121.000003692627,2|0,0:2|0:0,0:0:0:0:
70,151,31862,1,0,2:0:0:0:
201,218,32140,1,0,0:0:0:0:
321,114,32417,1,0,2:0:0:0:
197,173,32695,1,0,0:0:0:0:
287,294,32973,1,0,2:0:0:0:
449,163,33251,6,0,P|460:186|474:230,1,60.5000018463135,0|0,0:0|2:0,0:0:0:0:
464,165,33667,2,0,P|476:137|483:108,1,60.5000018463135,2|0,2:0|2:0,0:0:0:0:
370,190,34084,2,0,P|319:191|181:206,1,181.500005538941,2|0,2:2|0:0,0:0:0:0:
94,254,35195,1,0,2:0:0:0:
0,193,35473,5,6,0:2:0:0:
30,162,35751,2,0,L|36:198,1,30.2500009231568,6|0,0:3|2:0,0:0:0:0:
169,224,36028,5,0,0:0:0:0:
218,212,36306,2,0,L|207:248,1,30.2500009231568,2|0,0:2|2:0,0:0:0:0:
334,334,36584,5,0,0:0:0:0:
426,299,36862,1,6,0:3:0:0:
426,299,37001,1,0,0:0:0:0:
426,299,37140,1,0,0:0:0:0:
315,317,37417,5,0,0:0:0:0:
380,229,37583,1,6,0:3:0:0:
403,221,37695,2,0,P|405:190|318:157,1,140.250002675057,6|0,0:0|2:0,0:0:0:0:
186,52,38251,6,0,P|184:114|178:159,1,93.500001783371,8|0,0:0|2:0,0:0:0:0:
195,257,38714,1,0,0:0:0:0:
126,289,38806,2,0,P|105:273|73:244,1,62.3333345222473,4|0,0:3|2:0,0:0:0:0:
6,245,39084,1,0,0:0:0:0:
91,369,39269,1,2,0:0:0:0:
165,353,39362,2,0,P|187:355|231:361,1,62.3333345222473,10|0,0:0|0:0,0:0:0:0:
289,316,39640,2,0,P|325:323|399:334,1,93.500001783371,2|4,0:0|0:3,0:0:0:0:
456,320,40195,5,2,0:2:0:0:
329,249,40380,1,2,0:2:0:0:
406,260,40473,2,0,P|405:225|404:185,1,62.3333345222473,8|0,0:0|0:0,0:0:0:0:
475,170,40751,1,2,0:2:0:0:
389,36,40936,1,0,0:0:0:0:
460,65,41028,2,0,P|461:21|458:-5,1,62.3333345222473,4|0,0:3|0:0,0:0:0:0:
344,98,41306,2,0,P|345:63|340:23,1,62.3333345222473,4|0,0:2|0:0,0:0:0:0:
228,120,41584,2,0,P|229:85|223:22,1,93.500001783371,8|0,0:0|2:0,0:0:0:0:
280,209,42140,6,0,P|235:222|171:213,1,93.500001783371,4|0,0:3|2:0,0:0:0:0:
31,140,42695,2,0,P|64:172|88:232,1,93.500001783371,8|0,0:0|2:0,0:0:0:0:
13,356,43158,1,0,0:0:0:0:
91,384,43251,2,0,P|102:338|142:287,1,93.500001783371,4|2,0:3|0:0,0:0:0:0:
261,267,43714,5,0,0:0:0:0:
241,342,43806,2,0,P|291:341|310:343,1,62.3333345222473,10|0,0:0|0:0,0:0:0:0:
364,294,44084,2,0,P|402:303|463:305,1,93.500001783371,2|4,0:0|0:3,0:0:0:0:
386,271,44547,1,2,0:0:0:0:
315,236,44640,2,0,P|291:234|249:238,1,62.3333345222473,0|0,0:0|0:0,0:0:0:0:
381,194,44917,1,8,0:0:0:0:
192,179,45195,1,2,0:0:0:0:
178,18,45380,1,2,0:0:0:0:
113,63,45473,2,0,P|115:97|111:212,2,140.250002675057,4|2|2,0:0|0:0|0:0,0:0:0:0:
15,210,46514,1,2,2:0:0:0:
24,214,46584,6,0,P|22:248|26:374,1,155.833336305618,4|0,0:0|2:0,0:0:0:0:
105,235,47140,2,0,P|104:201|105:167,1,62.3333345222473,8|0,0:0|0:0,0:0:0:0:
182,235,47417,2,0,P|182:261|181:276,1,31.1666672611237,2|0,0:2|2:0,0:0:0:0:
258,175,47602,2,0,P|259:214|254:285,1,93.500001783371,2|0,0:2|0:0,0:0:0:0:
388,185,47973,2,0,P|370:175|334:146,1,62.3333345222473,2|0,0:0|2:0,0:0:0:0:
327,296,48251,2,0,P|349:278|381:263,1,62.3333345222473,10|0,0:0|2:0,0:0:0:0:
457,360,48528,2,0,P|454:313|454:266,1,93.500001783371,2|4,0:0|0:3,0:0:0:0:
313,132,49084,6,0,P|315:85|315:38,1,93.500001783371,2|8,0:0|0:0,0:0:0:0:
315,38,49640,1,2,0:0:0:0:
265,192,49825,1,0,0:0:0:0:
344,198,49917,2,0,P|372:182|401:169,1,62.3333345222473,4|0,0:3|0:0,0:0:0:0:
436,79,50195,1,2,0:0:0:0:
376,274,50380,1,2,0:0:0:0:
300,261,50473,2,0,P|299:293|297:317,2,46.7500008916855,8|2|0,0:0|0:0|0:0,0:0:0:0:
138,106,50890,2,0,L|145:128,1,15.5833336305618,2|0,0:0|0:0,0:0:0:0:
116,121,51028,6,0,P|143:91|245:69,1,140.250002675057,4|0,0:0|2:0,0:0:0:0:
128,223,51584,2,0,P|80:215|55:203,1,62.3333345222473,8|0,0:0|0:0,0:0:0:0:
200,191,51862,1,2,0:2:0:0:
0,240,52047,1,2,0:2:0:0:
0,166,52140,6,0,P|28:137|38:79,1,93.500001783371,4|2,0:3|0:0,0:0:0:0:
243,115,52602,1,2,0:0:0:0:
166,108,52695,2,0,P|163:136|158:175,1,62.3333345222473,8|0,0:0|2:0,0:0:0:0:
315,68,52973,2,0,P|318:96|322:136,1,62.3333345222473,2|0,0:0|0:0,0:0:0:0:
233,9,53251,5,4,0:3:0:0:
207,254,53528,1,2,0:0:0:0:
398,133,53714,1,2,0:0:0:0:
350,194,53806,2,0,P|308:196|247:194,1,93.500001783371,8|2,0:0|0:0,0:0:0:0:
42,222,54269,1,4,0:2:0:0:
98,276,54362,2,0,P|107:314|114:371,1,93.500001783371,4|2,0:3|0:2,0:0:0:0:
295,303,54825,1,4,0:2:0:0:
365,276,54917,1,8,0:0:0:0:
191,115,55102,1,4,0:2:0:0:
122,87,55194,1,2,0:2:0:0:
426,50,55380,5,2,0:2:0:0:
472,128,55473,2,0,P|465:183|464:202,1,62.3333345222473,4|0,0:0|0:0,0:0:0:0:
316,148,55751,2,0,P|367:126|384:117,1,62.3333345222473,2|2,0:3|0:3,0:0:0:0:
394,262,56028,1,8,0:0:0:0:
247,190,56214,2,0,P|248:221|248:232,1,31.1666672611237,2|0,0:3|0:0,0:0:0:0:
136,277,56491,1,0,0:0:0:0:
172,314,56583,1,4,0:3:0:0:
62,272,56769,1,2,0:3:0:0:
76,222,56861,1,0,0:0:0:0:
94,338,57046,1,2,0:3:0:0:
44,351,57139,2,0,P|83:360|145:376,1,93.500001783371,8|0,0:0|2:0,0:0:0:0:
309,265,57602,5,0,0:0:0:0:
342,306,57695,2,0,P|391:304|437:297,1,93.500001783371,4|0,0:3|2:0,0:0:0:0:
258,172,58158,1,2,0:3:0:0:
288,103,58251,2,0,P|284:80|278:31,1,62.3333345222473,8|0,0:0|0:0,0:0:0:0:
186,101,58528,1,2,0:3:0:0:
387,188,58714,1,0,0:0:0:0:
426,153,58806,2,0,P|408:136|371:111,1,62.3333345222473,4|2,0:3|0:3,0:0:0:0:
490,102,59084,2,0,P|485:149|472:200,2,93.500001783371,2|8|4,0:0|0:0|0:2,0:0:0:0:
168,224,59917,6,0,P|174:248|178:288,1,62.3333345222473,4|2,0:3|0:3,0:0:0:0:
84,220,60195,1,0,0:0:0:0:
291,306,60380,1,2,0:3:0:0:
317,274,60473,1,8,0:0:0:0:
249,192,60658,1,2,0:2:0:0:
232,154,60751,1,0,0:0:0:0:
413,74,60936,1,0,0:0:0:0:
400,112,61028,1,4,0:3:0:0:
465,225,61213,1,0,0:0:0:0:
480,262,61305,1,2,0:2:0:0:
266,323,61491,1,2,0:3:0:0:
280,285,61584,2,0,P|228:292|177:302,1,93.500001783371,8|0,0:0|2:0,0:0:0:0:
23,201,62047,5,2,0:2:0:0:
70,177,62140,1,4,0:3:0:0:
163,196,62325,1,2,0:2:0:0:
227,163,62418,1,2,0:3:0:0:
339,197,62602,1,2,0:2:0:0:
413,158,62695,2,0,P|377:163|317:170,1,93.500001783371,8|0,0:0|0:0,0:0:0:0:
216,70,63158,1,2,0:3:0:0:
156,129,63251,2,0,P|109:123|63:117,1,93.500001783371,4|2,0:3|0:0,0:0:0:0:
141,43,63714,1,2,0:0:0:0:
216,70,63806,1,8,0:0:0:0:
319,41,63991,1,2,0:3:0:0:
354,80,64084,1,2,0:0:0:0:
403,60,64177,1,2,0:2:0:0:
441,95,64269,1,0,0:0:0:0:
486,89,64362,6,0,P|472:57|466:28,1,62.3333345222473,4|0,0:0|0:0,0:0:0:0:
400,179,64640,2,0,P|448:185|472:187,1,62.3333345222473,4|0,0:2|0:0,0:0:0:0:
354,80,64917,2,0,P|339:104|295:160,1,93.500001783371,8|0,0:0|2:0,0:0:0:0:
94,328,65380,5,2,0:2:0:0:
72,279,65473,1,4,0:3:0:0:
174,328,65658,1,2,0:3:0:0:
152,279,65751,1,0,0:0:0:0:
255,332,65936,1,0,0:0:0:0:
233,283,66029,1,8,0:0:0:0:
510,195,66306,5,4,0:2:0:0:
262,131,66491,5,0,0:0:0:0:
277,80,66584,1,4,0:0:0:0:
188,138,66769,1,2,0:2:0:0:
211,185,66862,1,0,0:0:0:0:
391,26,67047,1,2,0:3:0:0:
338,36,67140,2,0,P|278:34|232:26,1,93.500001783371,8|0,0:0|2:0,0:0:0:0:
338,238,67602,5,2,0:3:0:0:
386,215,67695,2,0,P|376:168|373:147,1,62.3333345222473,4|0,0:3|0:0,0:0:0:0:
457,274,67973,1,4,0:2:0:0:
206,268,68158,1,4,0:2:0:0:
257,255,68251,2,0,P|267:208|270:187,1,62.3333345222473,8|0,0:0|0:0,0:0:0:0:
280,121,68528,1,4,0:2:0:0:
211,344,68714,5,2,0:3:0:0:
293,332,68806,2,0,P|325:332|361:325,1,62.3333345222473,4|2,0:0|0:2,0:0:0:0:
225,369,69084,2,0,P|193:369|157:362,1,62.3333345222473,4|2,0:3|0:3,0:0:0:0:
326,252,69362,6,0,P|358:252|394:245,1,62.3333345222473,8|2,0:2|0:2,0:0:0:0:
162,233,69640,2,0,P|130:233|94:226,1,62.3333345222473,4|2,0:3|0:3,0:0:0:0:
387,161,69917,6,0,P|419:161|455:154,1,62.3333345222473,4|2,0:3|0:2,0:0:0:0:
94,130,70195,2,0,P|62:130|26:123,1,62.3333345222473,4|2,0:3|0:3,0:0:0:0:
420,61,70473,6,0,P|452:61|488:54,1,62.3333345222473,8|2,0:0|0:2,0:0:0:0:
337,15,70751,1,4,0:3:0:0:
169,45,70936,1,2,0:0:0:0:
82,2,71028,1,6,0:0:0:0:
266,225,71584,6,0,P|265:268|263:303,1,73.3333333333333,0|8,0:0|0:0,0:0:0:0:
253,375,72140,1,0,0:0:0:0:
253,375,72325,1,2,0:2:0:0:
253,375,72417,2,0,P|250:345|247:329,1,44,2|4,0:0|0:3,0:0:0:0:
167,331,72788,6,0,L|181:309,1,18.3333333333333,2|0,0:2|2:0,0:0:0:0:
142,333,72880,2,0,L|156:355,1,18.3333333333333,2|0,0:2|2:0,0:0:0:0:
117,338,72973,2,0,L|131:316,1,18.3333333333333,6|0,0:2|2:0,0:0:0:0:
92,343,73065,2,0,L|106:365,1,18.3333333333333,2|0,3:2|2:0,0:0:0:0:
67,338,73158,2,0,L|81:316,1,18.3333333333333,2|0,3:2|2:0,0:0:0:0:
0,321,73251,6,0,B|0:272|55:248|27:186,1,126.500002412796,6|0,0:0|0:0,0:0:0:0:
187,71,73714,1,0,0:0:0:0:
108,11,73806,2,0,P|110:39|87:149,1,126.500002412796,8|0,0:0|2:0,0:0:0:0:
254,34,74269,5,2,2:0:0:0:
254,34,74362,2,0,P|296:41|330:86,1,84.3333349418641
382,1,74640,2,0,B|372:80|342:48|326:117,1,126.500002412796,2|8,0:2|1:0,0:0:0:0:
430,251,75102,1,0,0:0:0:0:
478,264,75195,1,0,0:0:0:0:
272,188,75380,5,8,0:0:0:0:
168,269,75473,2,0,B|208:260|208:260|252:266|252:266|304:257,1,126.500002412796,6|0,1:2|2:0,0:0:0:0:
325,285,75936,1,0,0:0:0:0:
207,350,76028,2,0,L|115:337,1,84.3333349418641,8|0,1:0|2:0,0:0:0:0:
171,305,76306,6,0,L|184:249,1,42.166667470932,0|0,0:0|3:0,0:0:0:0:
40,130,76491,6,0,P|2:183|42:229,1,126.500002412796,2|0,0:2|0:0,0:0:0:0:
142,152,76862,2,0,P|161:112|174:58,1,84.3333349418641,2|0,0:2|0:0,0:0:0:0:
279,249,77140,2,0,P|238:239|186:207,1,84.3333349418641,8|0,1:0|2:0,0:0:0:0:
201,219,77417,2,0,P|173:247|122:274,1,84.3333349418641,2|0,2:0|0:0,0:0:0:0:
266,322,77695,6,0,P|297:320|378:368,1,126.500002412796,6|0,1:2|0:0,0:0:0:0:
512,204,78158,1,0,0:0:0:0:
414,164,78251,2,0,P|385:168|317:185,1,84.3333349418641,8|0,1:0|0:0,0:0:0:0:
298,154,78528,6,0,P|308:154|348:174,1,42.166667470932,0|0,0:0|0:0,0:0:0:0:
408,204,78714,1,0,0:0:0:0:
347,84,78806,2,0,P|335:58|329:-16,1,84.3333349418641,2|0,0:3|2:0,0:0:0:0:
435,77,79084,6,0,P|467:96|524:108,1,84.3333349418641,2|0,0:2|2:0,0:0:0:0:
313,181,79362,2,0,P|282:218|198:219,1,126.500002412796,8|2,0:0|0:2,0:0:0:0:
0,138,79825,5,0,0:0:0:0:
77,115,79917,1,0,0:0:0:0:
20,219,80102,1,0,0:0:0:0:
69,205,80195,1,2,0:2:0:0:
250,143,80380,5,0,0:0:0:0:
225,135,80473,1,8,0:0:0:0:
222,215,80658,1,2,0:2:0:0:
238,226,80751,2,0,L|179:218,1,42.166667470932,2|0,0:3|2:0,0:0:0:0:
141,300,80936,6,0,B|212:261|212:261|307:292,1,165.000006294251,6|0,0:2|0:0,0:0:0:0:
217,363,81306,2,0,L|222:334,1,21.083333735466,8|0,0:0|2:0,0:0:0:0:
472,221,81584,5,0,0:0:0:0:
504,310,81769,5,0,0:0:0:0:
398,238,81862,1,8,0:0:0:0:
390,348,82047,5,0,0:0:0:0:
472,221,82140,2,0,P|475:184|448:93,1,126.500002412796,6|2,1:2|2:0,0:0:0:0:
241,253,82695,2,0,L|251:349,1,84.3333349418641,8|0,0:0|2:0,0:0:0:0:
232,346,82973,6,0,P|208:342|185:327,1,42.166667470932,2|0,0:3|2:0,0:0:0:0:
142,274,83158,1,0,0:0:0:0:
253,181,83251,2,0,P|284:184|329:228,1,84.3333349418641,0|2,0:0|0:2,0:0:0:0:
376,277,83528,2,0,P|371:295|340:357,1,84.3333349418641,0|2,0:0|0:2,0:0:0:0:
511,239,83806,2,0,P|501:216|487:146,1,84.3333349418641,8|0,0:0|0:0,0:0:0:0:
420,87,84084,6,0,L|412:141,1,42.166667470932,2|0,0:3|0:0,0:0:0:0:
312,160,84269,2,0,L|291:155,1,21.083333735466,8|0,0:0|0:0,0:0:0:0:
299,174,84362,2,0,B|228:171|247:206|161:196,1,126.500002412796,6|0,0:2|2:0,0:0:0:0:
22,46,84825,5,0,0:0:0:0:
94,115,84917,2,0,L|44:246,1,126.500002412796,8|0,0:0|0:0,0:0:0:0:
96,245,85288,1,2,0:2:0:0:
121,294,85380,1,8,0:0:0:0:
96,337,85473,2,0,P|56:344|1:362,1,84.3333349418641,2|0,0:3|0:0,0:0:0:0:
204,234,85751,2,0,P|246:251|295:262,1,84.3333349418641,2|0,0:2|0:0,0:0:0:0:
348,213,86028,2,0,P|330:161|250:156,1,126.500002412796,8|2,0:0|0:3,0:0:0:0:
108,299,86491,1,8,0:0:0:0:
240,358,86584,6,0,B|281:352|281:352|323:363|323:363|375:355,1,126.500002412796,2|0,0:2|0:0,0:0:0:0:
477,275,87001,1,0,0:0:0:0:
365,156,87140,2,0,P|346:116|381:33,1,126.500002412796,8|2,0:0|0:3,0:0:0:0:
443,18,87510,6,0,L|495:36,1,42.166667470932,0|2,0:0|0:2,0:0:0:0:
303,0,87695,6,0,P|262:10|205:32,1,84.3333349418641,2|0,0:0|0:0,0:0:0:0:
143,99,87973,1,2,0:2:0:0:
355,252,88158,1,0,0:0:0:0:
262,308,88251,2,0,P|222:295|176:269,1,84.3333349418641,8|0,0:0|0:0,0:0:0:0:
228,379,88528,6,0,P|223:307|254:159,1,210.83333735466,6|0,0:0|0:0,0:0:0:0:
311,137,89084,1,0,3:0:0:0:
311,137,89362,1,8,0:0:0:0:
311,137,89640,1,2,0:0:0:0:
247,62,89732,6,0,L|241:103,1,42.166667470932,0|8,0:0|0:0,0:0:0:0:
220,177,89917,1,0,2:0:0:0:
137,66,90075,1,4,3:0:0:0:
231,83,90195,6,0,L|218:-9,2,84.3333349418641,2|8|0,0:0|0:0|2:2,0:0:0:0:
288,298,90751,1,8,0:0:0:0:
191,352,90936,6,0,L|195:381,1,21.083333735466,0|0,0:0|0:0,0:0:0:0:
177,367,91028,2,0,B|112:380|112:380|64:325,1,126.500002412796,6|2,0:0|2:0,0:0:0:0:
289,214,91584,2,0,L|430:245,1,126.500002412796,8|2,0:0|0:3,0:0:0:0:
467,195,91954,6,0,L|415:205,1,42.166667470932,0|0,0:0|3:0,0:0:0:0:
250,150,92140,6,0,P|233:118|225:48,1,84.3333349418641,4|0,0:2|0:0,0:0:0:0:
223,71,92417,2,0,P|261:87|327:95,1,84.3333349418641,2|0,0:2|0:0,0:0:0:0:
144,164,92695,2,0,B|97:184|97:184|130:106,1,126.500002412796,8|0,0:0|0:0,0:0:0:0:
339,240,93158,1,8,0:0:0:0:
294,310,93251,6,0,P|320:280|343:219,1,84.3333349418641,2|0,0:2|2:0,0:0:0:0:
400,190,93528,2,0,P|420:224|436:283,1,84.3333349418641,2|0,0:3|0:0,0:0:0:0:
512,341,93806,1,8,0:0:0:0:
332,288,93991,5,0,0:0:0:0:
301,384,94084,1,0,0:0:0:0:
150,301,94269,5,8,0:0:0:0:
171,341,94362,2,0,L|117:329,1,42.166667470932,2|0,0:3|0:0,0:0:0:0:
68,280,94547,1,2,0:2:0:0:
187,219,94640,2,0,L|290:202,1,84.3333349418641,0|2,3:0|0:3,0:0:0:0:
447,125,94917,6,0,P|404:113|371:64,1,84.3333349418641,8|0,0:0|2:0,0:0:0:0:
312,53,95195,2,0,P|351:0|415:20,2,126.500002412796,2|6|0,0:2|0:2|2:0,0:0:0:0:
203,204,95936,1,2,0:3:0:0:
312,278,96028,2,0,P|293:245|275:182,1,84.3333349418641,8|0,0:0|0:0,0:0:0:0:
182,88,96306,2,0,P|218:108|259:121,1,84.3333349418641,2|0,0:3|0:0,0:0:0:0:
376,144,96584,6,0,P|355:149|337:159,1,42.166667470932,6|0,0:2|0:0,0:0:0:0:
291,222,96769,1,0,0:0:0:0:
450,350,96862,2,0,P|472:314|458:263,1,84.3333349418641,2|0,0:3|0:0,0:0:0:0:
359,320,97140,2,0,P|384:352|434:360,1,84.3333349418641,8|0,0:0|0:0,0:0:0:0:
397,258,97417,2,0,P|375:269|355:294,1,42.166667470932,0|0,0:0|2:0,0:0:0:0:
260,321,97602,6,0,L|255:348,1,21.083333735466,0|0,0:0|0:0,0:0:0:0:
236,332,97695,2,0,B|230:288|230:288|243:248|228:196,2,126.500002412796,4|2|8,0:2|0:2|0:0,0:0:0:0:
127,178,98436,1,0,0:0:0:0:
53,209,98528,2,0,L|109:196,1,42.166667470932,0|0,3:0|2:0,0:0:0:0:
285,114,98714,6,0,B|307:92|307:92|264:71|224:92|176:61,1,159.500004867554,2|0,0:0|0:0,0:0:0:0:
101,83,99084,6,0,L|196:63,1,84.3333349418641,8|0,0:0|2:0,0:0:0:0:
266,119,99362,1,0,0:0:0:0:
429,114,99547,5,8,0:0:0:0:
312,188,99640,1,8,0:0:0:0:
472,245,99825,5,4,3:0:0:0:
393,185,99917,2,0,B|404:262|363:239|360:315,2,126.500002412796,6|2|8,0:0|2:0|1:0,0:0:0:0:
208,41,100751,2,0,P|168:56|127:65,1,84.3333349418641
127,65,101028,6,0,P|154:96|194:105,1,84.3333349418641,2|0,0:2|2:0,0:0:0:0:
252,160,101306,2,0,P|216:183|159:184,1,84.3333349418641,6|0,0:3|2:0,0:0:0:0:
108,224,101584,1,8,0:0:0:0:
241,311,101769,1,0,0:0:0:0:
234,356,101862,1,4,0:0:0:0:
382,220,102047,1,8,0:0:0:0:
374,150,102140,2,0,P|370:106|382:10,1,126.500002412796,4|2,0:2|0:3,0:0:0:0:
142,115,102602,5,0,0:0:0:0:
245,1,102695,2,0,P|240:39|215:144,1,126.500002412796,8|0,0:0|0:0,0:0:0:0:
240,140,103065,2,0,L|248:192,1,42.166667470932,0|0,0:0|3:0,0:0:0:0:
429,294,103251,6,0,L|330:271,1,84.3333349418641,6|0,0:2|0:0,0:0:0:0:
303,297,103528,1,0,0:0:0:0:
149,230,103714,1,0,0:0:0:0:
54,348,103806,6,0,B|97:333|97:333|128:289,1,84.3333349418641,8|0,0:0|0:0,0:0:0:0:
149,230,104084,2,0,P|156:267|155:334,1,84.3333349418641,2|0,0:2|0:0,0:0:0:0:
40,238,104362,6,0,P|33:205|89:126,2,126.500002412796,2|2|8,3:2|0:3|0:0,0:0:0:0:
247,64,105195,1,2,0:2:0:0:
399,202,105380,1,8,0:3:0:0:
324,159,105473,1,0,3:0:0:0:
451,91,105658,1,2,0:2:0:0:
462,139,105751,1,2,0:3:0:0:
330,73,105936,1,0,0:0:0:0:
359,57,106028,1,8,0:0:0:0:
256,175,106214,5,2,0:0:0:0:
256,175,106306,2,0,P|256:209|250:319,1,137.500005245209,4|0,0:2|3:0,0:0:0:0:
238,384,106862,1,8,0:0:0:0:
238,384,107140,2,0,P|236:348|227:257,1,110,8|0,0:0|0:0,0:0:0:0:
282,157,107602,1,8,0:0:0:0:
246,76,107695,6,0,P|269:30|331:29,1,110,2|8,0:2|0:0,0:0:0:0:
454,154,108112,2,0,P|431:200|369:201,1,110,2|0,0:2|2:0,0:0:0:0:
349,135,108528,2,0,L|370:62,1,55,8|0,0:0|0:0,0:0:0:0:
165,19,108806,6,0,B|75:6|100:37|16:23,1,137.5,6|2,0:0|2:0,0:0:0:0:
143,127,109223,1,0,0:0:0:0:
239,34,109362,2,0,P|243:65|243:177,1,137.5,8|2,0:0|0:3,0:0:0:0:
187,350,109778,5,8,0:0:0:0:
310,210,109917,2,0,P|316:234|321:292,1,68.75,0|0,3:0|0:0,0:0:0:0:
391,307,110195,2,0,P|399:289|428:236,1,68.75,2|0,3:0|0:0,0:0:0:0:
484,110,110473,2,0,P|409:122|398:192,1,137.5,8|2,0:0|0:3,0:0:0:0:
507,283,110890,1,8,0:0:0:0:
371,267,111028,6,0,P|331:256|221:247,1,137.5,6|0,1:2|3:0,0:0:0:0:
168,287,111445,1,0,0:0:0:0:
295,329,111584,2,0,P|329:343|367:374,1,68.75,8|0,0:0|0:0,0:0:0:0:
303,245,111862,5,2,0:3:0:0:
171,369,112001,1,8,0:0:0:0:
72,273,112140,2,0,P|79:242|88:112,2,137.5,0|2|8,3:0|0:3|0:0,0:0:0:0:
228,160,112973,5,2,0:0:0:0:
249,58,113158,6,0,L|256:26,1,22.9166666666667,8|0,0:0|2:0,0:0:0:0:
172,73,113251,6,0,B|266:63|238:116|349:104,1,183.333333333333,0|0,3:0|2:0,0:0:0:0:
412,63,113806,1,0,3:0:0:0:
412,63,113991,2,0,P|430:100|434:108,1,36.6666666666667,0|0,0:0|0:0,0:0:0:0:
376,219,114362,2,0,P|344:274|341:331,2,110,0|0|0,3:0|3:0|0:0,0:0:0:0:
256,362,115195,1,0,0:0:0:0:
125,227,115473,6,0,P|67:219|27:174,1,110,0|0,3:0|2:0,0:0:0:0:
74,106,115890,2,0,L|245:134,1,165,0|0,3:0|2:0,0:0:0:0:
394,48,116584,1,0,3:0:0:0:
394,224,116862,1,0,2:0:0:0:
229,346,117140,1,0,0:0:0:0:
229,170,117418,1,0,3:0:0:0:
118,198,117602,2,0,L|103:226,1,18.3333333333333,0|0,3:0|3:0,0:0:0:0:
74,200,117695,6,0,P|171:209|260:252,1,183.333333333333,0|0,0:0|2:0,0:0:0:0:
325,238,118251,1,0,0:0:0:0:
242,366,118528,1,0,0:0:0:0:
51,320,118667,6,0,B|38:283|38:283|71:176|71:176|51:136,1,192.500007343293,0|0,0:0|2:0,0:0:0:0:
111,93,119084,2,0,P|143:127|147:146,1,55,0|0,3:0|3:0,0:0:0:0:
305,176,119362,2,0,P|351:149|377:89,1,110,0|0,0:0|2:0,0:0:0:0:
236,112,119778,1,0,3:0:0:0:
254,285,119917,6,0,P|341:268|396:213,1,165,4|0,0:2|3:0,0:0:0:0:
449,72,120473,2,0,P|461:125|474:155,1,73.3333333333333,0|0,0:0|2:0,0:0:0:0:
469,217,120751,1,0,3:0:0:0:
397,340,120936,1,0,3:0:0:0:
429,339,121028,2,0,P|424:310|413:254,1,73.3333333333333,0|0,3:0|2:0,0:0:0:0:
347,237,121306,2,0,P|349:209|356:122,2,110,0|0|0,3:0|3:0|0:0,0:0:0:0:
190,195,122140,6,0,P|145:213|87:318,1,165.000006294251,0|0,3:0|2:0,0:0:0:0:
186,359,122973,2,0,P|223:337|345:307,1,165.000006294251,0|0,3:0|2:0,0:0:0:0:
276,99,123806,2,0,P|274:67|270:11,1,82.5000031471254,0|0,0:0|2:0,0:0:0:0:
14,143,124362,6,0,P|57:145|125:244,1,165.000006294251,0|0,3:0|0:0,0:0:0:0:
290,149,125195,2,0,P|394:172|454:176,1,165.000006294251,0|0,3:0|2:0,0:0:0:0:
257,318,126028,1,0,0:0:0:0:
128,187,126306,1,0,3:0:0:0:
264,52,126491,5,0,3:0:0:0:
264,52,126584,2,0,P|258:108|256:137,2,82.5000031471254,4|0|0,3:2|3:0|0:0,0:0:0:0:
252,244,127417,1,0,3:0:0:0:
248,52,127695,2,0,P|252:92|255:134,2,82.5000031471254,2|0|0,3:0|3:0|0:0,0:0:0:0:
260,244,128528,1,2,3:0:0:0:
254,365,128714,5,0,3:0:0:0:
254,365,128806,1,4,3:2:0:0:
63,297,129084,2,0,P|64:278|76:240,1,55.0000020980836,4|0,3:2|2:0,0:0:0:0:
51,243,129362,2,0,P|59:269|62:296,1,55.0000020980836,4|0,0:2|2:0,0:0:0:0:
79,168,129640,2,0,P|82:138|81:78,1,82.5000031471254,4|0,3:2|3:0,0:0:0:0:
109,13,130056,1,2,3:2:0:0:
175,77,130195,1,0,3:0:0:0:
267,76,130334,1,2,3:2:0:0:
319,7,130473,1,4,3:2:0:0:
461,164,130751,2,0,P|459:197|461:225,1,55.0000020980836,0|0,0:0|2:0,0:0:0:0:
362,299,131028,5,4,0:0:0:0:
259,204,131584,2,0,P|235:208|214:215,1,44,0|0,3:0|2:0,0:0:0:0:
171,277,132001,2,0,P|146:271|109:256,1,66,0|2,3:0|2:0,0:0:0:0:
49,131,132695,1,2,0:2:0:0:
16,301,132973,2,0,P|27:332|28:348,1,44,0|0,0:0|3:0,0:0:0:0:
16,223,133528,5,0,3:0:0:0:
112,336,133806,1,2,3:2:0:0:
178,193,134084,1,2,2:0:0:0:
304,272,134362,2,0,P|334:262|347:257,1,44,0|0,3:0|2:0,0:0:0:0:
426,185,134917,1,0,0:0:0:0:
474,329,135195,1,0,3:0:0:0:
281,152,135473,6,0,P|281:112|299:63,1,88,4|0,0:2|3:0,0:0:0:0:
445,44,136306,1,2,2:0:0:0:
371,12,136445,2,0,P|344:11|256:17,1,110,0|0,3:0|2:0,0:0:0:0:
142,134,137417,1,0,3:0:0:0:
60,91,137556,2,0,L|61:78,1,11,2|2,3:2|2:0,0:0:0:0:
36,63,137695,6,0,P|37:84|42:176,1,110,4|0,0:2|2:0,0:0:0:0:
104,224,138528,2,0,P|131:244|186:235,1,88,2|2,3:0|2:0,0:0:0:0:
306,141,139362,1,2,3:2:0:0:
401,265,139640,1,4,2:0:0:0:
225,341,139917,6,0,P|184:332|136:326,1,88,4|0,0:0|2:0,0:0:0:0:
9,355,140751,1,0,3:0:0:0:
49,287,140890,2,0,P|44:268|42:217,1,66,0|2,3:0|2:0,0:0:0:0:
181,113,141584,1,0,3:0:0:0:
41,26,141862,1,2,2:0:0:0:
161,244,142140,6,0,P|193:238|246:225,1,88,4|0,3:2|2:0,0:0:0:0:
318,78,142973,1,0,3:0:0:0:
394,181,143251,1,2,3:2:0:0:
189,127,143528,1,2,2:0:0:0:
326,1,143806,2,0,L|348:11,3,22,2|0|2|2,2:0|2:0|2:0|2:0,0:0:0:0:
504,16,144362,6,0,P|498:47|493:85,1,66,4|0,3:2|2:0,0:0:0:0:
431,166,144917,2,0,P|436:194|441:212,1,44,0|0,0:0|2:0,0:0:0:0:
490,315,145334,2,0,P|462:340|436:350,1,66,0|0,0:0|3:0,0:0:0:0:
312,247,146028,1,2,0:2:0:0:
199,363,146306,1,4,3:0:0:0:
281,375,146444,5,2,3:0:0:0:
281,375,146584,2,0,P|274:344|266:288,1,82.5000031471254,4|2,3:0|3:0,0:0:0:0:
189,214,147001,1,4,2:2:0:0:
296,162,147140,1,0,0:0:0:0:
258,224,147278,5,0,3:0:0:0:
378,272,147417,2,0,P|417:256|444:245,1,55,4|8,0:2|0:0,0:0:0:0:
417,138,147695,5,8,0:0:0:0:
275,70,147834,1,4,3:3:0:0:
305,163,147973,2,0,P|309:127|312:106,1,55,8|8,0:0|0:0,0:0:0:0:
143,208,148251,1,4,3:0:0:0:
197,264,148390,1,0,3:0:0:0:
208,87,148528,1,8,0:0:0:0:
31,115,148667,2,0,L|45:142,2,18.3333333333333,2|2|2,3:2|2:0|2:0,0:0:0:0:
55,123,148806,6,0,P|53:152|35:236,1,110,4|4,0:2|0:3,0:0:0:0:
228,359,149362,2,0,P|225:315|248:243,1,110,8|4,0:0|0:3,0:0:0:0:
413,175,149825,1,2,0:3:0:0:
431,223,149917,1,0,0:0:0:0:
349,117,150102,1,2,0:2:0:0:
414,94,150195,1,4,0:3:0:0:
310,193,150380,1,0,0:0:0:0:
310,193,150473,2,0,P|255:184|186:178,1,110,8|4,0:0|0:3,0:0:0:0:
67,138,150936,6,0,L|14:153,1,36.6666666666667,2|0,0:2|3:0,0:0:0:0:
41,120,151306,2,0,L|58:189,1,55,4|4,0:3|0:3,0:0:0:0:
131,261,151584,2,0,P|125:287|95:372,1,110,8|4,0:0|0:3,0:0:0:0:
221,194,152047,5,2,0:0:0:0:
288,222,152140,1,0,0:0:0:0:
352,299,152325,1,0,0:0:0:0:
343,323,152417,1,4,0:3:0:0:
466,219,152602,5,2,0:2:0:0:
416,236,152695,1,8,0:0:0:0:
330,317,152880,1,0,0:0:0:0:
337,340,152973,1,4,0:3:0:0:
335,219,153158,5,0,0:0:0:0:
335,219,153251,2,0,B|351:148|319:183|341:105,2,110,2|4|8,0:2|0:3|0:0,0:0:0:0:
228,81,154084,2,0,L|242:30,1,36.6666666666667,4|0,0:3|2:0,0:0:0:0:
172,22,154269,5,8,0:0:0:0:
66,94,154362,2,0,L|82:193,1,73.3333333333333,0|0,0:0|2:0,0:0:0:0:
138,176,154640,2,0,L|117:250,1,73.3333333333333,4|0,0:3|2:0,0:0:0:0:
42,274,154917,1,8,0:0:0:0:
211,384,155195,2,0,P|202:343|219:267,1,110,6|0,0:3|3:0,0:0:0:0:
284,195,155658,5,0,3:0:0:0:
304,185,155751,1,4,0:3:0:0:
248,112,155936,1,0,0:0:0:0:
206,96,156028,1,8,0:0:0:0:
267,36,156214,5,2,2:0:0:0:
269,42,156306,2,0,L|275:92,1,36.6666666666667,6|0,0:3|2:0,0:0:0:0:
200,174,156491,1,2,0:0:0:0:
76,119,156584,6,0,P|122:111|186:92,1,110,0|4,0:0|0:3,0:0:0:0:
401,184,157000,6,0,P|346:174|307:157,1,96.2499970626832,2|0,0:2|2:0,0:0:0:0:
236,171,157417,6,0,B|244:197|244:197|230:219|228:253,1,73.3333333333333,6|2,0:3|2:0,0:0:0:0:
164,313,157695,5,6,0:0:0:0:
164,313,158251,1,8,0:0:0:0:
337,186,158528,1,4,0:3:0:0:
282,117,158714,5,0,0:0:0:0:
282,117,158806,2,0,P|274:93|260:35,1,73.3333333333333,0|0,0:0|2:0,0:0:0:0:
237,29,159084,2,0,P|243:65|254:100,1,73.3333333333333,4|0,0:3|2:0,0:0:0:0:
346,177,159362,6,0,L|395:192,1,36.6666666666667,10|0,1:0|2:0,0:0:0:0:
381,187,159640,2,0,L|331:203,1,36.6666666666667,6|0,0:3|2:3,0:0:0:0:
241,380,159917,6,0,P|231:343|249:253,1,110,6|4,0:2|0:3,0:0:0:0:
90,203,160380,1,0,0:0:0:0:
124,138,160473,2,0,P|114:164|68:224,1,73.3333333333333,8|0,0:0|0:0,0:0:0:0:
15,227,160751,1,6,0:3:0:0:
118,283,160936,5,0,0:0:0:0:
144,292,161028,1,0,0:0:0:0:
229,324,161214,1,0,0:0:0:0:
182,340,161306,1,0,0:0:0:0:
237,243,161491,5,6,0:2:0:0:
357,298,161584,1,10,0:0:0:0:
315,327,161769,5,0,0:0:0:0:
304,225,161862,1,6,0:3:0:0:
439,221,162047,5,0,3:0:0:0:
439,221,162140,2,0,P|433:264|426:343,1,110,4|4,0:2|0:3,0:0:0:0:
239,127,162602,6,0,L|261:122,1,18.3333333333333,2|0,0:3|0:0,0:0:0:0:
250,136,162695,2,0,P|256:182|262:254,1,110,8|2,0:0|0:2,0:0:0:0:
162,340,163112,1,0,0:0:0:0:
19,227,163251,2,0,P|45:241|87:259,1,73.3333333333333,6|0,0:3|0:0,0:0:0:0:
133,259,163528,1,2,0:2:0:0:
324,158,163714,5,0,0:0:0:0:
395,142,163806,2,0,P|372:145|310:164,1,73.3333333333333,8|0,0:0|0:0,0:0:0:0:
216,200,164084,2,0,P|196:196|138:173,1,73.3333333333333,2|0,0:2|0:0,0:0:0:0:
97,131,164362,1,4,3:0:0:0:
97,131,164640,1,0,0:0:0:0:
97,131,164917,2,0,L|101:158,1,18.3333333333333,2|0,0:3|2:0,0:0:0:0:
14,199,165056,5,0,3:0:0:0:
8,202,165195,1,0,3:0:0:0:
56,297,165334,5,2,0:2:0:0:
67,302,165473,2,0,L|85:226,1,73.3333333333333,2|0,3:0|0:0,0:0:0:0:
104,159,165751,1,6,0:3:0:0:
269,97,165936,5,0,0:0:0:0:
196,114,166028,1,8,0:0:0:0:
340,80,166214,5,0,0:0:0:0:
383,92,166306,1,0,0:0:0:0:
295,53,166491,5,8,0:0:0:0:
239,177,166584,2,0,B|320:155|346:216|419:212,1,183.333333333333,6|0,0:2|2:0,0:0:0:0:
494,208,167140,6,0,P|466:217|375:230,1,110,8|0,0:0|2:0,0:0:0:0:
252,337,167602,1,0,0:0:0:0:
289,326,167695,1,0,0:0:0:0:
179,233,167880,2,0,L|160:280,1,36.6666666666667,2|0,0:2|3:0,0:0:0:0:
311,192,168158,1,0,0:0:0:0:
239,156,168251,1,8,0:0:0:0:
137,124,168436,1,0,0:0:0:0:
179,108,168528,1,2,0:2:0:0:
274,56,168714,5,8,0:0:0:0:
165,1,168806,2,0,P|164:28|145:128,1,110,2|4,0:3|3:0,0:0:0:0:
334,171,169362,2,0,P|334:191|355:290,1,110,8|0,0:0|0:0,0:0:0:0:
250,381,169825,1,2,0:3:0:0:
250,381,169917,2,0,P|257:355|259:297,1,73.3333333333333,0|0,0:0|0:0,0:0:0:0:
260,308,170195,2,0,P|261:283|273:222,1,73.3333333333333,2|0,0:2|2:0,0:0:0:0:
344,298,170473,6,0,B|376:312|376:312|427:321,1,73.3333333333333,8|0,0:0|2:0,0:0:0:0:
230,259,170751,2,0,B|193:262|193:262|158:274,1,73.3333333333333,2|0,0:2|2:0,0:0:0:0:
89,312,171028,1,4,3:0:0:0:
163,177,171306,1,0,0:0:0:0:
52,38,171584,2,0,P|85:46|173:62,1,110,8|0,0:0|0:0,0:0:0:0:
275,9,172047,5,2,0:2:0:0:
344,28,172140,1,0,0:0:0:0:
280,161,172325,1,0,0:0:0:0:
350,141,172417,1,0,0:0:0:0:
205,52,172602,1,0,0:0:0:0:
205,52,172695,2,0,L|182:150,1,73.3333333333333,8|0,0:0|0:0,0:0:0:0:
125,173,172973,6,0,L|168:195,1,36.6666666666667,2|0,3:0|2:0,0:0:0:0:
81,244,173158,1,8,0:0:0:0:
38,146,173251,2,0,B|32:206|7:186|-2:260,2,110,2|4|8,0:2|3:0|0:0,0:0:0:0:
198,252,174084,1,2,0:2:0:0:
108,344,174269,1,2,0:0:0:0:
108,344,174362,2,0,P|77:355|-21:371,1,110,0|2,3:0|0:0,0:0:0:0:
248,313,174917,2,0,P|268:319|323:349,1,73.3333333333333,8|0,0:0|0:0,0:0:0:0:
304,325,175195,6,0,P|340:308|417:325,1,106.333336578369,10|0,0:0|2:0,0:0:0:0:
512,272,175473,6,0,P|480:249|408:235,1,110,4|4,0:2|0:3,0:0:0:0:
200,145,176028,2,0,L|120:165,1,73.3333333333333,8|0,0:0|2:0,0:0:0:0:
94,186,176306,1,4,0:3:0:0:
222,19,176491,1,8,0:0:0:0:
129,14,176584,6,0,P|136:37|146:94,1,73.3333333333333,2|0,0:2|0:0,0:0:0:0:
276,115,176862,2,0,P|294:119|366:146,1,73.3333333333333,6|0,0:3|0:0,0:0:0:0:
376,69,177140,2,0,P|361:97|341:153,1,73.3333333333333,10|0,0:0|0:0,0:0:0:0:
237,210,177417,2,0,P|200:222|157:249,1,73.3333333333333,6|0,0:3|0:0,0:0:0:0:
63,316,177695,5,2,3:0:0:0:
63,316,177973,1,0,3:0:0:0:
207,240,178251,2,0,L|337:261,1,110,8|0,0:0|0:0,0:0:0:0:
473,296,178714,5,8,0:0:0:0:
375,221,178806,2,0,L|296:244,1,73.3333333333333,0|0,0:0|0:0,0:0:0:0:
282,313,179084,2,0,L|350:361,1,73.3333333333333,0|0,0:0|0:0,0:0:0:0:
413,320,179362,2,0,L|429:269,1,36.6666666666667,8|0,0:0|0:0,0:0:0:0:
184,165,179640,2,0,L|175:129,1,36.6666666666667,8|0,0:0|0:0,0:0:0:0:
375,34,179917,6,0,P|339:25|306:11,1,73.3333333333333,2|0,0:2|0:0,0:0:0:0:
439,114,180195,2,0,P|453:147|462:183,1,73.3333333333333,4|0,0:2|0:0,0:0:0:0:
268,79,180473,6,0,P|234:93|198:102,1,73.3333333333333,10|0,0:2|0:0,0:0:0:0:
390,219,180751,2,0,P|375:252|366:288,1,73.3333333333333,4|0,0:3|0:0,0:0:0:0:
162,173,181028,6,0,P|126:163|92:149,1,73.3333333333333,4|0,0:3|0:0,0:0:0:0:
275,315,181306,2,0,P|284:350|298:384,1,73.3333333333333,6|0,0:3|0:0,0:0:0:0:
15,322,181584,6,0,B|60:316|60:316|18:334,1,73.3333333333333,12|0,0:0|0:0,0:0:0:0:
129,361,181862,1,10,0:0:0:0:
338,253,182047,1,2,0:3:0:0:
446,303,182140,1,2,3:0:0:0:
446,303,182695,6,0,L|366:298,1,73.3333333333333,8|0,0:0|0:0,0:0:0:0:
300,315,183251,1,0,0:0:0:0:
137,196,183436,1,2,0:0:0:0:
137,196,183528,2,0,L|187:188,1,44,0|4,0:0|3:0,0:0:0:0:
255,210,183899,6,0,L|277:183,1,18.3333333333333,8|0,0:0|2:0,0:0:0:0:
281,172,183991,2,0,L|283:141,1,18.3333333333333,10|0,0:0|2:0,0:0:0:0:
272,128,184084,2,0,L|261:99,1,18.3333333333333,2|0,0:2|2:0,0:0:0:0:
250,92,184177,2,0,L|245:65,1,18.3333333333333,0|0,3:2|2:0,0:0:0:0:
250,50,184269,2,0,L|268:32,1,18.3333333333333,2|0,3:2|2:0,0:0:0:0:
334,11,184362,6,0,B|368:61|330:109|371:177,1,168.666669883728,4|0,0:0|2:0,0:0:0:0:
439,160,184825,1,0,0:0:0:0:
324,240,184917,2,0,P|295:304|289:373,1,126.500002412796,8|0,0:0|2:0,0:0:0:0:
363,339,185264,2,0,P|403:326|418:316,1,47.4375009047985,2|0,0:2|3:0,0:0:0:0:
288,171,185473,2,0,B|224:173|234:220|163:218,1,126.500002412796,2|0,0:3|2:0,0:0:0:0:
98,190,185842,2,0,L|102:234,1,42.166667470932
6,210,186028,2,0,B|29:172|29:172|14:126,1,84.3333349418641,8|0,0:0|2:0,0:0:0:0:
6,174,186306,2,0,B|29:212|29:212|14:258,1,84.3333349418641,2|2,0:2|0:2,0:0:0:0:
163,225,186584,6,0,L|304:193,1,126.500002412796,0|0,0:0|2:0,0:0:0:0:
325,135,186954,2,0,L|328:186,1,42.166667470932,0|0,0:0|2:0,0:0:0:0:
146,95,187140,2,0,L|162:3,1,84.3333349418641,8|0,0:0|0:0,0:0:0:0:
222,141,187417,1,2,0:2:0:0:
389,15,187602,1,2,0:0:0:0:
315,1,187695,2,0,L|329:84,1,84.3333349418641,2|0,0:0|0:0,0:0:0:0:
366,218,187973,1,2,0:0:0:0:
87,368,188251,6,0,P|90:344|183:292,1,126.500002412796,8|2,0:0|2:0,0:0:0:0:
240,364,188667,1,2,0:2:0:0:
322,295,188806,2,0,L|416:314,1,84.3333349418641,4|0,0:2|2:0,0:0:0:0:
355,259,189084,2,0,L|261:278,1,84.3333349418641,0|0,0:0|2:0,0:0:0:0:
400,193,189362,2,0,L|494:212,1,84.3333349418641,8|0,0:0|2:0,0:0:0:0:
317,134,189640,2,0,L|223:153,1,84.3333349418641,4|0,0:2|2:0,0:0:0:0:
423,64,189917,5,6,0:2:0:0:
157,65,190102,1,2,0:2:0:0:
213,11,190195,2,0,P|241:14|294:45,1,84.3333349418641,4|0,0:2|2:0,0:0:0:0:
109,48,190473,2,0,P|125:25|148:10,1,42.166667470932,8|0,0:0|2:0,0:0:0:0:
41,13,190658,1,2,0:2:0:0:
55,100,190751,2,0,P|60:129|69:199,1,84.3333349418641,4|0,0:2|0:0,0:0:0:0:
61,263,191028,5,4,0:0:0:0:
61,263,191306,2,0,B|124:268|104:318|173:326,1,126.500002412796,2|8,2:0|0:0,0:0:0:0:
451,263,191862,2,0,B|388:268|408:318|339:326,1,126.500002412796,2|2,0:3|0:2,0:0:0:0:
247,224,192417,1,2,0:2:0:0:
252,160,192510,1,0,0:0:0:0:
257,97,192602,1,0,0:0:0:0:
262,33,192695,2,0,P|231:38|207:39,1,42.166667470932,2|0,0:2|2:0,0:0:0:0:
330,68,192880,1,2,0:2:0:0:
381,12,192973,2,0,P|412:17|436:18,2,42.166667470932,8|0|0,0:0|2:0|0:0,0:0:0:0:
147,22,193251,6,0,P|140:74|132:167,1,126.500002412796,4|2,0:0|0:3,0:0:0:0:
259,367,193806,1,8,0:0:0:0:
446,195,194084,1,2,0:2:0:0:
176,267,194269,1,2,0:2:0:0:
98,281,194362,2,0,P|83:255|78:185,1,84.3333349418641,2|0,0:3|2:0,0:0:0:0:
249,297,194640,2,0,P|245:338|226:376,1,84.3333349418641,2|0,0:3|2:0,0:0:0:0:
196,186,194917,2,0,P|238:185|313:229,1,126.500002412796,8|2,0:0|0:3,0:0:0:0:
90,53,195473,6,0,P|59:72|8:153,1,126.500002412796,0|0,0:0|2:0,0:0:0:0:
57,208,195843,1,2,0:3:0:0:
131,186,195936,1,0,0:0:0:0:
159,113,196028,2,0,P|181:100|246:87,1,84.3333349418641,8|0,0:0|2:0,0:0:0:0:
290,31,196306,1,2,0:3:0:0:
403,312,196491,5,2,0:3:0:0:
466,362,196584,2,0,P|495:348|504:292,1,84.3333349418641,0|0,0:0|2:0,0:0:0:0:
294,228,196862,2,0,P|291:260|335:295,1,84.3333349418641,2|0,0:3|2:0,0:0:0:0:
475,168,197140,2,0,P|448:149|395:170,1,84.3333349418641,8|2,0:0|2:3,0:0:0:0:
329,98,197417,2,0,L|238:122,1,84.3333349418641,2|0,0:3|0:0,0:0:0:0:
132,255,197695,6,0,P|74:245|3:238,2,126.500002412796,0|2|8,0:0|0:3|0:0,0:0:0:0:
253,358,198436,1,2,0:0:0:0:
306,301,198528,1,2,0:3:0:0:
247,200,198714,1,2,0:0:0:0:
319,174,198806,1,2,0:3:0:0:
353,57,198991,1,2,0:2:0:0:
427,72,199083,1,2,0:3:0:0:
282,18,199269,1,2,0:2:0:0:
208,33,199361,1,8,0:0:0:0:
92,186,199547,1,2,0:3:0:0:
19,174,199640,2,0,P|75:161|106:97,1,126.500002412796,4|0,0:0|2:0,0:0:0:0:
253,320,200195,5,0,3:0:0:0:
253,320,200473,1,8,0:0:0:0:
253,320,200751,1,0,0:0:0:0:
241,248,201028,1,0,3:0:0:0:
272,180,201186,1,2,0:3:0:0:
272,180,201306,1,0,0:0:0:0:
238,42,201584,1,0,3:0:0:0:
40,325,201862,5,2,0:2:0:0:
89,363,201954,1,0,0:0:0:0:
151,376,202047,1,0,0:0:0:0:
213,367,202140,2,0,P|261:342|301:334,1,84.3333349418641,4|0,0:0|0:0,0:0:0:0:
332,272,202417,1,2,0:2:0:0:
89,237,202602,5,0,0:0:0:0:
57,173,202695,2,0,P|62:136|64:82,1,84.3333349418641,8|0,0:0|0:0,0:0:0:0:
118,34,202973,2,0,P|148:46|159:53,1,42.166667470932,0|2,2:0|0:2,0:0:0:0:
179,219,203158,2,0,P|212:213|293:144,1,126.500002412796,0|0,2:0|0:0,0:0:0:0:
361,138,203528,1,0,2:0:0:0:
235,12,203806,1,8,0:0:0:0:
396,270,204084,1,2,0:2:0:0:
512,128,204269,5,2,0:2:0:0:
457,183,204362,2,0,P|465:218|473:276,1,84.3333349418641,0|0,0:0|0:0,0:0:0:0:
442,336,204640,1,0,2:0:0:0:
138,303,204917,2,0,P|137:252|196:203,1,126.500002412796,8|2,0:0|0:2,0:0:0:0:
241,264,205288,2,0,P|276:273|297:277,1,42.166667470932,0|2,0:0|0:0,0:0:0:0:
236,113,205473,2,0,P|186:108|97:92,1,126.500002412796,2|2,0:0|0:0,0:0:0:0:
52,143,205843,1,0,0:0:0:0:
11,76,205936,1,0,0:0:0:0:
93,77,206028,2,0,P|155:88|218:94,1,126.500002412796,8|2,0:0|2:0,0:0:0:0:
367,333,206491,5,0,0:0:0:0:
440,305,206584,2,0,P|442:272|439:209,1,84.3333349418641,4|0,0:2|2:0,0:0:0:0:
288,256,206862,2,0,P|286:298|288:340,1,84.3333349418641,0|0,0:0|2:0,0:0:0:0:
453,241,207140,6,0,P|477:219|520:172,1,84.3333349418641,8|0,0:0|2:0,0:0:0:0:
236,221,207417,2,0,P|264:252|273:261,1,42.166667470932,4|0,0:2|0:0,0:0:0:0:
325,214,207602,1,0,2:0:0:0:
285,147,207695,2,0,P|256:178|225:206,1,84.3333349418641,6|2,0:2|0:2,0:0:0:0:
362,145,207973,6,0,P|358:103|348:58,1,84.3333349418641,4|0,0:2|2:0,0:0:0:0:
202,9,208251,2,0,P|193:50|189:92,1,84.3333349418641,8|2,0:0|0:2,0:0:0:0:
93,110,208528,1,4,0:2:0:0:
137,193,208621,1,0,0:0:0:0:
76,257,208714,1,0,0:0:0:0:
76,361,208806,5,4,0:0:0:0:
459,286,209084,2,0,P|453:255|499:170,1,126.500002412796,2|8,2:0|0:0,0:0:0:0:
339,234,209547,1,0,0:0:0:0:
266,207,209640,2,0,P|261:184|224:120,1,84.3333349418641,2|0,0:3|0:0,0:0:0:0:
13,297,210102,1,0,0:0:0:0:
88,325,210195,2,0,P|90:355|90:376,2,42.166667470932,2|0|0,0:2|0:0|0:0,0:0:0:0:
89,250,210473,2,0,P|88:214|68:164,1,84.3333349418641,2|2,0:2|0:2,0:0:0:0:
232,273,210751,2,0,P|266:268|289:263,1,42.166667470932,8|0,0:0|2:0,0:0:0:0:
376,207,210936,1,0,0:0:0:0:
456,327,211028,6,0,P|441:295|468:209,1,126.500002412796,4|2,0:0|0:3,0:0:0:0:
56,57,211584,2,0,P|71:89|44:175,1,126.500002412796,8|2,0:0|0:2,0:0:0:0:
105,223,211954,1,0,0:0:0:0:
142,154,212047,1,2,0:2:0:0:
199,204,212140,2,0,P|237:196|332:179,1,126.500002412796,2|2,0:3|0:3,0:0:0:0:
460,48,212602,1,0,2:0:0:0:
399,89,212695,2,0,P|347:81|306:20,1,126.500002412796,8|2,0:0|0:3,0:0:0:0:
231,11,213065,1,0,0:0:0:0:
234,86,213158,1,0,0:0:0:0:
171,130,213251,6,0,P|126:118|46:96,2,126.500002412796,0|2|8,0:0|0:3|0:0,0:0:0:0:
367,281,213991,1,2,0:3:0:0:
428,323,214084,2,0,P|418:350|414:365,2,42.166667470932,2|0|0,0:3|2:0|0:0,0:0:0:0:
441,244,214362,2,0,P|441:206|442:106,1,126.500002412796,0|2,0:0|0:3,0:0:0:0:
77,207,214917,2,0,P|77:270|77:333,1,126.500002412796,8|2,0:0|0:3,0:0:0:0:
260,301,215380,5,0,0:0:0:0:
207,247,215473,2,0,P|201:222|210:162,1,84.3333349418641,0|0,0:0|0:0,0:0:0:0:
332,245,215751,2,0,P|340:286|333:327,1,84.3333349418641,2|0,0:3|0:0,0:0:0:0:
168,307,216028,2,0,P|137:290|95:244,1,84.3333349418641,8|2,0:0|0:0,0:0:0:0:
369,182,216306,2,0,P|400:199|442:245,1,84.3333349418641,2|2,0:3|0:0,0:0:0:0:
286,117,216584,5,2,0:3:0:0:
377,57,216769,1,2,0:2:0:0:
367,87,216862,1,2,0:3:0:0:
150,113,217047,5,2,0:2:0:0:
205,194,217140,2,0,P|190:222|181:242,1,42.166667470932,8|0,0:0|2:0,0:0:0:0:
120,318,217325,1,2,0:3:0:0:
43,252,217417,2,0,P|34:220|60:43,1,210.83333735466,4|0,0:0|0:0,0:0:0:0:
127,12,217973,1,0,3:0:0:0:
345,315,218251,6,0,P|389:310|466:272,1,126.500002412796,8|0,0:0|0:0,0:0:0:0:
291,252,218714,1,0,0:0:0:0:
257,321,218806,2,0,P|215:304|151:248,2,126.500002412796,0|0|0,3:0|0:0|3:0,0:0:0:0:
363,118,219640,2,0,P|394:126|420:129,1,42.166667470932,2|0,0:2|0:0,0:0:0:0:
453,70,219825,1,0,0:0:0:0:
298,21,219917,6,0,P|266:44|192:71,1,110,4|0,0:0|3:0,0:0:0:0:
38,53,220473,1,8,0:0:0:0:
71,202,220751,1,2,2:0:0:0:
117,117,220936,1,2,0:3:0:0:
141,127,221028,2,0,P|148:179|156:244,1,110,0|0,0:0|3:0,0:0:0:0:
350,247,221584,2,0,P|343:299|335:364,1,110,8|2,0:0|3:0,0:0:0:0:
66,334,222047,5,8,0:0:0:0:
88,294,222140,2,0,P|86:235|70:101,1,183.333333333333,4|0,0:0|2:0,0:0:0:0:
64,37,222695,1,8,0:0:0:0:
172,90,222973,1,2,0:2:0:0:
221,28,223158,1,2,0:2:0:0:
221,28,223251,2,0,P|285:43|335:47,2,110,4|0|8,0:3|3:0|0:0,0:0:0:0:
420,22,224084,2,0,P|431:38|443:63,2,36.6666666666667,2|0|8,3:2|2:0|1:0,0:0:0:0:
509,76,224362,6,0,B|512:97|512:97|500:117|500:117|527:171|495:217,1,142.99999345398,6|0,0:2|3:0,0:0:0:0:
433,254,225195,2,0,P|395:262|348:283,1,71.4999967269899,0|0,2:0|3:0,0:0:0:0:
247,214,225751,2,0,P|262:245|273:292,1,71.4999967269899,0|0,2:0|3:0,0:0:0:0:
211,326,226306,2,0,P|219:308|223:281,1,35.749998363495,0|0,2:0|2:0,0:0:0:0:
130,147,226584,6,0,P|124:103|104:-6,1,142.99999345398,6|0,0:3|3:0,0:0:0:0:
43,53,227325,1,2,2:1:0:0:
149,143,227602,2,0,L|156:172,1,23.83333224233,0|8,3:0|3:0,3:3:0:0:
53,220,227880,6,2,L|48:241,2,11.916666121165,2|2|2,2:0|2:0|2:0,2:2:0:0:
120,262,228112,1,8,3:3:0:0:
120,262,228251,2,0,L|123:339,1,71.4999967269899,2|2,3:2|2:2,0:0:0:0:
252,384,228714,1,2,2:1:0:0:
286,363,228806,6,0,P|293:304|217:272,1,142.99999345398,4|0,0:2|3:0,0:0:0:0:
219,194,229640,2,0,P|227:159|250:132,1,71.4999967269899,0|0,2:0|3:0,0:0:0:0:
315,94,230194,2,0,L|385:107,1,71.4999967269899,2|0,2:1|3:0,0:0:0:0:
420,100,230751,6,0,L|379:108,1,35.749998363495,0|0,2:0|2:0,0:0:0:0:
262,182,231028,2,0,P|269:217|273:331,1,142.99999345398,6|0,0:3|3:0,0:0:0:0:
211,366,231862,1,0,2:0:0:0:
158,306,232140,2,0,P|152:325|140:353,1,35.749998363495,0|0,3:0|2:0,0:0:0:0:
75,366,232417,2,0,P|73:339|61:288,2,71.4999967269899,2|2|0,2:2|3:0|2:0,0:0:0:0:
128,254,233158,5,0,3:0:0:0:
128,254,233251,2,0,P|106:209|149:127,1,142.99999345398,6|0,0:2|3:0,0:0:0:0:
261,17,234269,1,8,3:3:0:0:
278,13,234362,2,0,L|342:29,1,47.6666644846599,0|0,3:0|2:0,0:0:0:0:
403,27,234640,2,0,L|488:42,1,71.4999967269899,2|0,2:2|3:0,0:0:0:0:
321,14,235195,6,0,L|254:24,1,47.6666644846599,2|0,2:0|3:0,0:0:0:0:
201,52,235473,2,0,L|122:39,2,71.4999967269899,4|2|0,3:2|2:0|3:0,0:0:0:0:
292,82,236306,1,2,2:2:0:0:
248,207,236584,1,2,3:2:0:0:
248,207,237047,5,2,2:0:0:0:
248,207,237140,2,0,L|241:158,1,35.749998363495,0|2,3:0|2:3,0:0:0:0:
315,192,237417,2,0,L|302:237,1,35.749998363495,2|0,3:3|2:0,0:0:0:0:
181,300,237695,2,0,P|125:311|70:246,2,142.99999345398,6|0|0,3:2|3:0|3:0,0:0:0:0:
249,263,238945,1,0,3:0:0:0:
319,293,239084,2,0,L|404:320,1,71.4999967269899,0|2,3:0|3:2,0:0:0:0:
387,314,239640,2,0,L|401:277,1,35.749998363495,2|0,2:3|3:0,0:0:0:0:
498,212,239917,5,6,3:3:0:0:
406,185,240102,1,0,2:0:0:0:
310,175,240288,1,0,2:0:0:0:
166,208,240473,5,2,3:2:0:0:
91,230,240658,1,0,2:0:0:0:
22,236,240843,1,0,2:0:0:0:
113,209,241028,5,4,3:0:0:0:
236,274,241214,1,2,2:0:0:0:
241,290,241306,1,2,2:0:0:0:
226,278,241399,1,2,3:2:0:0:
242,282,241491,1,0,3:0:0:0:
227,291,241584,1,2,3:0:0:0:
248,141,241862,6,0,L|240:81,1,47.6666644846599,4|0,2:3|3:0,0:0:0:0:
312,38,242140,6,0,P|354:37|419:112,1,142.99999345398,6|0,3:2|3:0,0:0:0:0:
261,217,242973,2,0,L|171:243,1,71.4999967269899,0|0,2:0|3:0,0:0:0:0:
151,306,243528,2,0,L|214:343,1,71.4999967269899,2|0,2:0|3:0,0:0:0:0:
288,317,244084,2,0,L|299:277,1,35.749998363495,2|0,2:3|2:0,0:0:0:0:
435,187,244362,5,4,3:3:0:0:
435,187,244640,2,0,L|379:209,1,35.749998363495,2|0,2:0|2:0,0:0:0:0:
256,132,244917,5,2,3:0:0:0:
256,132,245195,2,0,L|288:189,1,35.749998363495,2|0,2:0|2:0,0:0:0:0:
322,222,245473,1,4,3:0:0:0:
355,131,245658,6,0,L|369:74,2,47.6666644846599,2|0|0,2:3|2:0|3:0,0:0:0:0:
162,207,246306,2,0,L|101:224,1,47.6666644846599,2|0,2:0|3:0,0:0:0:0:
39,258,246584,6,0,P|40:231|31:103,1,142.99999345398,6|0,3:3|3:0,0:0:0:0:
147,41,247417,2,0,P|176:51|221:63,1,71.4999967269899,0|0,2:0|3:0,0:0:0:0:
274,185,247973,2,0,P|262:217|253:269,1,71.4999967269899,2|0,2:0|3:0,0:0:0:0:
374,339,248528,1,2,3:2:0:0:
501,281,248714,5,2,3:3:0:0:
477,270,248806,2,0,L|439:264,1,23.83333224233,4|0,3:0|2:0,0:0:0:0:
341,215,249084,2,0,L|267:231,1,71.4999967269899,2|0,2:0|3:0,0:0:0:0:
155,286,249640,2,0,L|1:270,1,142.99999345398,2|0,2:0|2:0,0:0:0:0:
0,282,250473,6,0,L|9:251,1,23.83333224233,8|0,0:0|2:0,0:0:0:0:
69,112,250751,6,0,L|60:55,1,47.6666644846599,0|2,0:0|2:3,0:0:0:0:
138,26,251028,6,0,P|168:19|212:75,1,98.9999969787599,6|4,0:2|0:3,0:0:0:0:
387,159,251584,2,0,L|531:138,1,98.9999969787599,8|4,0:0|0:3,0:0:0:0:
325,257,252047,1,2,2:0:0:0:
260,193,252140,2,0,P|212:185|172:174,1,65.9999979858399,0|2,3:0|2:0,0:0:0:0:
195,181,252417,2,0,P|189:212|186:291,2,98.9999969787599,4|8|4,0:3|0:0|0:3,0:0:0:0:
43,331,253158,1,2,2:3:0:0:
147,356,253251,6,0,P|195:346|223:299,1,98.9999969787599,6|4,0:2|0:3,0:0:0:0:
95,174,253806,2,0,P|49:186|22:242,1,98.9999969787599,8|4,0:0|3:0,0:0:0:0:
225,354,254362,6,0,P|239:328|231:276,1,65.9999979858399,0|0,3:0|2:0,0:0:0:0:
174,245,254640,2,0,P|142:257|119:289,1,65.9999979858399,2|0,2:0|0:0,0:0:0:0:
226,330,254917,2,0,B|291:304|317:357|380:343,1,148.49999546814,8|0,0:0|2:0,0:0:0:0:
512,367,255473,5,6,3:3:0:0:
369,237,255751,1,2,2:0:0:0:
479,185,255936,1,0,3:0:0:0:
479,185,256028,2,0,L|489:251,1,65.9999979858399,6|2,2:3|2:0,0:0:0:0:
214,364,256491,5,2,3:2:0:0:
271,265,256584,1,8,0:0:0:0:
151,256,256769,5,0,2:0:0:0:
183,245,256862,1,0,3:0:0:0:
150,162,257047,5,0,3:0:0:0:
261,224,257140,1,8,0:0:0:0:
229,103,257325,5,2,3:2:0:0:
256,139,257417,1,0,2:0:0:0:
351,96,257602,5,4,3:0:0:0:
297,249,257695,1,8,0:0:0:0:
331,281,257973,5,0,0:0:0:0:
342,259,258251,5,0,0:0:0:0:
187,188,258528,5,0,0:0:0:0:
0,177,258806,5,0,0:0:0:0:
27,207,259084,5,0,0:0:0:0:
119,232,259362,5,0,0:0:0:0:
279,124,259640,6,0,L|270:98,1,16.49999949646,8|0,0:0|2:0,0:0:0:0:
492,21,259917,5,8,0:0:0:0:
254,0,261862,6,0,P|248:21|233:75,1,65.9999979858399,6|0,0:0|0:0,0:0:0:0:
273,172,262140,1,8,0:0:0:0:
273,172,263251,5,0,3:0:0:0:
273,172,263528,2,0,L|279:199,1,16.49999949646,8|0,0:0|2:0,0:0:0:0:
317,301,263714,5,8,0:0:0:0:
244,328,263806,2,0,B|268:286|268:286|320:302,1,98.9999969787599,8|4,0:0|2:3,0:0:0:0:
141,185,264269,1,8,0:0:0:0:
258,187,264362,6,0,B|284:157|284:157|352:183|352:183|384:163,1,137.5,4|0,0:0|2:0,0:0:0:0:
242,57,264732,2,0,L|228:120,1,45.8333333333333
337,100,264917,2,0,B|318:71|318:71|391:-11,1,137.5,8|0,0:0|0:0,0:0:0:0:
445,167,265361,1,2,0:2:0:0:
411,230,265473,2,0,P|396:285|388:327,1,91.6666666666667,2|0,0:3|2:0,0:0:0:0:
267,189,265751,2,0,P|252:244|244:286,1,91.6666666666667
123,148,266028,2,0,P|108:203|100:245,1,91.6666666666667,8|0,0:0|2:0,0:0:0:0:
181,224,266306,1,2,0:2:0:0:
202,148,266399,1,0,0:0:0:0:
169,77,266491,1,2,0:2:0:0:
243,17,266584,6,0,P|248:57|270:164,1,137.5
323,57,266954,2,0,P|345:48|382:39,1,45.8333333333333
147,52,267140,2,0,P|117:47|4:40,1,137.5,8|2,0:0|0:2,0:0:0:0:
46,337,267602,1,2,0:0:0:0:
91,270,267695,2,0,P|106:215|114:173,1,91.6666666666667,2|0,0:0|0:0,0:0:0:0:
235,311,267973,2,0,P|250:256|258:214,1,91.6666666666667,2|0,0:0|0:0,0:0:0:0:
379,352,268250,2,2,P|394:297|402:255,1,91.6666666666667,8|2,0:0|0:0,0:0:0:0:
275,134,268528,6,0,P|285:84|305:8,1,128.333334557215,2|0,2:0|0:0,0:0:0:0:
202,108,268806,6,0,P|191:148|264:167,1,128.333334557215,4|0,0:0|2:0,0:0:0:0:
433,160,269084,2,0,P|403:130|350:184,1,128.333334557215,4|0,0:2|2:0,0:0:0:0:
271,335,269362,2,0,P|311:324|291:251,1,128.333334557215,8|0,0:0|2:0,0:0:0:0:
191,322,269640,1,4,0:2:0:0:
82,190,269825,1,0,2:0:0:0:
76,265,269917,2,0,P|158:248|206:210,1,128.333334557215,6|2,0:2|0:2,0:0:0:0:
233,49,270195,2,0,P|264:37|352:60,1,128.333334557215,4|0,0:2|2:0,0:0:0:0:
235,129,270473,1,8,0:0:0:0:
168,91,270565,1,0,2:0:0:0:
165,13,270658,1,2,0:2:0:0:
112,139,270751,6,0,P|106:166|102:183,1,36.6666666666667,4|0,0:2|0:0,0:0:0:0:
46,226,270936,1,0,0:0:0:0:
52,298,271028,2,0,P|43:241|21:115,2,165.000006294251,4|2|8,0:0|2:0|0:0,0:0:0:0:
256,95,271862,1,2,0:3:0:0:
460,298,272140,2,0,P|469:241|491:115,2,165.000006294251,2|2|2,0:2|0:2|0:2,0:0:0:0:
256,372,272880,1,2,0:2:0:0:
258,316,272973,1,8,0:0:0:0:
260,261,273065,1,8,0:2:0:0:
261,205,273158,1,0,0:0:0:0:
258,149,273251,6,0,P|241:120|232:28,1,110.000004196167,4|0,0:0|0:0,0:0:0:0:
253,50,273528,2,0,P|248:104|224:153,1,110.000004196167,2|0,0:3|0:0,0:0:0:0:
149,103,273806,6,0,P|132:74|123:-18,1,110.000004196167,8|0,0:0|0:0,0:0:0:0:
363,23,274084,2,0,P|358:77|334:126,1,110.000004196167,2|2,0:2|0:2,0:0:0:0:
157,225,274362,2,0,P|118:219|58:171,1,110.000004196167,2|2,0:3|2:0,0:0:0:0:
154,313,274640,1,2,0:3:0:0:
112,83,274825,1,2,2:0:0:0:
36,107,274917,2,0,P|8:129|-13:208,1,110.000004196167,8|0,0:0|0:0,0:0:0:0:
181,161,275195,1,2,0:3:0:0:
217,119,275288,1,2,0:2:0:0:
220,64,275380,1,2,0:2:0:0:
188,18,275473,6,0,P|205:87|214:137,1,110.000004196167,4|0,0:2|0:0,0:0:0:0:
350,148,275751,2,0,P|367:217|376:267,1,110.000004196167,2|0,2:0|0:0,0:0:0:0:
324,18,276028,6,0,P|307:87|298:137,1,110.000004196167,8|0,0:0|2:0,0:0:0:0:
162,148,276306,2,0,P|145:217|136:267,1,110.000004196167,2|2,0:3|0:3,0:0:0:0:
252,357,276584,6,0,P|286:347|267:284,1,110.000004196167,4|0,0:2|2:0,0:0:0:0:
187,384,276862,2,0,P|236:368|305:355,1,110.000004196167,2|0,0:3|2:0,0:0:0:0:
177,304,277140,2,0,P|138:299|5:264,1,165.000006294251,8|2,0:0|0:3,0:0:0:0:
398,86,277695,5,4,0:2:0:0:
451,141,277973,1,2,0:3:0:0:
509,92,278251,1,8,0:0:0:0:
346,15,278436,5,2,0:0:0:0:
330,37,278528,1,4,0:2:0:0:
189,66,278713,1,2,0:0:0:0:
173,88,278805,1,4,0:2:0:0:
363,47,278991,5,2,0:2:0:0:
303,98,279083,1,2,0:3:0:0:
149,47,279268,1,2,0:2:0:0:
209,98,279361,1,8,0:0:0:0:
258,365,279640,6,0,P|256:308|262:163,1,192.500001835823,4|0,0:0|2:0,0:0:0:0:
261,97,280195,1,4,3:3:0:0:
256,24,280473,2,0,P|258:52|262:108,1,73.3333333333333,8|0,0:0|2:0,0:0:0:0:
183,35,280751,6,0,P|251:26|341:13,1,146.666666666667,0|0,0:0|2:0,0:0:0:0:
353,20,281028,6,0,P|355:48|359:97,1,62.8571428571429,0|2,3:0|0:3,0:0:0:0:
334,273,281305,6,0,P|349:224|250:190,1,165,2|0,0:3|3:0,0:0:0:0:
409,293,281862,5,2,0:2:0:0:
443,212,281954,1,2,0:2:0:0:
375,154,282047,1,2,0:2:0:0:
306,209,282140,6,0,P|269:230|294:284,1,110.000004196167,4|0,0:0|0:0,0:0:0:0:
375,154,282417,2,0,P|361:73|355:38,1,110.000004196167,2|0,0:2|0:0,0:0:0:0:
443,212,282695,2,0,P|479:233|454:287,1,110.000004196167,8|0,0:0|0:0,0:0:0:0:
378,302,282973,2,0,P|376:260|376:226,1,55.0000020980836,2|2,2:0|0:2,0:0:0:0:
294,123,283158,1,0,0:0:0:0:
241,175,283251,2,0,P|179:180|68:195,1,165.000006294251,2|0,0:2|0:0,0:0:0:0:
285,14,283806,1,8,0:0:0:0:
447,261,283991,5,0,0:0:0:0:
408,326,284084,1,2,0:2:0:0:
316,142,284269,1,2,0:2:0:0:
391,143,284362,2,0,P|375:203|356:267,1,110.000004196167,0|0,0:0|0:0,0:0:0:0:
257,73,284640,2,0,P|241:133|222:197,1,110.000004196167,2|0,2:0|0:0,0:0:0:0:
111,178,284917,2,0,P|95:238|76:302,1,110.000004196167,8|0,0:0|0:0,0:0:0:0:
182,306,285195,1,2,0:2:0:0:
25,101,285380,1,2,0:0:0:0:
59,30,285473,1,2,0:0:0:0:
213,123,285658,1,0,0:0:0:0:
247,52,285751,1,2,0:0:0:0:
401,145,285935,1,2,0:0:0:0:
435,74,286028,1,8,0:0:0:0:
268,227,286306,6,2,P|239:253|247:295,1,73.3333333333333,2|2,2:0|0:0,0:0:0:0:
321,282,286584,6,0,P|299:177|292:90,2,192.500001835823,4|0|8,0:2|0:0|0:0,0:0:0:0:
0,196,287325,1,2,2:1:0:0:
67,235,287417,2,0,P|89:130|90:80,1,128.333334557215,4|0,0:2|2:0,0:0:0:0:
69,137,287695,2,2,P|75:200|92:262,1,128.333334557215,6|2,0:2|0:0,0:0:0:0:
195,143,287973,2,0,P|217:38|218:-12,1,128.333334557215,4|0,0:2|2:0,0:0:0:0:
193,176,288251,2,0,P|199:239|216:301,1,128.333334557215,10|2,0:0|0:2,0:0:0:0:
499,198,288528,5,4,0:2:0:0:
422,190,288621,5,0,0:0:0:0:
344,182,288714,5,0,0:0:0:0:
267,175,288806,5,4,0:0:0:0:
499,198,289084,6,0,P|454:197|435:195,1,55.0000020980836,2|0,2:0|0:0,0:0:0:0:
311,100,289362,2,0,P|276:104|182:111,1,110.000004196167,8|0,0:0|0:0,0:0:0:0:
67,215,289640,1,2,0:3:0:0:
113,44,289825,1,0,0:0:0:0:
113,44,289917,2,0,P|127:96|139:219,1,165.000006294251,0|2,0:0|0:2,0:0:0:0:
214,227,290473,1,2,0:2:0:0:
379,184,290658,1,2,0:2:0:0:
316,139,290751,2,0,P|296:129|307:28,1,128.333334557215,8|0,0:0|0:0,0:0:0:0:
438,138,291028,6,0,P|420:208|410:266,1,110.000004196167,4|0,0:0|0:0,0:0:0:0:
215,316,291306,2,0,P|172:293|197:227,1,110.000004196167,2|0,0:3|0:0,0:0:0:0:
302,351,291584,2,0,P|312:297|326:243,1,110.000004196167,8|0,0:0|0:0,0:0:0:0:
405,348,291862,1,2,0:2:0:0:
215,151,292047,5,2,0:2:0:0:
306,169,292140,2,0,P|295:115|281:61,1,110.000004196167,2|0,0:3|0:0,0:0:0:0:
340,13,292417,1,2,0:3:0:0:
77,26,292602,1,0,2:0:0:0:
135,80,292695,2,0,P|120:133|110:187,1,110.000004196167,8|0,0:0|0:0,0:0:0:0:
297,316,292973,2,0,P|340:293|315:227,1,110.000004196167,2|0,0:3|0:0,0:0:0:0:
81,374,293251,6,0,P|117:364|164:354,1,73.3333333333333,0|0,0:0|0:0,0:0:0:0:
253,256,293528,2,0,P|208:267|164:279,1,91.6666666666667,2|0,0:3|0:0,0:0:0:0:
271,175,293806,6,0,P|307:165|384:145,1,110.000004196167,8|2,0:0|0:3,0:0:0:0:
500,36,294084,2,0,P|437:52|376:69,1,128.333334557215,2|0,0:3|0:0,0:0:0:0:
111,208,294362,6,0,P|61:186|103:118,1,146.666666666667,0|0,0:0|0:0,0:0:0:0:
201,233,294640,1,2,0:3:0:0:
271,28,294825,1,0,0:0:0:0:
217,152,294917,2,0,P|204:98|170:2,1,146.666666666667,8|0,0:0|0:0,0:0:0:0:
285,212,295195,2,0,P|346:194|378:103,1,146.666666666667,2|0,0:3|0:0,0:0:0:0:
249,282,295473,6,0,P|302:289|331:298,1,73.3333333333333,0|0,0:0|0:0,0:0:0:0:
159,248,295751,2,0,P|174:291|184:335,1,91.6666666666667,2|0,0:3|0:0,0:0:0:0:
43,237,296028,6,0,P|100:198|132:166,1,110.000004196167,8|2,0:0|0:0,0:0:0:0:
68,69,296305,2,0,P|148:91|209:90,1,128.333334557215,2|2,0:3|0:0,0:0:0:0:
300,38,296584,1,2,0:3:0:0:
419,253,296769,1,2,0:2:0:0:
349,305,296861,1,2,0:3:0:0:
300,138,297047,1,2,0:2:0:0:
399,166,297140,2,0,P|407:122|415:21,1,146.666666666667,8|2,0:0|0:3,0:0:0:0:
494,253,297417,6,0,P|489:289|480:385,1,132,4|8,0:0|0:0,0:0:0:0:
32,378,298528,1,0,0:0:0:0:
41,283,298714,1,0,0:0:0:0:
41,283,298806,1,0,3:0:0:0:
466,235,299084,1,0,0:0:0:0:
457,140,299269,1,0,0:0:0:0:
457,140,299362,1,0,3:0:0:0:
41,95,299640,1,2,0:2:0:0:
50,0,299824,1,0,0:0:0:0:
50,0,299917,6,0,B|68:4|103:14|166:28,2,110,4|0|8,0:0|3:0|0:0,0:0:0:0:
253,190,300751,1,2,2:0:0:0:
403,132,300936,1,2,0:3:0:0:
403,132,301028,1,0,0:0:0:0:
259,190,301306,1,0,3:0:0:0:
109,132,301491,1,0,0:0:0:0:
109,132,301583,1,8,0:0:0:0:
262,30,301862,5,2,3:0:0:0:
246,279,302047,1,8,0:0:0:0:
246,279,302140,1,4,0:0:0:0:
99,68,302417,1,0,0:0:0:0:
411,113,302695,1,8,0:0:0:0:
232,365,302973,1,2,0:2:0:0:
54,186,303251,6,0,P|79:188|136:192,1,73.3333333333333,4|0,0:3|0:0,0:0:0:0:
246,156,303528,6,0,P|271:158|328:162,1,73.3333333333333,0|0,3:0|0:0,0:0:0:0:
425,120,303806,6,0,P|450:122|504:127,1,73.3333333333333,8|0,0:0|0:0,0:0:0:0:
332,16,304084,6,0,P|298:20|284:22,1,36.6666666666667,2|0,0:2|2:0,0:0:0:0:
252,80,304269,1,8,1:0:0:0:
