osu file format v14

[General]
AudioFilename: audio.mp3
AudioLeadIn: 0
PreviewTime: 77690
Countdown: 0
SampleSet: Normal
StackLeniency: 0.7
Mode: 1
LetterboxInBreaks: 0
WidescreenStoryboard: 0

[Editor]
Bookmarks: 656,7513,21227,31513,41798,53798,67512,77798
DistanceSpacing: 0.8
BeatDivisor: 4
GridSize: 32
TimelineZoom: 1

[Metadata]
Title:talking (TV Size)
TitleUnicode:talking (TV Size)
Artist:KANA-BOON
ArtistUnicode:KANA-BOON
Creator:DakeDekaane
Version:Kantan
Source:すべてがFになる THE PERFECT INSIDER
Tags:Subete ga F ni Naru opening anime japanese ナナヒツジ nanahitsuji jpop jrock rock pop
BeatmapID:1048079
BeatmapSetID:491921

[Difficulty]
HPDrainRate:7
CircleSize:2
OverallDifficulty:3
ApproachRate:5
SliderMultiplier:1.4
SliderTickRate:1

[Events]
//Background and Video events
0,0,"53025139_p0.jpg",0,130
//Break Periods
//Storyboard Layer 0 (Background)
//Storyboard Layer 1 (Fail)
//Storyboard Layer 2 (Pass)
//Storyboard Layer 3 (Foreground)
//Storyboard Layer 4 (Overlay)
//Storyboard Sound Samples

[TimingPoints]
656,428.571428571429,4,1,0,90,1,0
21227,-100,4,1,0,75,0,0
28084,-100,4,1,0,83,0,0
31513,428.571428571429,4,1,0,90,1,1
52084,-100,4,1,0,90,0,0
53798,428.571428571429,4,1,0,90,1,0
77798,428.571428571429,4,1,0,90,1,1
88369,-100,4,1,0,90,0,0

[HitObjects]
256,192,227,5,8,0:0:0:0:
256,192,656,5,4,0:0:0:0:
256,192,1513,1,0,0:0:0:0:
256,192,1941,1,8,0:0:0:0:
256,192,2370,1,0,0:0:0:0:
256,192,3227,1,0,0:0:0:0:
256,192,3656,1,8,0:0:0:0:
256,192,4084,1,0,0:0:0:0:
256,192,4941,1,0,0:0:0:0:
256,192,5798,1,12,0:0:0:0:
256,192,7513,5,4,0:0:0:0:
256,192,8798,1,0,0:0:0:0:
256,192,9227,1,0,0:0:0:0:
256,192,10513,1,8,0:0:0:0:
256,192,10941,1,8,0:0:0:0:
256,192,12227,1,0,0:0:0:0:
256,192,12656,1,4,0:0:0:0:
256,192,14370,1,4,0:0:0:0:
256,192,15656,1,0,0:0:0:0:
256,192,16084,1,0,0:0:0:0:
256,192,17370,1,8,0:0:0:0:
256,192,17798,1,8,0:0:0:0:
256,192,19084,1,0,0:0:0:0:
256,192,19513,1,4,0:0:0:0:
256,192,21227,5,0,0:0:0:0:
256,192,22941,1,0,0:0:0:0:
256,192,24656,1,8,0:0:0:0:
256,192,26370,1,8,0:0:0:0:
256,192,28084,12,0,29798,0:0:0:0:
256,192,31513,5,4,0:0:0:0:
256,192,32370,1,0,0:0:0:0:
256,192,32798,1,0,0:0:0:0:
256,192,33227,1,0,0:0:0:0:
256,192,34084,1,8,0:0:0:0:
256,192,34941,1,0,0:0:0:0:
256,192,35584,1,0,0:0:0:0:
256,192,36655,1,8,0:0:0:0:
256,192,37298,1,8,0:0:0:0:
256,192,38370,1,0,0:0:0:0:
256,192,39227,1,0,0:0:0:0:
256,192,40084,1,0,0:0:0:0:
256,192,40513,1,0,0:0:0:0:
256,192,40941,1,0,0:0:0:0:
256,192,41370,1,0,0:0:0:0:
256,192,41798,5,4,0:0:0:0:
256,192,42655,1,0,0:0:0:0:
256,192,43084,1,0,0:0:0:0:
256,192,43513,1,0,0:0:0:0:
256,192,44370,1,8,0:0:0:0:
256,192,45227,1,0,0:0:0:0:
256,192,45870,1,0,0:0:0:0:
256,192,46941,1,8,0:0:0:0:
256,192,47584,1,8,0:0:0:0:
256,192,48655,1,0,0:0:0:0:
256,192,49513,1,0,0:0:0:0:
256,192,50370,1,8,0:0:0:0:
256,192,50798,1,8,0:0:0:0:
256,192,51227,1,8,0:0:0:0:
256,192,52084,1,4,0:0:0:0:
256,192,53798,5,0,0:0:0:0:
256,192,54655,1,0,0:0:0:0:
256,192,55083,1,8,0:0:0:0:
256,192,55512,1,0,0:0:0:0:
256,192,56369,1,8,0:0:0:0:
256,192,56798,1,8,0:0:0:0:
256,192,57226,1,0,0:0:0:0:
256,192,57655,1,0,0:0:0:0:
256,192,58512,1,8,0:0:0:0:
256,192,58940,1,0,0:0:0:0:
256,192,59798,1,8,0:0:0:0:
256,192,61083,1,0,0:0:0:0:
256,192,61512,1,8,0:0:0:0:
256,192,62369,1,0,0:0:0:0:
256,192,63226,1,8,0:0:0:0:
256,192,63655,1,8,0:0:0:0:
256,192,64512,1,0,0:0:0:0:
256,192,64940,1,8,0:0:0:0:
256,192,65798,1,0,0:0:0:0:
256,192,66655,1,8,0:0:0:0:
256,192,67083,1,8,0:0:0:0:
256,192,67512,5,0,0:0:0:0:
256,192,67940,1,0,0:0:0:0:
256,192,68369,1,0,0:0:0:0:
256,192,69226,1,0,0:0:0:0:
256,192,70083,1,8,0:0:0:0:
256,192,70940,1,0,0:0:0:0:
256,192,71369,1,0,0:0:0:0:
256,192,71798,1,0,0:0:0:0:
256,192,72655,1,0,0:0:0:0:
256,192,73512,1,8,0:0:0:0:
256,192,74369,12,0,76940,0:0:0:0:
256,192,77798,5,4,0:0:0:0:
256,192,78655,1,0,0:0:0:0:
256,192,79083,1,0,0:0:0:0:
256,192,79512,1,0,0:0:0:0:
256,192,80369,1,8,0:0:0:0:
256,192,81226,1,0,0:0:0:0:
256,192,81869,1,0,0:0:0:0:
256,192,82940,1,8,0:0:0:0:
256,192,83798,1,8,0:0:0:0:
256,192,84655,1,0,0:0:0:0:
256,192,85512,1,0,0:0:0:0:
256,192,86369,1,0,0:0:0:0:
256,192,86798,1,0,0:0:0:0:
256,192,87226,1,0,0:0:0:0:
256,192,87655,1,0,0:0:0:0:
256,192,88083,5,4,0:0:0:0:
