osu file format v14

[General]
AudioFilename: audio.mp3
AudioLeadIn: 0
PreviewTime: 77690
Countdown: 0
SampleSet: Normal
StackLeniency: 0.7
Mode: 1
LetterboxInBreaks: 0
WidescreenStoryboard: 0

[Editor]
Bookmarks: 656,7513,21227,31513,41798,53798,67512,77798
DistanceSpacing: 0.8
BeatDivisor: 4
GridSize: 32
TimelineZoom: 1.3

[Metadata]
Title:talking (TV Size)
TitleUnicode:talking (TV Size)
Artist:KANA-BOON
ArtistUnicode:KANA-BOON
Creator:DakeDekaane
Version:Futsuu
Source:すべてがFになる THE PERFECT INSIDER
Tags:Subete ga F ni Naru opening anime japanese ナナヒツジ nanahitsuji jpop jrock rock pop
BeatmapID:1048078
BeatmapSetID:491921

[Difficulty]
HPDrainRate:6.5
CircleSize:2
OverallDifficulty:4
ApproachRate:5
SliderMultiplier:1.4
SliderTickRate:1

[Events]
//Background and Video events
0,0,"53025139_p0.jpg",0,130
//Break Periods
//Storyboard Layer 0 (Background)
//Storyboard Layer 1 (Fail)
//Storyboard Layer 2 (Pass)
//Storyboard Layer 3 (Foreground)
//Storyboard Layer 4 (Overlay)
//Storyboard Sound Samples

[TimingPoints]
656,428.571428571429,4,1,0,90,1,0
21227,-100,4,1,0,75,0,0
28084,-100,4,1,0,83,0,0
31513,428.571428571429,4,1,0,90,1,1
52084,-100,4,1,0,90,0,0
53798,428.571428571429,4,1,0,90,1,0
77798,428.571428571429,4,1,0,90,1,1
88369,-100,4,1,0,90,0,0

[HitObjects]
256,192,227,5,8,0:0:0:0:
256,192,656,5,4,0:0:0:0:
256,192,1513,1,8,0:0:0:0:
256,192,1941,1,8,0:0:0:0:
256,192,2263,1,8,0:0:0:0:
256,192,2584,1,8,0:0:0:0:
256,192,3227,1,8,0:0:0:0:
256,192,3656,1,8,0:0:0:0:
256,192,3977,1,8,0:0:0:0:
256,192,4298,1,8,0:0:0:0:
256,192,4941,1,8,0:0:0:0:
256,192,5370,1,8,0:0:0:0:
256,192,5798,1,12,0:0:0:0:
256,192,7513,5,4,0:0:0:0:
256,192,8370,1,0,0:0:0:0:
256,192,8798,1,0,0:0:0:0:
256,192,9120,1,0,0:0:0:0:
256,192,9441,1,0,0:0:0:0:
256,192,10084,1,8,0:0:0:0:
256,192,10513,1,8,0:0:0:0:
256,192,10834,1,8,0:0:0:0:
256,192,11156,1,8,0:0:0:0:
256,192,11798,1,0,0:0:0:0:
256,192,12227,1,0,0:0:0:0:
256,192,12656,1,4,0:0:0:0:
256,192,14370,1,4,0:0:0:0:
256,192,15227,1,0,0:0:0:0:
256,192,15656,1,0,0:0:0:0:
256,192,15977,1,0,0:0:0:0:
256,192,16298,1,0,0:0:0:0:
256,192,16941,1,8,0:0:0:0:
256,192,17370,1,8,0:0:0:0:
256,192,17691,1,8,0:0:0:0:
256,192,18013,1,8,0:0:0:0:
256,192,18656,1,0,0:0:0:0:
256,192,19084,1,0,0:0:0:0:
256,192,19513,1,4,0:0:0:0:
256,192,21227,5,0,0:0:0:0:
256,192,22941,1,0,0:0:0:0:
256,192,23798,1,8,0:0:0:0:
256,192,24656,1,0,0:0:0:0:
256,192,26370,1,0,0:0:0:0:
256,192,27227,1,8,0:0:0:0:
256,192,28084,12,0,29798,0:0:0:0:
256,192,31513,5,4,0:0:0:0:
256,192,31941,1,8,0:0:0:0:
256,192,32370,1,0,0:0:0:0:
256,192,32584,1,0,0:0:0:0:
256,192,32798,1,0,0:0:0:0:
256,192,33227,1,0,0:0:0:0:
256,192,33655,1,8,0:0:0:0:
256,192,34084,1,0,0:0:0:0:
256,192,34941,1,0,0:0:0:0:
256,192,35370,1,8,0:0:0:0:
256,192,35584,1,0,0:0:0:0:
256,192,36227,1,8,0:0:0:0:
256,192,36655,1,0,0:0:0:0:
256,192,37084,1,8,0:0:0:0:
256,192,37298,1,8,0:0:0:0:
256,192,38370,1,0,0:0:0:0:
256,192,38798,1,0,0:0:0:0:
256,192,39227,1,0,0:0:0:0:
256,192,39441,1,0,0:0:0:0:
256,192,39655,1,0,0:0:0:0:
256,192,40084,1,8,0:0:0:0:
256,192,40513,1,8,0:0:0:0:
256,192,40941,1,8,0:0:0:0:
256,192,41155,1,8,0:0:0:0:
256,192,41370,1,8,0:0:0:0:
256,192,41798,5,4,0:0:0:0:
256,192,42227,1,8,0:0:0:0:
256,192,42655,1,0,0:0:0:0:
256,192,42870,1,0,0:0:0:0:
256,192,43084,1,0,0:0:0:0:
256,192,43513,1,0,0:0:0:0:
256,192,43941,1,8,0:0:0:0:
256,192,44370,1,0,0:0:0:0:
256,192,45227,1,0,0:0:0:0:
256,192,45655,1,8,0:0:0:0:
256,192,45870,1,0,0:0:0:0:
256,192,46513,1,8,0:0:0:0:
256,192,46941,1,0,0:0:0:0:
256,192,47370,1,8,0:0:0:0:
256,192,47584,1,8,0:0:0:0:
256,192,48655,1,0,0:0:0:0:
256,192,49084,1,8,0:0:0:0:
256,192,49298,1,0,0:0:0:0:
256,192,49727,1,0,0:0:0:0:
256,192,49941,1,8,0:0:0:0:
256,192,50370,1,0,0:0:0:0:
256,192,50798,1,0,0:0:0:0:
256,192,51227,1,8,0:0:0:0:
256,192,51441,1,0,0:0:0:0:
256,192,51655,1,8,0:0:0:0:
256,192,52084,1,4,0:0:0:0:
256,192,53798,5,0,0:0:0:0:
256,192,54226,1,8,0:0:0:0:
256,192,54655,1,0,0:0:0:0:
256,192,54869,1,0,0:0:0:0:
256,192,55083,1,0,0:0:0:0:
256,192,55512,1,0,0:0:0:0:
256,192,55940,1,8,0:0:0:0:
256,192,56369,1,8,0:0:0:0:
256,192,56583,1,8,0:0:0:0:
256,192,56798,1,8,0:0:0:0:
256,192,57226,1,0,0:0:0:0:
256,192,57655,1,8,0:0:0:0:
256,192,58083,1,0,0:0:0:0:
256,192,58940,1,0,0:0:0:0:
256,192,59369,1,8,0:0:0:0:
256,192,59798,1,8,0:0:0:0:
256,192,60655,1,4,0:0:0:0:
256,192,61083,1,0,0:0:0:0:
256,192,61512,1,8,0:0:0:0:
256,192,62155,1,0,0:0:0:0:
256,192,62798,1,0,0:0:0:0:
256,192,63226,1,8,0:0:0:0:
256,192,63655,1,8,0:0:0:0:
256,192,63869,1,8,0:0:0:0:
256,192,64512,1,0,0:0:0:0:
256,192,64940,1,8,0:0:0:0:
256,192,65583,1,0,0:0:0:0:
256,192,66226,1,0,0:0:0:0:
256,192,66655,1,8,0:0:0:0:
256,192,67083,1,8,0:0:0:0:
256,192,67298,1,8,0:0:0:0:
256,192,67512,5,0,0:0:0:0:
256,192,67940,1,0,0:0:0:0:
256,192,68369,1,0,0:0:0:0:
256,192,68798,1,8,0:0:0:0:
256,192,69012,1,8,0:0:0:0:
256,192,69440,1,8,0:0:0:0:
256,192,69869,1,8,0:0:0:0:
256,192,70940,1,0,0:0:0:0:
256,192,71369,1,0,0:0:0:0:
256,192,71798,1,8,0:0:0:0:
256,192,72226,1,8,0:0:0:0:
256,192,72655,1,0,0:0:0:0:
256,192,73083,1,0,0:0:0:0:
256,192,73298,1,0,0:0:0:0:
256,192,73940,1,8,0:0:0:0:
256,192,74155,12,0,76940,0:0:0:0:
256,192,77798,5,4,0:0:0:0:
256,192,78226,1,8,0:0:0:0:
256,192,78655,1,0,0:0:0:0:
256,192,78869,1,0,0:0:0:0:
256,192,79083,1,0,0:0:0:0:
256,192,79512,1,0,0:0:0:0:
256,192,79940,1,8,0:0:0:0:
256,192,80369,1,0,0:0:0:0:
256,192,81226,1,0,0:0:0:0:
256,192,81655,1,8,0:0:0:0:
256,192,81869,1,0,0:0:0:0:
256,192,82512,1,8,0:0:0:0:
256,192,82940,1,0,0:0:0:0:
256,192,83369,1,8,0:0:0:0:
256,192,83583,1,0,0:0:0:0:
256,192,83798,1,8,0:0:0:0:
256,192,84655,1,0,0:0:0:0:
256,192,85083,1,0,0:0:0:0:
256,192,85512,1,0,0:0:0:0:
256,192,85726,1,0,0:0:0:0:
256,192,85940,1,0,0:0:0:0:
256,192,86369,1,8,0:0:0:0:
256,192,86798,1,8,0:0:0:0:
256,192,87226,1,8,0:0:0:0:
256,192,87440,1,8,0:0:0:0:
256,192,87655,1,8,0:0:0:0:
256,192,88083,1,4,0:0:0:0:
