osu file format v14

[General]
AudioFilename: audio.mp3
AudioLeadIn: 0
PreviewTime: 49613
Countdown: 0
SampleSet: Soft
StackLeniency: 0.7
Mode: 0
LetterboxInBreaks: 0
WidescreenStoryboard: 0

[Editor]
DistanceSpacing: 0.5
BeatDivisor: 4
GridSize: 32
TimelineZoom: 1.3

[Metadata]
Title:Torch of Liberty (TV Size)
TitleUnicode:Torch of Liberty (TV Size)
Artist:KANA-BOON
ArtistUnicode:KANA-BOON
Creator:Kudosu
Version:Sotarks' Sacred Blaze
Source:炎炎ノ消防隊 弐ノ章
Tags:japanese anime op opening fire force enen enn enn no shouboutai season 2 two jrock j-rock rock nymphe sotarks kiyoshi guarden chiga nexusqi soop so0p
BeatmapID:2631277
BeatmapSetID:1266045

[Difficulty]
HPDrainRate:5.2
CircleSize:4
OverallDifficulty:9.3
ApproachRate:9.3
SliderMultiplier:1.82
SliderTickRate:1

[Events]
//Background and Video events
0,0,"bg.jpg",0,0
Video,141,"video.avi"
//Break Periods
//Storyboard Layer 0 (Background)
//Storyboard Layer 1 (Fail)
//Storyboard Layer 2 (Pass)
//Storyboard Layer 3 (Foreground)
//Storyboard Layer 4 (Overlay)
//Storyboard Sound Samples

[TimingPoints]
666,315.789473684211,4,2,1,60,1,0
666,-138.888888888889,4,2,1,65,0,0
3192,-108.695652173913,4,2,1,75,0,0
13297,-238.095238095239,4,2,1,55,0,0
15823,-138.888888888889,4,2,1,65,0,0
23402,-138.888888888889,4,2,1,65,0,0
33508,-121.951219512195,4,2,1,65,0,0
42981,-121.951219512195,4,2,1,65,0,0
43613,-108.695652173913,4,2,1,65,0,0
46139,-108.695652173913,4,2,1,75,0,0
48666,-192.307692307692,4,2,1,65,0,0
49771,-98.0392156862745,4,2,1,85,0,0
69981,-98.0392156862745,4,2,1,70,0,0
72034,-98.0392156862745,4,2,1,70,0,0
72666,-98.0392156862745,4,2,1,80,0,0
75192,-98.0392156862745,4,2,1,85,0,0
88771,-121.951219512195,4,2,1,70,0,0
88850,-121.951219512195,4,2,1,5,0,0

[Colours]
Combo1 : 255,242,79
Combo2 : 68,221,253
Combo3 : 236,137,47

[HitObjects]
55,112,666,6,0,P|63:155|70:197,1,65.5200015996094,4|2,1:2|0:0,0:0:0:0:
181,274,981,2,0,P|186:241|192:209,1,65.5200015996094,0|2,1:0|0:0,0:0:0:0:
158,67,1297,2,0,P|189:74|221:83,1,65.5200015996094,0|0,1:0|0:0,0:0:0:0:
304,184,1613,2,0,P|335:175|367:167,1,65.5200015996094,2|0,1:2|0:0,0:0:0:0:
489,62,1929,5,10,0:0:0:0:
485,94,2007,1,8,0:0:0:0:
481,127,2086,1,8,0:0:0:0:
478,159,2165,1,8,0:0:0:0:
474,192,2244,2,0,L|518:177,1,32.7600007998047,8|8,0:0|0:0,0:0:0:0:
343,74,2402,1,8,0:0:0:0:
343,74,2481,1,8,0:0:0:0:
343,74,2560,1,10,0:0:0:0:
343,74,3192,6,0,P|295:73|249:109,1,83.7199971895753,6|0,1:2|0:0,0:0:0:0:
162,264,3508,2,0,P|80:266|25:178,1,167.439994379151,10|0,0:0|1:0,0:0:0:0:
138,0,3981,2,0,P|163:37|170:88,1,83.7199971895753,2|10,1:2|0:0,0:0:0:0:
120,182,4297,1,0,0:0:0:0:
258,71,4455,2,0,P|295:52|336:55,1,83.7199971895753,2|0,1:2|0:0,0:0:0:0:
455,156,4771,1,8,0:0:0:0:
316,295,4929,2,0,P|283:227|326:136,1,167.439994379151,2|0,0:0|0:0,0:0:0:0:
385,369,5402,2,0,P|347:387|306:384,1,83.7199971895753,10|0,2:0|0:0,0:0:0:0:
155,233,5718,5,2,1:2:0:0:
155,233,5876,1,0,0:0:0:0:
59,344,6034,2,0,P|104:353|156:365,1,83.7199971895753,10|0,0:0|0:0,0:0:0:0:
334,257,6350,1,2,1:2:0:0:
334,257,6508,2,0,P|289:266|237:278,1,83.7199971895753,2|8,1:2|0:0,0:0:0:0:
434,384,6823,2,0,P|444:304|455:208,1,167.439994379151,2|0,0:0|0:0,0:0:0:0:
297,75,7297,2,0,P|306:124|314:170,1,83.7199971895753,10|0,0:2|0:2,0:0:0:0:
241,300,7613,1,2,1:2:0:0:
434,196,7771,1,0,1:2:0:0:
215,119,7929,1,10,0:0:0:0:
398,321,8087,1,2,0:0:0:0:
439,62,8244,1,4,1:2:0:0:
439,62,8560,6,0,P|406:110|291:100,1,167.439994379151,10|0,0:0|1:0,0:0:0:0:
164,43,9034,2,0,P|189:80|196:131,1,83.7199971895753,2|10,1:2|0:0,0:0:0:0:
137,294,9350,1,0,0:0:0:0:
304,111,9508,2,0,P|279:148|272:199,1,83.7199971895753,2|0,1:2|0:0,0:0:0:0:
342,367,9823,1,8,0:0:0:0:
159,207,9981,2,0,P|117:204|80:222,1,83.7199971895753,2|0,0:0|1:0,0:0:0:0:
241,373,10297,1,0,0:0:0:0:
364,178,10455,2,0,P|405:175|442:193,1,83.7199971895753,10|0,2:0|0:0,0:0:0:0:
275,279,10771,5,0,1:2:0:0:
275,279,10929,1,2,0:0:0:0:
349,95,11087,2,0,P|358:144|366:190,1,83.7199971895753,10|0,0:0|0:0,0:0:0:0:
152,117,11402,1,2,1:2:0:0:
152,117,11560,2,0,P|159:76|167:35,1,83.7199971895753,2|10,0:0|0:0,0:0:0:0:
257,247,11876,2,0,P|212:256|160:268,1,83.7199971895753,2|0,2:0|1:0,0:0:0:0:
255,103,12192,1,10,0:0:0:0:
203,346,12350,1,14,0:0:0:0:
261,75,12508,1,2,0:0:0:0:
306,368,12666,1,10,0:0:0:0:
180,135,12823,1,8,0:3:0:0:
104,384,12981,1,8,0:3:0:0:
277,209,13139,1,8,0:0:0:0:
277,209,13218,1,8,0:0:0:0:
277,209,13297,6,0,B|346:172|409:231|372:249|440:316|513:269,1,267.539991835327,14|0,0:0|0:0,0:0:0:0:
470,176,14560,1,2,1:2:0:0:
470,176,14876,1,2,1:2:0:0:
278,314,15192,1,8,1:3:0:0:
368,92,15350,1,4,1:3:0:0:
446,320,15508,1,10,0:0:0:0:
446,320,15823,6,0,P|408:330|368:341,1,65.5200015996094,6|0,1:2|0:0,0:0:0:0:
288,210,16139,2,0,P|319:218|351:226,1,65.5200015996094,0|2,1:0|0:0,0:0:0:0:
255,384,16455,2,0,P|249:349|241:304,1,65.5200015996094,0|0,1:0|0:0,0:0:0:0:
153,206,16771,2,0,P|147:238|141:270,1,65.5200015996094,2|0,1:2|0:0,0:0:0:0:
38,380,17087,2,0,P|-3:342|11:255,1,131.040003199219,2|0,1:2|1:0,0:0:0:0:
63,141,17560,1,2,0:0:0:0:
63,141,17718,2,0,P|25:151|-15:162,1,65.5200015996094,0|0,1:0|0:0,0:0:0:0:
78,287,18034,2,0,P|109:278|141:270,1,65.5200015996094,2|0,1:2|0:0,0:0:0:0:
280,146,18350,6,0,P|274:178|268:210,1,65.5200015996094,0|0,1:2|0:0,0:0:0:0:
406,283,18666,2,0,P|400:250|394:218,1,65.5200015996094,2|0,1:2|0:0,0:0:0:0:
443,78,18981,1,2,1:2:0:0:
443,78,19139,2,0,P|411:86|379:94,1,65.5200015996094,2|0,0:0|1:0,0:0:0:0:
230,0,19455,1,2,0:0:0:0:
230,0,19613,2,0,P|261:8|293:16,1,65.5200015996094,2|0,1:2|0:0,0:0:0:0:
278,145,19929,2,0,P|246:136|214:128,1,65.5200015996094,2|0,1:2|0:0,0:0:0:0:
54,186,20244,1,2,1:2:0:0:
155,38,20402,1,2,0:0:0:0:
221,226,20560,2,0,P|189:234|157:242,1,65.5200015996094,2|0,1:2|0:0,0:0:0:0:
338,84,20876,6,0,P|343:116|349:148,1,65.5200015996094,0|0,1:2|0:0,0:0:0:0:
476,224,21192,2,0,P|481:191|487:159,1,65.5200015996094,2|0,1:2|0:0,0:0:0:0:
355,281,21508,1,2,1:2:0:0:
355,281,21666,2,0,P|323:289|291:297,1,65.5200015996094,2|0,0:0|1:0,0:0:0:0:
190,156,21981,1,2,0:0:0:0:
190,156,22139,2,0,P|221:164|253:172,1,65.5200015996094,2|0,1:2|0:0,0:0:0:0:
127,271,22455,1,2,1:2:0:0:
240,67,22613,1,2,0:0:0:0:
291,297,22771,1,2,1:2:0:0:
109,140,22929,1,10,0:0:0:0:
311,323,23087,2,0,P|316:290|322:258,1,65.5200015996094,10|0,0:0|0:0,0:0:0:0:
429,99,23402,1,4,1:2:0:0:
429,99,23718,6,0,P|368:113|301:128,1,131.040003199219,2|0,1:2|1:0,0:0:0:0:
191,35,24192,1,2,0:0:0:0:
296,213,24350,2,0,P|264:204|232:196,1,65.5200015996094,8|0,0:0|0:0,0:0:0:0:
65,117,24666,2,0,P|108:146|107:240,1,131.040003199219,2|0,1:2|1:0,0:0:0:0:
83,361,25139,2,0,P|114:352|146:344,1,65.5200015996094,2|0,0:0|1:0,0:0:0:0:
232,196,25455,1,0,0:0:0:0:
341,384,25613,2,0,P|309:375|277:367,1,65.5200015996094,10|0,2:0|0:0,0:0:0:0:
412,200,25929,5,0,1:2:0:0:
412,200,26244,2,0,P|375:247|286:229,1,131.040003199219,2|0,1:2|1:0,0:0:0:0:
179,154,26718,2,0,P|184:186|190:218,1,65.5200015996094,2|0,0:0|1:2,0:0:0:0:
136,343,27034,1,2,0:0:0:0:
285,167,27192,2,0,P|274:228|260:306,1,131.040003199219,2|0,1:2|1:0,0:0:0:0:
412,200,27666,2,0,P|406:167|400:135,1,65.5200015996094,2|0,0:0|1:0,0:0:0:0:
354,303,27981,1,10,0:0:0:0:
392,54,28139,1,10,0:0:0:0:
512,266,28297,1,0,0:0:0:0:
285,167,28455,1,0,1:2:0:0:
285,167,28771,6,0,P|253:174|221:183,1,65.5200015996094,2|0,1:2|0:0,0:0:0:0:
132,61,29087,2,0,P|163:68|195:77,1,65.5200015996094,2|0,1:2|0:0,0:0:0:0:
311,0,29402,1,2,1:2:0:0:
311,0,29560,2,0,P|316:32|322:64,1,65.5200015996094,2|0,0:0|1:0,0:0:0:0:
258,198,29876,1,2,0:0:0:0:
418,116,30034,1,2,1:2:0:0:
232,59,30192,1,2,2:0:0:0:
394,215,30350,2,0,P|400:182|405:150,1,65.5200015996094,2|0,1:2|0:0,0:0:0:0:
241,224,30666,2,0,P|246:256|252:288,1,65.5200015996094,10|0,2:2|0:0,0:0:0:0:
117,104,30981,6,0,P|85:95|53:87,1,65.5200015996094,0|0,1:2|0:0,0:0:0:0:
0,253,31297,2,0,P|31:244|63:236,1,65.5200015996094,10|0,0:0|0:0,0:0:0:0:
232,126,31613,1,2,1:2:0:0:
160,303,31771,1,0,0:0:0:0:
239,103,31929,1,10,2:2:0:0:
329,303,32087,1,2,0:0:0:0:
116,162,32244,2,0,P|110:194|104:226,1,65.5200015996094,8|2,0:0|0:0,0:0:0:0:
340,137,32560,2,0,P|333:104|328:72,1,65.5200015996094,10|2,0:0|0:0,0:0:0:0:
212,202,32876,1,8,0:3:0:0:
442,94,33034,1,8,0:3:0:0:
241,193,33192,1,10,0:0:0:0:
241,193,33508,6,0,P|262:234|267:276,1,74.6200011386109,6|0,1:2|0:0,0:0:0:0:
57,177,33823,2,0,P|64:140|82:108,1,74.6200011386109,2|0,1:2|0:0,0:0:0:0:
139,310,34139,2,0,P|88:356|-9:359,1,149.240002277222,14|2,0:0|1:2,0:0:0:0:
169,178,34613,2,0,P|225:185|260:206,1,74.6200011386109,8|2,0:0|1:2,0:0:0:0:
293,371,34929,1,8,0:0:0:0:
39,242,35087,2,0,P|40:171|88:103,2,149.240002277222,2|10|2,1:2|0:0|0:0,0:0:0:0:
169,384,35876,1,8,0:0:0:0:
240,163,36034,6,0,P|202:164|168:177,1,74.6200011386109,6|0,1:2|0:0,0:0:0:0:
384,128,36350,2,0,P|401:95|407:58,1,74.6200011386109,2|0,1:2|0:0,0:0:0:0:
330,264,36666,2,0,P|350:295|379:319,1,74.6200011386109,10|0,0:0|0:0,0:0:0:0:
280,82,36981,1,2,0:0:0:0:
178,256,37139,1,8,0:0:0:0:
384,128,37297,2,0,P|421:129|455:142,1,74.6200011386109,2|8,1:2|0:0,0:0:0:0:
452,302,37613,2,0,P|417:315|380:316,1,74.6200011386109,2|0,1:2|0:0,0:0:0:0:
174,135,37929,1,8,0:0:0:0:
401,220,38087,2,0,B|353:201|309:232|330:246|286:283|232:266,1,186.550002846527,8|0,0:0|0:0,0:0:0:0:
171,219,38560,6,0,P|152:251|145:287,1,74.6200011386109,6|0,1:2|0:0,0:0:0:0:
325,141,38876,2,0,P|317:104|299:72,1,74.6200011386109,2|0,1:2|0:0,0:0:0:0:
321,293,39192,2,0,P|380:335|470:324,1,149.240002277222,14|2,0:0|0:0,0:0:0:0:
396,126,39666,2,0,P|358:127|324:140,1,74.6200011386109,8|2,0:0|1:2,0:0:0:0:
501,229,39981,1,8,0:0:0:0:
285,56,40139,2,0,P|239:101|243:214,2,149.240002277222,2|10|2,1:2|0:0|0:0,0:0:0:0:
387,220,40929,1,8,0:0:0:0:
204,94,41087,2,0,P|166:95|132:108,1,74.6200011386109,6|0,1:2|0:0,0:0:0:0:
304,261,41402,2,0,P|321:228|327:191,1,74.6200011386109,2|0,1:2|1:0,0:0:0:0:
105,265,41718,2,0,P|125:296|154:320,1,74.6200011386109,10|0,0:0|0:0,0:0:0:0:
210,199,42034,1,2,0:0:0:0:
210,199,42350,5,10,0:0:0:0:
296,363,42508,1,8,0:0:0:0:
240,114,42666,1,8,0:3:0:0:
154,320,42823,1,8,0:3:0:0:
226,41,42981,1,10,0:0:0:0:
226,41,43297,1,8,0:0:0:0:
354,297,43455,1,10,0:0:0:0:
119,108,43613,6,0,P|111:155|102:202,1,83.7199971895753,4|0,1:2|0:0,0:0:0:0:
192,352,43929,1,2,1:2:0:0:
0,260,44087,1,2,0:0:0:0:
205,155,44244,2,0,P|213:202|222:249,1,83.7199971895753,2|8,1:2|0:0,0:0:0:0:
122,384,44560,1,2,1:2:0:0:
332,285,44718,1,2,0:0:0:0:
120,210,44876,2,0,P|113:251|105:292,1,83.7199971895753,10|0,0:0|1:0,0:0:0:0:
146,364,45113,1,2,1:2:0:0:
146,364,45192,2,0,P|190:354|235:344,1,83.7199971895753,8|0,0:0|0:0,0:0:0:0:
286,173,45508,2,0,P|245:163|204:154,1,83.7199971895753,8|8,0:3|0:0,0:0:0:0:
178,148,45744,1,8,0:3:0:0:
178,148,45823,1,8,0:3:0:0:
314,325,45981,1,8,0:0:0:0:
354,71,46139,6,0,P|313:80|272:89,1,83.7199971895753,6|0,1:2|0:0,0:0:0:0:
141,308,46455,1,10,0:0:0:0:
211,20,46613,1,0,1:0:0:0:
364,288,46771,1,10,0:0:0:0:
294,0,46929,1,2,1:2:0:0:
179,288,47087,1,8,0:0:0:0:
433,91,47244,1,2,1:2:0:0:
143,197,47402,1,8,0:0:0:0:
488,28,47560,1,6,1:2:0:0:
488,28,47876,6,0,P|480:78|471:128,1,83.7199971895753,10|0,2:2|0:0,0:0:0:0:
321,384,48192,1,10,0:0:0:0:
397,0,48350,1,10,0:0:0:0:
461,384,48508,1,10,0:0:0:0:
322,83,48666,6,0,B|244:48|179:117|215:132|144:206|60:162,1,283.91999826709,0|0,3:0|3:0,0:0:0:0:
402,384,49771,6,0,B|428:360|452:338|452:338|425:286|387:198,1,185.640001133057,6|0,1:2|0:0,0:0:0:0:
194,291,50244,2,0,P|244:303|307:318,1,92.8200005665283,10|0,0:0|0:0,0:0:0:0:
425,141,50560,1,2,1:2:0:0:
223,53,50718,2,0,P|235:110|246:158,1,92.8200005665283,2|8,0:0|0:0,0:0:0:0:
146,379,51034,2,0,P|98:350|121:219,1,185.640001133057,2|0,0:0|0:0,0:0:0:0:
284,312,51508,2,0,P|239:301|194:291,1,92.8200005665283,10|0,0:0|0:0,0:0:0:0:
87,141,51824,1,2,1:2:0:0:
289,53,51982,2,0,P|279:98|269:143,1,92.8200005665283,2|8,0:0|0:0,0:0:0:0:
452,363,52297,6,0,P|433:274|408:162,1,185.640001133057,2|0,2:0|0:0,0:0:0:0:
211,318,52771,2,0,P|256:328|301:339,1,92.8200005665283,10|2,0:0|0:0,0:0:0:0:
198,89,53087,2,0,P|152:99|107:110,1,92.8200005665283,2|0,1:2|0:0,0:0:0:0:
274,240,53402,1,10,0:0:0:0:
373,21,53560,2,0,P|327:10|282:0,1,92.8200005665283,2|0,0:0|1:0,0:0:0:0:
411,223,53876,1,2,0:0:0:0:
246,92,54034,2,0,P|151:115|50:139,1,185.640001133057,10|0,0:0|1:0,0:0:0:0:
245,336,54508,1,2,2:0:0:0:
245,336,54587,1,2,0:0:0:0:
245,336,54666,1,8,0:0:0:0:
414,145,54823,6,0,B|361:128|315:162|341:175|300:215|248:202,1,185.640001133057,6|2,1:2|0:0,0:0:0:0:
412,270,55297,1,10,0:0:0:0:
260,112,55455,1,2,0:0:0:0:
260,112,55534,1,2,0:0:0:0:
260,112,55613,2,0,P|214:122|169:133,1,92.8200005665283,2|0,1:2|0:0,0:0:0:0:
259,299,55929,1,10,0:0:0:0:
87,71,56087,2,0,P|77:116|67:161,1,92.8200005665283,2|0,0:0|1:0,0:0:0:0:
238,329,56402,2,0,P|228:284|218:239,1,92.8200005665283,2|8,0:0|2:0,0:0:0:0:
382,63,56718,2,0,P|372:108|362:153,1,92.8200005665283,2|0,0:0|1:0,0:0:0:0:
450,311,57034,1,2,0:0:0:0:
247,213,57192,1,8,0:0:0:0:
464,118,57350,6,0,B|490:142|514:164|514:164|487:216|449:304,1,185.640001133057,6|2,1:2|0:0,0:0:0:0:
219,102,57823,1,10,0:0:0:0:
413,179,57981,1,2,0:0:0:0:
198,281,58139,1,2,1:2:0:0:
464,118,58297,1,2,0:0:0:0:
319,363,58455,2,0,P|309:318|299:273,1,92.8200005665283,10|0,0:0|0:0,0:0:0:0:
238,0,58771,5,14,0:0:0:0:
185,333,58929,1,2,1:2:0:0:
344,0,59087,1,8,0:0:0:0:
397,333,59245,1,2,1:2:0:0:
236,33,59402,2,0,L|226:96,3,46.4100002832642,8|8|10|8,0:0|0:0|0:0|0:0,0:0:0:0:
363,157,59718,1,8,0:0:0:0:
363,157,59797,1,8,0:0:0:0:
363,157,59876,6,0,B|310:140|264:174|290:187|249:227|197:214,1,185.640001133057,6|0,1:2|0:0,0:0:0:0:
340,356,60350,2,0,P|350:311|360:266,1,92.8200005665283,10|0,0:0|0:0,0:0:0:0:
206,110,60666,1,2,1:2:0:0:
152,342,60823,2,0,P|197:330|242:321,1,92.8200005665283,2|8,0:0|0:0,0:0:0:0:
177,23,61139,2,0,P|118:51|120:175,1,185.640001133057,2|0,2:0|0:0,0:0:0:0:
360,265,61613,2,0,P|350:220|340:175,1,92.8200005665283,10|0,0:0|0:0,0:0:0:0:
418,2,61929,1,2,1:2:0:0:
264,240,62087,2,0,P|218:228|173:219,1,92.8200005665283,2|8,0:0|0:0,0:0:0:0:
435,31,62402,6,0,P|452:123|472:226,1,185.640001133057,2|0,2:0|0:0,0:0:0:0:
307,384,62876,2,0,P|317:339|327:294,1,92.8200005665283,10|0,0:0|0:0,0:0:0:0:
153,128,63192,2,0,P|163:173|173:218,1,92.8200005665283,2|0,1:2|0:0,0:0:0:0:
87,370,63508,1,10,0:0:0:0:
254,148,63666,2,0,P|299:157|344:168,1,92.8200005665283,2|0,0:0|1:0,0:0:0:0:
202,352,63981,1,2,0:0:0:0:
90,89,64139,2,0,P|44:98|0:109,1,92.8200005665283,8|0,0:0|0:0,0:0:0:0:
156,279,64455,1,0,1:0:0:0:
227,17,64613,1,0,2:0:0:0:
164,250,64771,1,10,0:0:0:0:
361,50,64929,6,0,P|437:41|505:143,1,185.640001133057,6|2,1:2|0:0,0:0:0:0:
380,344,65402,2,0,B|354:320|330:298|330:298|357:246|395:158,1,185.640001133057,10|0,2:2|1:0,0:0:0:0:
241,332,65876,1,0,0:0:0:0:
453,249,66034,1,8,2:0:0:0:
275,127,66192,1,2,0:0:0:0:
380,344,66350,2,0,L|439:330,1,46.4100002832642,10|8,0:0|0:0,0:0:0:0:
504,117,66508,2,0,L|445:103,1,46.4100002832642,10|8,0:0|0:0,0:0:0:0:
326,236,66666,1,10,0:0:0:0:
453,19,66823,1,14,0:0:0:0:
453,19,67139,1,10,0:0:0:0:
380,344,67297,1,8,0:0:0:0:
268,24,67455,6,0,B|215:7|169:41|195:54|154:94|102:81,1,185.640001133057,6|0,1:2|1:0,0:0:0:0:
263,171,67929,2,0,P|308:159|353:150,1,92.8200005665283,8|2,0:0|0:0,0:0:0:0:
421,96,68166,1,2,0:0:0:0:
421,96,68244,2,0,P|386:142|401:226,2,139.230000849792,0|2|2,1:0|0:0|0:0,0:0:0:0:
248,321,68876,5,10,0:0:0:0:
334,74,69034,1,8,0:0:0:0:
334,74,69113,1,8,0:0:0:0:
334,74,69192,2,0,L|345:130,1,46.4100002832642,10|8,0:0|0:0,0:0:0:0:
229,303,69350,1,10,0:0:0:0:
229,303,69429,1,8,0:0:0:0:
229,303,69508,2,0,L|240:247,1,46.4100002832642,8|8,0:0|0:0,0:0:0:0:
139,66,69666,1,10,0:0:0:0:
139,66,69744,1,8,0:0:0:0:
139,66,69823,1,8,0:0:0:0:
316,215,69981,6,0,P|389:212|442:135,2,154.700000944214,8|8|8,0:0|0:0|0:0,0:0:0:0:
380,44,70771,1,8,0:3:0:0:
486,245,70929,2,0,L|476:291,2,46.4100002832642,8|8|8,0:3|0:3|0:3,0:0:0:0:
350,126,71244,6,0,P|303:137|253:149,1,92.8200005665283,14|0,0:0|0:0,0:0:0:0:
24,132,71560,2,0,P|97:116|158:206,1,185.640001133057,14|2,0:0|0:0,0:0:0:0:
80,362,72034,1,10,0:0:0:0:
63,338,72112,1,8,0:0:0:0:
57,311,72191,1,10,0:0:0:0:
66,285,72270,1,8,0:0:0:0:
84,264,72350,2,0,P|110:273|147:284,3,46.4100002832642,8|8|8|8,0:3|0:3|0:3|0:0,0:0:0:0:
187,355,72666,6,0,P|232:344|277:333,1,92.8200005665283,6|0,1:2|0:0,0:0:0:0:
444,229,72981,2,0,P|398:218|353:207,1,92.8200005665283,2|0,1:2|0:0,0:0:0:0:
190,58,73297,2,0,P|209:161|226:251,1,185.640001133057,10|2,0:0|0:0,0:0:0:0:
58,186,73771,2,0,P|67:139|78:78,1,92.8200005665283,10|0,0:0|0:0,0:0:0:0:
201,267,74087,1,8,0:0:0:0:
104,70,74244,2,0,P|95:115|86:161,1,92.8200005665283,0|0,1:0|0:0,0:0:0:0:
37,329,74560,1,10,2:0:0:0:
37,329,74876,1,8,0:0:0:0:
54,307,74954,1,8,0:0:0:0:
77,293,75033,1,8,2:0:0:0:
105,288,75112,1,8,0:0:0:0:
132,295,75192,6,0,P|189:326|274:318,1,139.230000849792,4|0,1:2|0:0,0:0:0:0:
339,336,75508,2,0,P|329:291|319:246,1,92.8200005665283,10|0,0:0|0:0,0:0:0:0:
487,130,75823,2,0,P|477:175|467:220,1,92.8200005665283,2|0,1:2|0:0,0:0:0:0:
338,119,76139,1,8,0:0:0:0:
492,257,76297,2,0,P|502:212|512:167,1,92.8200005665283,2|0,0:0|1:0,0:0:0:0:
387,37,76613,1,2,0:0:0:0:
318,245,76771,2,0,P|272:234|227:224,1,92.8200005665283,8|2,2:0|0:0,0:0:0:0:
116,134,77087,1,0,1:0:0:0:
188,316,77244,1,2,0:0:0:0:
252,125,77402,2,0,P|206:135|161:145,1,92.8200005665283,10|0,0:0|0:0,0:0:0:0:
299,340,77718,5,8,0:2:0:0:
380,43,77876,1,0,1:0:0:0:
396,383,78034,5,10,0:0:0:0:
315,86,78192,1,0,1:0:0:0:
202,297,78350,5,10,0:0:0:0:
283,0,78508,1,0,1:0:0:0:
299,340,78666,5,10,0:0:0:0:
218,43,78824,1,0,1:2:0:0:
90,360,78981,5,8,1:3:0:0:
377,192,79139,1,2,1:2:0:0:
114,42,79297,2,0,P|104:87|94:132,1,92.8200005665283,10|2,0:0|0:0,0:0:0:0:
299,340,79613,1,8,0:0:0:0:
314,306,79691,1,8,0:0:0:0:
315,268,79770,1,8,0:0:0:0:
302,235,79849,1,8,0:0:0:0:
275,209,79929,2,0,P|249:217|216:230,3,46.4100002832642,8|8|8|8,0:0|0:0|0:0|0:0,0:0:0:0:
173,324,80244,6,0,P|134:280|156:181,1,139.230000849792,4|0,1:2|0:0,0:0:0:0:
126,118,80560,2,0,P|173:118|216:138,1,92.8200005665283,10|0,0:0|0:0,0:0:0:0:
394,269,80876,2,0,P|433:225|411:126,1,139.230000849792,2|0,1:2|0:0,0:0:0:0:
444,66,81192,2,0,P|397:66|353:86,1,92.8200005665283,10|0,0:0|0:0,0:0:0:0:
215,248,81508,1,0,1:2:0:0:
215,248,81823,2,0,P|256:267|302:266,1,92.8200005665283,10|0,0:0|0:0,0:0:0:0:
212,61,82139,2,0,P|138:57|89:114,1,139.230000849792,2|0,1:2|0:0,0:0:0:0:
33,150,82455,2,0,P|32:197|53:240,1,92.8200005665283,10|0,0:0|0:0,0:0:0:0:
269,164,82771,1,0,1:2:0:0:
269,164,83087,5,10,0:0:0:0:
151,375,83244,1,8,0:3:0:0:
257,79,83402,1,2,1:2:0:0:
385,315,83559,1,4,0:3:0:0:
152,222,83718,2,0,P|150:176|170:134,1,92.8200005665283,10|0,2:2|0:0,0:0:0:0:
347,0,84034,1,2,1:2:0:0:
43,119,84192,1,8,0:0:0:0:
385,315,84350,2,0,P|386:269|366:227,1,92.8200005665283,10|0,0:0|0:0,0:0:0:0:
170,134,84666,5,8,0:0:0:0:
156,158,84744,1,8,0:0:0:0:
149,185,84823,1,8,0:0:0:0:
148,213,84902,1,8,0:0:0:0:
153,240,84981,1,8,0:0:0:0:
166,265,85059,1,8,0:0:0:0:
173,291,85138,1,8,0:0:0:0:
175,319,85217,1,8,0:0:0:0:
168,346,85297,2,0,P|121:333|71:320,1,92.8200005665283,6|0,1:2|0:0,0:0:0:0:
238,41,85613,5,8,0:0:0:0:
323,384,85771,1,0,1:0:0:0:
341,0,85929,5,8,0:0:0:0:
256,343,86087,1,0,1:0:0:0:
131,17,86244,2,0,P|121:62|111:107,1,92.8200005665283,10|2,2:0|1:2,0:0:0:0:
335,301,86560,5,12,0:0:0:0:
3,168,86718,1,12,0:0:0:0:
313,0,86876,2,0,P|323:45|333:90,1,92.8200005665283,12|0,0:0|0:0,0:0:0:0:
256,236,87192,1,0,1:0:0:0:
445,72,87350,1,0,1:0:0:0:
445,72,87429,1,0,1:0:0:0:
445,72,87508,2,0,P|435:117|425:162,1,92.8200005665283,8|8,0:3|0:3,0:0:0:0:
459,373,87823,5,12,0:0:0:0:
333,90,87981,1,8,0:0:0:0:
333,90,88297,2,0,B|280:73|234:107|260:120|219:160|167:147,1,185.640001133057,2|10,1:3|0:0,0:0:0:0:
0,231,88771,6,0,B|81:180|153:251|107:288|184:340|257:304,1,298.480004554443,10|0,0:0|0:0,0:0:0:0:
