osu file format v14

[General]
AudioFilename: audio.mp3
AudioLeadIn: 0
PreviewTime: 49613
Countdown: 0
SampleSet: Soft
StackLeniency: 0.7
Mode: 0
LetterboxInBreaks: 0
WidescreenStoryboard: 0

[Editor]
DistanceSpacing: 0.5
BeatDivisor: 4
GridSize: 16
TimelineZoom: 1.3

[Metadata]
Title:Torch of Liberty (TV Size)
TitleUnicode:Torch of Liberty (TV Size)
Artist:KANA-BOON
ArtistUnicode:KANA-BOON
Creator:Kudosu
Version:Extra
Source:炎炎ノ消防隊 弐ノ章
Tags:japanese anime op opening fire force enen enn enn no shouboutai season 2 two jrock j-rock rock nymphe sotarks kiyoshi guarden chiga nexusqi soop so0p
BeatmapID:2631274
BeatmapSetID:1266045

[Difficulty]
HPDrainRate:6
CircleSize:4.1
OverallDifficulty:9
ApproachRate:9.2
SliderMultiplier:1.7
SliderTickRate:1

[Events]
//Background and Video events
0,0,"bg.jpg",0,0
Video,141,"video.avi"
//Break Periods
//Storyboard Layer 0 (Background)
//Storyboard Layer 1 (Fail)
//Storyboard Layer 2 (Pass)
//Storyboard Layer 3 (Foreground)
//Storyboard Layer 4 (Overlay)
//Storyboard Sound Samples

[TimingPoints]
666,315.789473684211,4,2,1,65,1,0
666,-111.111111111111,4,2,1,65,0,0
3192,-100,4,2,1,75,0,0
13297,-133.333333333333,4,2,1,55,0,0
15823,-133.333333333333,4,2,1,65,0,0
23402,-133.333333333333,4,2,1,65,0,0
33508,-125,4,2,1,65,0,0
42981,-125,4,2,1,65,0,0
43613,-111.111111111111,4,2,1,65,0,0
46139,-100,4,2,1,75,0,0
48666,-100,4,2,1,65,0,0
49771,-95.2380952380952,4,2,1,85,0,0
69981,-133.333333333333,4,2,1,70,0,0
72034,-105.263157894737,4,2,1,70,0,0
72666,-95.2380952380954,4,2,1,80,0,0
75192,-95.2380952380954,4,2,1,85,0,0
88771,-222.222222222222,4,2,1,70,0,0
88850,-222.222222222222,4,2,1,5,0,0

[Colours]
Combo1 : 255,242,79
Combo2 : 68,221,253
Combo3 : 236,137,47

[HitObjects]
141,77,666,6,0,L|126:160,1,76.4999976654053,4|2,1:2|0:0,0:0:0:0:
62,8,981,1,0,1:0:0:0:
239,132,1139,2,0,P|322:117|407:104,1,152.999995330811,2|0,0:0|0:0,0:0:0:0:
490,157,1613,2,0,L|503:72,1,76.4999976654053,2|0,1:2|0:0,0:0:0:0:
408,234,1929,5,10,0:0:0:0:
408,234,2008,1,8,0:0:0:0:
408,234,2087,2,0,L|401:196,1,38.2499988327027,8|8,0:0|0:0,0:0:0:0:
504,314,2244,1,8,0:0:0:0:
504,314,2323,1,8,0:0:0:0:
504,314,2402,2,0,L|513:250,1,38.2499988327027,8|8,0:0|0:0,0:0:0:0:
332,365,2560,1,10,0:0:0:0:
48,144,3192,6,0,P|100:112|189:138,1,127.5,6|0,1:2|0:0,0:0:0:0:
244,84,3508,2,0,P|255:30|238:-2,1,85,10|0,0:0|0:0,0:0:0:0:
320,158,3823,1,0,1:0:0:0:
175,41,3981,1,2,1:2:0:0:
122,198,4139,2,0,L|139:308,1,85,10|0,0:0|0:0,0:0:0:0:
0,347,4455,6,0,B|81:327|77:403|162:377,1,170,2|8,1:2|0:0,0:0:0:0:
345,274,4929,1,2,0:0:0:0:
256,217,5087,2,0,L|240:311,1,85,0|0,1:0|0:0,0:0:0:0:
423,160,5402,2,0,L|438:254,1,85,10|0,2:0|0:0,0:0:0:0:
307,83,5718,6,0,P|255:51|166:77,1,127.5,2|0,1:2|0:0,0:0:0:0:
116,125,6034,2,0,P|108:82|96:31,1,85,10|0,0:0|0:0,0:0:0:0:
227,178,6350,1,2,1:2:0:0:
126,247,6508,2,0,P|77:238|31:231,1,85,2|8,1:2|0:0,0:0:0:0:
247,321,6823,6,0,B|286:279|337:286|337:286|354:315|404:315,1,170,2|0,0:0|0:0,0:0:0:0:
512,280,7297,2,0,L|498:363,1,85,10|0,0:2|0:2,0:0:0:0:
393,142,7613,2,0,L|410:252,1,85,2|0,1:2|1:2,0:0:0:0:
328,69,7929,1,10,0:0:0:0:
488,186,8087,1,2,0:0:0:0:
296,244,8244,6,0,P|232:233|161:222,1,127.5,4|0,1:2|0:0,0:0:0:0:
70,187,8560,2,0,P|77:230|86:289,1,85,10|0,0:0|0:0,0:0:0:0:
158,140,8876,1,0,1:0:0:0:
2,254,9034,1,2,1:2:0:0:
148,384,9192,2,0,L|161:300,1,85,10|0,0:0|0:0,0:0:0:0:
24,99,9508,6,0,B|87:88|87:88|122:107|122:107|193:96,1,170,2|8,1:2|0:0,0:0:0:0:
328,157,9981,1,2,0:0:0:0:
243,270,10139,2,0,L|229:186,1,85,0|0,1:0|0:0,0:0:0:0:
433,118,10455,2,0,L|419:201,1,85,10|0,2:0|0:0,0:0:0:0:
299,325,10771,6,0,L|156:302,1,127.5,0|0,1:2|0:0,0:0:0:0:
114,366,11087,2,0,P|161:387|210:378,1,85,10|0,0:0|0:0,0:0:0:0:
35,214,11402,2,0,L|21:297,1,85,2|2,1:2|0:0,0:0:0:0:
147,193,11718,1,10,0:0:0:0:
58,42,11876,2,0,L|71:125,1,85,2|0,2:0|1:0,0:0:0:0:
223,261,12192,1,10,0:0:0:0:
340,98,12350,5,14,0:0:0:0:
326,314,12508,1,2,0:0:0:0:
237,45,12666,1,10,0:0:0:0:
411,211,12823,2,0,L|494:197,1,85,8|8,0:3|0:3,0:0:0:0:
249,337,13139,1,8,0:0:0:0:
249,337,13218,1,8,0:0:0:0:
249,337,13297,6,0,L|162:323,1,63.7500024318696,14|0,0:0|0:0,0:0:0:0:
96,380,13613,2,0,P|86:315|75:253,1,127.500004863739,2|0,0:0|0:0,0:0:0:0:
144,196,14087,2,0,P|92:162|30:171,1,127.500004863739,2|0,0:0|0:0,0:0:0:0:
190,104,14560,6,0,P|251:112|303:78,1,127.500004863739,2|2,1:2|1:2,0:0:0:0:
303,77,15034,1,2,0:0:0:0:
371,167,15192,2,0,L|358:246,1,63.7500024318696,0|0,1:0|1:0,0:0:0:0:
464,120,15508,1,10,0:0:0:0:
267,276,15823,6,0,B|220:268|220:268|186:286|186:286|137:278,1,127.500004863739,6|0,1:2|1:0,0:0:0:0:
69,212,16297,1,2,0:0:0:0:
165,128,16455,2,0,L|152:207,1,63.7500024318696,0|0,1:0|0:0,0:0:0:0:
54,45,16771,2,0,L|64:108,1,63.7500024318696,2|0,1:2|0:0,0:0:0:0:
244,182,17087,6,0,P|298:148|372:175,1,127.500004863739,2|0,1:2|1:0,0:0:0:0:
501,68,17560,1,2,0:0:0:0:
407,22,17718,2,0,L|419:101,1,63.7500024318696,0|0,1:0|0:0,0:0:0:0:
310,233,18034,2,0,L|234:221,1,63.7500024318696,2|0,1:2|0:0,0:0:0:0:
371,295,18350,5,0,1:0:0:0:
144,147,18666,2,0,P|155:222|167:298,1,127.500004863739,2|2,1:2|1:2,0:0:0:0:
62,181,19139,2,0,P|57:124|74:96,1,63.7500024318696,2|0,0:0|1:0,0:0:0:0:
10,32,19455,1,2,0:0:0:0:
138,56,19613,6,0,L|213:44,1,63.7500024318696,2|0,1:2|0:0,0:0:0:0:
314,9,19929,2,0,L|302:84,1,63.7500024318696,2|0,1:2|0:0,0:0:0:0:
398,158,20244,2,0,L|473:146,1,63.7500024318696,2|2,1:2|0:0,0:0:0:0:
285,204,20560,2,0,L|209:192,1,63.7500024318696,2|0,1:2|0:0,0:0:0:0:
382,279,20876,5,0,1:0:0:0:
217,384,21192,2,0,L|205:308,1,63.7500024318696,2|0,1:2|0:0,0:0:0:0:
41,234,21508,1,2,1:2:0:0:
121,201,21666,2,0,P|131:234|122:271,1,63.7500024318696,2|0,0:0|1:0,0:0:0:0:
39,132,21981,1,2,0:0:0:0:
195,164,22139,6,0,L|275:150,1,63.7500024318696,2|0,1:2|0:0,0:0:0:0:
139,41,22455,2,0,L|214:52,1,63.7500024318696,2|2,1:2|0:0,0:0:0:0:
396,2,22771,1,2,1:2:0:0:
282,136,22929,1,10,0:0:0:0:
422,214,23087,2,0,L|407:126,1,63.7500024318696,10|0,0:0|0:0,0:0:0:0:
284,296,23402,6,0,P|219:266|180:280,1,95.6250036478044,4|0,1:2|0:0,0:0:0:0:
121,355,23718,2,0,P|104:280|88:206,1,127.500004863739,2|0,1:2|1:0,0:0:0:0:
193,143,24192,1,2,0:0:0:0:
74,73,24350,2,0,P|36:79|-13:88,1,63.7500024318696,8|0,0:0|0:0,0:0:0:0:
181,22,24666,6,0,L|329:44,1,127.500004863739,2|0,1:2|1:0,0:0:0:0:
415,16,25139,1,2,0:0:0:0:
308,192,25297,2,0,L|298:129,1,63.7500024318696,0|0,1:0|0:0,0:0:0:0:
462,252,25613,2,0,L|472:189,1,63.7500024318696,10|0,2:0|0:0,0:0:0:0:
354,309,25929,6,0,P|288:274|246:284,1,95.6250036478044,0|0,1:2|0:0,0:0:0:0:
160,377,26244,2,0,P|237:362|311:353,1,127.500004863739,2|0,1:2|1:0,0:0:0:0:
170,244,26718,1,2,0:0:0:0:
262,183,26876,2,0,L|252:246,1,63.7500024318696,0|2,1:2|0:0,0:0:0:0:
92,148,27192,6,0,B|84:100|84:100|103:64|103:64|96:15,1,127.500004863739,2|0,1:2|1:0,0:0:0:0:
210,69,27666,2,0,L|300:53,1,63.7500024318696,2|0,0:0|1:0,0:0:0:0:
489,160,27981,1,10,0:0:0:0:
403,20,28139,2,0,L|388:104,1,63.7500024318696,10|0,0:0|0:0,0:0:0:0:
512,271,28455,6,0,P|462:238|406:250,1,95.6250036478044,0|0,1:2|0:0,0:0:0:0:
334,213,28771,2,0,L|348:301,1,63.7500024318696,2|0,1:2|0:0,0:0:0:0:
246,188,29087,2,0,B|180:171|183:232|114:211,1,127.500004863739,2|2,1:2|1:2,0:0:0:0:
0,186,29560,2,0,L|13:270,1,63.7500024318696,2|0,0:0|1:0,0:0:0:0:
129,135,29876,5,2,0:0:0:0:
47,11,30034,2,0,L|36:86,1,63.7500024318696,2|2,1:2|2:0,0:0:0:0:
230,188,30350,2,0,P|269:181|305:176,1,63.7500024318696,2|0,1:2|0:0,0:0:0:0:
75,273,30666,2,0,P|36:266|0:261,1,63.7500024318696,10|0,2:2|0:0,0:0:0:0:
206,325,30981,6,0,L|319:307,1,95.6250036478044,0|0,1:2|0:0,0:0:0:0:
351,373,31297,2,0,P|317:388|277:385,1,63.7500024318696,10|0,0:0|0:0,0:0:0:0:
404,203,31613,2,0,L|394:266,1,63.7500024318696,2|0,1:2|0:0,0:0:0:0:
238,139,31929,2,0,L|248:202,1,63.7500024318696,10|2,2:2|0:0,0:0:0:0:
358,67,32244,5,8,0:0:0:0:
123,155,32402,1,2,0:0:0:0:
404,185,32560,5,10,0:0:0:0:
72,32,32718,1,2,0:0:0:0:
288,279,32876,5,8,0:3:0:0:
374,265,33034,1,8,0:3:0:0:
460,250,33192,1,10,0:0:0:0:
199,362,33508,6,0,P|189:297|176:219,2,136,6|2|14,1:2|1:2|0:0,0:0:0:0:
100,250,34455,2,0,P|93:201|113:175,1,68,2|8,1:2|0:0,0:0:0:0:
261,211,34771,2,0,L|361:195,1,102,2|0,1:2|0:0,0:0:0:0:
416,261,35087,2,0,P|387:278|346:277,1,68,2|0,1:2|0:0,0:0:0:0:
456,113,35402,2,0,L|442:199,1,68,10|0,0:0|0:0,0:0:0:0:
352,34,35718,2,0,L|363:102,1,68,2|8,0:0|0:0,0:0:0:0:
252,206,36034,6,0,P|193:170|116:194,2,136,6|2|10,1:2|1:2|0:0,0:0:0:0:
99,289,36981,2,0,L|166:278,1,68,2|8,0:0|0:0,0:0:0:0:
276,317,37297,2,0,L|265:384,1,68,2|8,1:2|0:0,0:0:0:0:
377,234,37613,2,0,L|392:320,1,68,2|0,1:2|0:0,0:0:0:0:
272,207,37929,1,8,0:0:0:0:
407,383,38087,1,8,0:0:0:0:
474,174,38560,6,0,L|447:8,2,136,6|2|14,1:2|1:2|0:0,0:0:0:0:
359,67,39508,2,0,L|372:-19,1,68,2|8,0:0|0:0,0:0:0:0:
275,113,39823,2,0,P|228:82|160:103,1,102,2|0,1:2|0:0,0:0:0:0:
136,174,40139,2,0,L|203:163,1,68,2|0,1:2|0:0,0:0:0:0:
293,288,40455,2,0,L|303:220,1,68,10|0,0:0|0:0,0:0:0:0:
202,340,40771,2,0,L|191:272,1,68,2|8,0:0|0:0,0:0:0:0:
368,358,41087,6,0,P|427:322|504:346,2,136,6|2|10,1:2|1:2|0:0,0:0:0:0:
307,204,42034,2,0,L|319:124,1,68,2|0,0:0|0:0,0:0:0:0:
207,57,42350,2,0,L|217:124,1,68,10|8,0:0|0:0,0:0:0:0:
404,15,42666,2,0,L|393:82,1,68,8|8,0:3|0:3,0:0:0:0:
102,27,42981,5,10,0:0:0:0:
312,108,43139,1,2,0:0:0:0:
29,122,43297,5,8,0:0:0:0:
385,13,43455,1,10,0:0:0:0:
182,234,43613,6,0,L|169:148,1,76.4999976654053,4|0,1:2|0:0,0:0:0:0:
213,54,43929,1,2,1:2:0:0:
96,182,44087,1,2,0:0:0:0:
264,288,44244,2,0,B|337:270|334:338|410:314,1,152.999995330811,2|2,1:2|1:2,0:0:0:0:
278,375,44718,1,2,0:0:0:0:
374,156,44876,6,0,L|389:250,1,76.4999976654053,10|0,0:0|0:0,0:0:0:0:
501,82,45192,2,0,L|485:176,1,76.4999976654053,8|0,0:0|0:0,0:0:0:0:
293,68,45508,2,0,P|326:41|384:48,1,76.4999976654053,8|8,0:3|0:0,0:0:0:0:
366,43,45744,1,8,0:3:0:0:
372,49,45823,1,8,0:3:0:0:
258,198,45981,1,8,0:0:0:0:
146,152,46139,5,6,1:2:0:0:
371,257,46297,1,0,0:0:0:0:
97,284,46455,5,10,0:0:0:0:
417,147,46613,1,0,1:0:0:0:
293,31,46771,5,10,0:0:0:0:
277,113,46929,1,2,1:2:0:0:
237,318,47087,5,8,0:0:0:0:
81,288,47244,1,2,1:2:0:0:
336,183,47402,1,8,0:0:0:0:
6,48,47560,5,6,1:2:0:0:
96,62,47718,1,2,0:0:0:0:
187,76,47876,1,10,2:2:0:0:
378,47,48192,5,10,0:0:0:0:
197,215,48350,1,10,0:0:0:0:
433,287,48508,1,10,0:0:0:0:
332,194,48666,5,0,3:0:0:0:
336,183,48981,1,0,3:0:0:0:
338,172,49297,1,0,3:0:0:0:
340,161,49613,1,0,3:0:0:0:
308,342,49771,6,0,B|223:321|227:400|138:373,1,178.499994552612,6|0,1:2|0:0,0:0:0:0:
232,155,50244,2,0,L|247:249,1,89.2499972763062,10|0,0:0|0:0,0:0:0:0:
126,65,50560,1,2,1:2:0:0:
332,194,50718,1,2,0:0:0:0:
130,297,50876,1,8,0:0:0:0:
312,92,51034,1,2,0:0:0:0:
321,87,51113,1,2,0:0:0:0:
331,83,51192,6,0,L|465:104,1,133.874995914459,2|0,1:2|0:0,0:0:0:0:
512,177,51508,2,0,P|455:189|421:178,1,89.2499972763062,10|0,0:0|0:0,0:0:0:0:
512,38,51823,1,2,1:2:0:0:
332,194,51981,2,0,L|345:282,1,89.2499972763062,2|8,0:0|0:0,0:0:0:0:
62,190,52297,1,2,2:0:0:0:
68,182,52376,1,2,0:0:0:0:
76,176,52455,6,0,B|116:131|170:139|170:139|188:169|240:169,1,178.499994552612,0|10,1:0|0:0,0:0:0:0:
435,51,52929,1,2,0:0:0:0:
302,0,53087,2,0,L|315:88,1,89.2499972763062,2|0,1:2|0:0,0:0:0:0:
464,178,53402,1,10,0:0:0:0:
233,261,53560,6,0,L|144:247,1,89.2499972763062,2|0,0:0|1:0,0:0:0:0:
333,171,53876,1,2,0:0:0:0:
177,341,54034,1,10,0:0:0:0:
60,178,54192,1,0,0:0:0:0:
310,331,54350,2,0,L|398:317,1,89.2499972763062,0|2,1:0|2:0,0:0:0:0:
233,162,54666,1,8,0:0:0:0:
458,44,54823,6,0,L|427:237,1,178.499994552612,6|2,1:2|0:0,0:0:0:0:
326,63,55297,1,10,0:0:0:0:
512,205,55455,1,2,0:0:0:0:
312,310,55613,2,0,L|205:293,1,89.2499972763062,2|0,1:2|0:0,0:0:0:0:
378,191,55929,1,10,0:0:0:0:
149,348,56087,6,0,L|134:259,1,89.2499972763062,2|0,0:0|1:0,0:0:0:0:
395,96,56402,2,0,L|381:184,1,89.2499972763062,2|8,0:0|2:0,0:0:0:0:
202,10,56718,2,0,L|215:98,1,89.2499972763062,2|0,0:0|1:0,0:0:0:0:
321,0,57034,1,2,0:0:0:0:
96,136,57192,1,8,0:0:0:0:
327,263,57350,6,0,B|412:242|408:321|497:294,1,178.499994552612,6|2,1:2|0:0,0:0:0:0:
244,195,57823,1,10,0:0:0:0:
357,345,57981,1,2,0:0:0:0:
388,146,58139,1,2,1:2:0:0:
242,298,58297,1,2,0:0:0:0:
512,169,58455,2,0,L|498:80,1,89.2499972763062,10|0,0:0|0:0,0:0:0:0:
267,7,58771,5,14,0:0:0:0:
428,234,58929,1,2,1:2:0:0:
512,61,59087,1,8,0:0:0:0:
300,195,59244,1,2,1:2:0:0:
506,350,59402,2,0,L|514:294,1,44.6249986381531,8|8,0:0|0:0,0:0:0:0:
349,384,59560,1,10,0:0:0:0:
349,384,59639,1,8,0:0:0:0:
349,384,59718,2,0,L|340:328,1,44.6249986381531,8|8,0:0|0:0,0:0:0:0:
201,285,59876,6,0,B|134:273|134:273|98:293|98:293|23:281,1,178.499994552612,6|0,1:2|0:0,0:0:0:0:
194,89,60350,2,0,L|209:187,1,89.2499972763062,10|0,0:0|0:0,0:0:0:0:
106,23,60666,1,2,1:2:0:0:
303,130,60823,1,2,0:0:0:0:
93,256,60981,1,8,0:0:0:0:
274,52,61139,1,2,2:0:0:0:
283,47,61218,1,2,0:0:0:0:
293,43,61297,6,0,L|427:64,1,133.874995914459,0|0,1:0|0:0,0:0:0:0:
501,106,61613,2,0,B|518:63|518:63|497:18,1,89.2499972763062,10|0,0:0|0:0,0:0:0:0:
312,143,61929,1,2,1:2:0:0:
409,300,62087,2,0,L|423:212,1,89.2499972763062,2|8,0:0|0:0,0:0:0:0:
224,305,62402,1,2,2:0:0:0:
216,300,62481,1,2,0:0:0:0:
208,294,62560,6,0,B|159:273|114:257|114:257|92:298|44:287,2,178.499994552612,0|10|2,1:0|0:0|1:2,0:0:0:0:
316,238,63350,1,0,0:0:0:0:
129,360,63508,1,10,0:0:0:0:
220,124,63666,6,0,L|235:222,1,89.2499972763062,2|0,0:0|1:0,0:0:0:0:
256,23,63981,1,2,0:0:0:0:
99,183,64139,1,8,0:0:0:0:
316,238,64297,1,0,0:0:0:0:
120,80,64455,2,0,L|21:95,1,89.2499972763062,0|0,1:0|2:0,0:0:0:0:
260,7,64771,1,10,0:0:0:0:
222,325,64929,6,0,L|193:148,1,178.499994552612,6|2,1:2|0:0,0:0:0:0:
488,347,65402,2,0,B|448:302|394:310|394:310|376:340|324:340,2,178.499994552612,10|0|8,2:2|1:0|2:0,0:0:0:0:
312,234,66192,1,2,0:0:0:0:
487,104,66350,1,10,0:0:0:0:
484,120,66428,1,8,0:0:0:0:
481,137,66508,1,10,0:0:0:0:
479,153,66586,1,8,0:0:0:0:
476,170,66665,1,10,0:0:0:0:
344,51,66823,6,0,L|167:78,1,178.499994552612,14|10,0:0|0:0,0:0:0:0:
69,25,67297,1,8,0:0:0:0:
265,166,67455,2,0,B|253:233|253:233|273:269|273:269|261:344,1,178.499994552612,6|0,1:2|1:0,0:0:0:0:
353,201,67929,1,8,0:0:0:0:
170,302,68087,1,2,0:0:0:0:
359,384,68244,2,0,L|494:362,1,133.874995914459,0|2,1:0|0:0,0:0:0:0:
512,285,68560,2,0,P|465:277|426:297,1,89.2499972763062,10|2,0:0|0:0,0:0:0:0:
223,207,68876,5,10,0:0:0:0:
223,207,68955,1,8,0:0:0:0:
223,207,69034,2,0,L|233:143,1,44.6249986381531,8|8,0:0|0:0,0:0:0:0:
133,73,69192,2,0,L|143:136,1,44.6249986381531,10|8,0:0|0:0,0:0:0:0:
324,240,69350,1,10,0:0:0:0:
332,247,69429,1,8,0:0:0:0:
332,247,69508,2,0,L|395:236,1,44.6249986381531,8|8,0:0|0:0,0:0:0:0:
174,321,69666,1,10,0:0:0:0:
174,321,69745,1,8,0:0:0:0:
174,321,69823,2,8,L|110:310,1,44.6249986381531
339,137,69981,6,0,L|321:29,2,106.250004053116,10|8|8,0:0|0:0|0:0,0:0:0:0:
415,241,70771,2,0,L|402:320,1,63.7500024318696,8|8,0:3|0:3,0:0:0:0:
404,312,71008,1,8,0:3:0:0:
403,320,71087,1,8,0:3:0:0:
473,106,71244,6,0,L|485:185,1,63.7500024318696,14|0,0:0|0:0,0:0:0:0:
311,362,71560,2,0,P|256:325|184:341,1,127.500004863739,14|2,0:0|0:0,0:0:0:0:
75,365,72034,6,0,L|67:317,1,40.3749989218712,10|8,0:0|0:0,0:0:0:0:
147,229,72192,1,10,0:0:0:0:
147,229,72271,1,8,0:0:0:0:
147,229,72350,2,0,L|140:268,1,40.3749989218712,8|8,0:3|0:3,0:0:0:0:
59,193,72508,2,0,L|52:153,1,40.3749989218712,8|8,0:3|0:0,0:0:0:0:
234,245,72666,6,0,P|296:199|411:247,2,178.499994552612,6|2|10,1:2|1:2|0:0,0:0:0:0:
448,141,73613,1,2,0:0:0:0:
334,368,73771,2,0,L|318:273,1,89.2499972763062,10|0,0:0|0:0,0:0:0:0:
441,151,74087,1,8,0:0:0:0:
341,75,74244,2,0,L|325:169,1,89.2499972763062,0|0,1:0|0:0,0:0:0:0:
150,51,74560,2,0,L|239:16,1,89.2499972763062,10|8,2:0|0:0,0:0:0:0:
190,200,74876,1,8,0:0:0:0:
190,200,74955,1,8,0:0:0:0:
190,200,75034,2,0,L|152:169,1,44.6249986381531,8|8,2:0|0:0,0:0:0:0:
276,285,75192,6,0,L|410:264,1,133.874995914459,4|0,1:2|0:0,0:0:0:0:
484,222,75508,2,0,B|501:265|501:265|480:310,1,89.2499972763062,10|0,0:0|0:0,0:0:0:0:
314,93,75823,2,0,L|327:181,1,89.2499972763062,2|0,1:2|0:0,0:0:0:0:
467,63,76139,1,8,0:0:0:0:
229,162,76297,6,0,L|134:146,1,89.2499972763062,2|0,0:0|1:0,0:0:0:0:
1,274,76613,2,0,L|89:260,1,89.2499972763062,2|8,0:0|2:0,0:0:0:0:
203,72,76929,1,2,0:0:0:0:
42,179,77087,1,0,1:0:0:0:
205,304,77244,1,2,0:0:0:0:
109,103,77402,2,0,L|124:8,1,89.2499972763062,10|0,0:0|0:0,0:0:0:0:
260,154,77718,6,0,P|298:114|397:131,1,133.874995914459,0|0,1:2|0:0,0:0:0:0:
445,216,78034,2,0,L|350:200,1,89.2499972763062,10|0,0:0|0:0,0:0:0:0:
111,272,78350,2,0,L|124:360,1,89.2499972763062,10|0,0:0|0:0,0:0:0:0:
2,183,78666,1,10,0:0:0:0:
249,295,78823,6,0,L|337:281,1,89.2499972763062,2|0,0:0|1:0,0:0:0:0:
446,341,79139,1,2,0:0:0:0:
281,184,79297,1,10,0:0:0:0:
499,119,79455,1,2,0:0:0:0:
366,41,79613,1,8,0:0:0:0:
366,41,79692,1,8,0:0:0:0:
366,41,79771,2,0,L|373:86,1,44.6249986381531,8|8,0:0|0:0,0:0:0:0:
512,0,79929,1,8,0:0:0:0:
512,0,80008,1,8,0:0:0:0:
512,0,80087,2,0,L|505:44,1,44.6249986381531,8|8,0:0|0:0,0:0:0:0:
251,83,80244,6,0,L|108:60,1,133.874995914459,4|0,1:2|0:0,0:0:0:0:
29,115,80560,2,0,L|15:26,1,89.2499972763062,10|0,0:0|0:0,0:0:0:0:
153,281,80876,2,0,L|166:192,1,89.2499972763062,2|0,1:2|0:0,0:0:0:0:
236,348,81192,1,10,0:0:0:0:
67,211,81350,1,0,0:0:0:0:
272,107,81508,6,0,L|249:249,1,133.874995914459,0|0,1:2|0:0,0:0:0:0:
343,291,81823,2,0,L|431:277,1,89.2499972763062,10|0,0:0|0:0,0:0:0:0:
133,384,82139,2,0,L|44:370,1,89.2499972763062,2|0,1:2|0:0,0:0:0:0:
259,198,82455,1,10,0:0:0:0:
235,329,82613,1,0,0:0:0:0:
6,188,82771,6,0,P|44:148|143:165,1,133.874995914459,0|0,1:2|0:0,0:0:0:0:
209,109,83087,2,0,P|213:56|187:13,1,89.2499972763062,10|0,0:0|0:0,0:0:0:0:
368,195,83402,2,0,P|413:186|456:181,1,89.2499972763062,2|0,1:2|0:0,0:0:0:0:
179,249,83718,2,0,P|134:240|90:235,1,89.2499972763062,10|0,2:2|0:0,0:0:0:0:
311,343,84034,5,2,1:2:0:0:
147,149,84192,1,8,0:0:0:0:
406,300,84350,2,0,L|390:407,1,89.2499972763062,10|0,0:0|0:0,0:0:0:0:
506,245,84666,1,8,0:0:0:0:
506,245,84745,1,8,0:0:0:0:
506,245,84824,2,0,L|513:290,1,44.6249986381531,8|8,0:0|0:0,0:0:0:0:
335,185,84981,1,8,0:0:0:0:
335,185,85060,1,8,0:0:0:0:
335,185,85139,2,0,L|328:230,1,44.6249986381531,8|8,0:0|0:0,0:0:0:0:
457,88,85297,6,0,L|441:-6,1,89.2499972763062,6|0,1:2|0:0,0:0:0:0:
211,251,85613,1,8,0:0:0:0:
430,182,85771,1,0,1:0:0:0:
171,139,85929,5,8,0:0:0:0:
470,294,86087,1,0,1:0:0:0:
310,84,86244,5,10,2:0:0:0:
251,363,86402,1,2,1:2:0:0:
50,73,86560,5,12,0:0:0:0:
321,217,86718,1,12,0:0:0:0:
60,379,86876,1,12,0:0:0:0:
223,258,87192,6,0,L|212:321,1,44.6249986381531,0|0,1:0|1:0,0:0:0:0:
241,250,87350,2,0,L|230:313,1,44.6249986381531,0|0,1:0|1:0,0:0:0:0:
85,163,87508,6,0,L|95:226,1,44.6249986381531,8|8,0:3|2:3,0:0:0:0:
67,155,87666,2,0,L|77:218,1,44.6249986381531,8|8,0:3|2:3,0:0:0:0:
239,72,87823,5,12,0:0:0:0:
70,368,87981,1,8,0:0:0:0:
356,218,88297,2,0,B|396:173|450:181|450:181|468:211|520:211,1,178.499994552612,2|10,1:3|0:0,0:0:0:0:
141,35,88771,6,0,L|165:191,1,152.999995330811,10|0,0:0|0:0,0:0:0:0:
