osu file format v14

[General]
AudioFilename: star.mp3
AudioLeadIn: 0
PreviewTime: 50671
Countdown: 0
SampleSet: Drum
StackLeniency: 0.4
Mode: 0
LetterboxInBreaks: 0
WidescreenStoryboard: 0

[Editor]
DistanceSpacing: 0.7
BeatDivisor: 4
GridSize: 16
TimelineZoom: 3.299999

[Metadata]
Title:Star Marker (TV Size)
TitleUnicode:スターマーカー (TV Size)
Artist:KANA-BOON
ArtistUnicode:KANA-BOON
Creator:-Lian-
Version:PLUS ULTRA!
Source:僕のヒーローアカデミア
Tags:Anime Japanese Jpop pop Boku No Hero My Hero Academia Season 4 第4期 Opening 2 op 2 op2 Lian2002 Pepekcz Arronchu1207 Akane-_ Male Vocals
BeatmapID:2697005
BeatmapSetID:1300115

[Difficulty]
HPDrainRate:6
CircleSize:3.8
OverallDifficulty:8
ApproachRate:9.3
SliderMultiplier:1.8
SliderTickRate:1

[Events]
//Background and Video events
0,0,"bg (2).jpg",0,0
Video,163,"Video.avi"
//Break Periods
//Storyboard Layer 0 (Background)
//Storyboard Layer 1 (Fail)
//Storyboard Layer 2 (Pass)
//Storyboard Layer 3 (Foreground)
//Storyboard Layer 4 (Overlay)
//Storyboard Sound Samples

[TimingPoints]
410,447.761194029851,4,2,1,70,1,0
410,-66.6666666666667,4,2,1,70,0,0
2201,-50,4,2,1,80,0,1
9365,-83.3333333333333,4,2,1,50,0,0
23693,-71.4285714285714,4,2,1,60,0,0
37574,-62.5,4,3,2,60,0,0
38021,-62.5,4,3,2,65,0,0
43171,-58.8235294117647,4,2,1,70,0,0
45186,-62.5,4,2,1,60,0,0
48544,-55.5555555555556,4,2,1,60,0,0
48768,-55.5555555555556,4,2,1,70,0,0
50559,-52.6315789473684,4,2,3,40,0,0
51902,-52.6315789473684,4,2,1,70,0,0
52350,-50,4,2,1,85,0,1
59514,-55.5555555555556,4,2,1,70,0,0
63096,-52.6315789473684,4,2,1,75,0,0
63880,-50,4,2,1,75,0,0
64215,-47.6190476190476,4,2,1,75,0,0
64439,-45.4545454545455,4,2,1,75,0,0
64663,-43.4782608695652,4,2,1,75,0,0
64887,-41.6666666666667,4,2,1,75,0,0
66678,-50,4,2,1,85,0,1
73842,-55.5555555555556,4,2,1,70,0,0
81007,-62.5,4,2,1,75,0,1
82798,-50,4,2,1,80,0,1
84589,449.438202247191,4,2,3,70,1,0
84589,-66.6666666666667,4,2,3,70,0,0
85487,-62.5,4,2,1,70,0,0
85712,-58.8235294117647,4,2,1,70,0,0
85937,-55.5555555555556,4,2,1,70,0,0
86162,-52.6315789473684,4,2,1,70,0,0
86611,-50,4,2,1,70,0,0
87622,-50,4,2,1,5,0,0
87735,-50,4,2,3,40,0,0

[Colours]
Combo1 : 216,177,177
Combo2 : 138,197,255
Combo3 : 255,197,138
Combo4 : 255,255,136
Combo5 : 174,255,174
Combo6 : 255,168,211

[HitObjects]
320,154,410,5,0,1:0:0:0:
132,68,633,1,0,1:0:0:0:
328,14,857,1,0,1:0:0:0:
30,80,1081,5,0,1:0:0:0:
40,120,1193,1,0,1:0:0:0:
49,164,1305,1,0,1:0:0:0:
59,209,1417,1,4,1:1:0:0:
86,232,1641,5,0,1:2:0:0:
106,165,1753,1,0,1:2:0:0:
171,166,1865,1,0,1:2:0:0:
193,228,1977,1,0,1:2:0:0:
140,269,2089,1,0,1:2:0:0:
179,344,2201,6,0,L|285:326,1,90,6|0,3:2|0:0,0:0:0:0:
491,306,2424,1,2,2:2:0:0:
459,267,2536,1,2,3:2:0:0:
409,257,2648,1,0,1:2:0:0:
362,276,2760,2,0,L|378:372,1,90,2|0,0:2|0:2,0:0:0:0:
214,247,2984,6,0,P|251:223|296:220,1,90,2|0,1:2|3:2,0:0:0:0:
376,191,3208,1,0,1:2:0:0:
325,45,3320,2,0,L|309:157,1,90,2|0,3:2|0:2,0:0:0:0:
152,91,3544,2,0,P|210:89|166:172,1,180,2|0,1:2|0:2,0:0:0:0:
94,164,3880,1,0,0:0:0:0:
26,107,3992,6,0,P|8:148|20:206,1,90,2|0,3:3|0:2,0:0:0:0:
218,256,4215,1,2,0:2:0:0:
169,253,4327,1,2,3:2:0:0:
126,283,4439,1,0,1:2:0:0:
115,332,4551,2,0,L|19:348,1,90,2|0,0:2|0:2,0:0:0:0:
218,256,4775,6,0,L|314:272,1,90,2|0,1:2|3:2,0:0:0:0:
374,217,4999,1,0,1:2:0:0:
466,324,5111,2,0,L|370:340,1,90,2|0,3:2|0:2,0:0:0:0:
303,155,5335,2,0,P|351:126|397:126,1,90,2|0,1:2|0:2,0:0:0:0:
247,224,5559,1,0,3:2:0:0:
247,224,5671,1,0,1:2:0:0:
176,168,5783,6,0,B|52:149|52:149|114:102,1,180,6|0,3:2|0:2,0:0:0:0:
125,36,6118,1,0,0:2:0:0:
206,9,6230,2,0,P|249:8|291:27,1,90,2|0,1:2|0:2,0:0:0:0:
95,116,6454,2,0,P|81:167|96:215,1,90,0|0,3:2|1:2,0:0:0:0:
248,342,6678,5,2,3:2:0:0:
203,260,6790,1,0,1:2:0:0:
118,290,6902,2,0,L|22:274,1,90,0|0,3:2|0:2,0:0:0:0:
176,168,7126,2,0,P|221:168|267:192,1,90,2|0,1:2|0:2,0:0:0:0:
459,320,7350,2,0,P|418:339|373:338,1,90,6|0,0:2|0:2,0:0:0:0:
261,186,7574,5,0,1:2:0:0:
328,126,7686,1,0,1:2:0:0:
410,166,7798,2,0,L|395:275,1,90,6|0,1:2|1:2,0:0:0:0:
261,186,8021,5,0,1:2:0:0:
273,281,8133,2,0,L|289:393,1,90,6|0,1:2|1:2,0:0:0:0:
153,209,8357,5,2,1:2:0:0:
191,126,8469,2,0,P|235:98|292:98,1,90,6|0,1:2|0:2,0:0:0:0:
164,300,8693,2,0,P|119:293|83:268,1,90,8|0,0:3|0:2,0:0:0:0:
239,229,8917,5,0,1:2:0:0:
292,297,9029,1,0,1:2:0:0:
371,269,9141,1,0,1:2:0:0:
365,181,9253,1,0,1:2:0:0:
284,156,9365,1,4,3:2:0:0:
136,212,9589,5,2,0:2:0:0:
216,103,9812,2,0,P|178:66|127:73,1,107.999996704102,2|2,1:2|3:2,0:0:0:0:
54,50,10148,1,0,1:2:0:0:
54,50,10260,2,0,P|54:100|97:147,1,107.999996704102,2|2,3:2|3:2,0:0:0:0:
136,212,10596,2,0,L|125:289,1,53.9999983520508,2|0,0:2|1:2,0:0:0:0:
64,306,10820,1,2,0:2:0:0:
64,306,10932,1,2,0:2:0:0:
198,374,11156,6,0,L|305:358,1,107.999996704102,6|2,3:3|0:2,0:0:0:0:
342,291,11492,2,0,L|333:237,1,53.9999983520508,2|0,0:2|1:2,0:0:0:0:
374,174,11715,1,2,0:2:0:0:
374,174,11827,2,0,P|321:163|273:189,1,107.999996704102,2|0,2:2|3:2,0:0:0:0:
59,143,12275,5,0,3:2:0:0:
166,46,12499,1,0,1:2:0:0:
136,188,12723,1,0,0:2:0:0:
77,53,12947,5,4,3:3:0:0:
204,127,13171,1,2,0:2:0:0:
59,143,13395,2,0,P|47:201|75:253,1,107.999996704102,2|2,1:2|3:2,0:0:0:0:
141,275,13730,1,0,1:2:0:0:
141,275,13842,2,0,L|267:257,1,107.999996704102,2|2,3:2|3:2,0:0:0:0:
417,300,14290,1,2,1:2:0:0:
386,181,14514,1,2,0:2:0:0:
247,259,14738,6,0,B|256:325|256:325|294:363,1,107.999996704102,6|2,3:3|0:2,0:0:0:0:
329,285,15074,2,0,L|322:231,1,53.9999983520508,2|0,0:2|1:2,0:0:0:0:
386,181,15298,1,2,0:2:0:0:
386,181,15410,2,0,P|444:180|473:139,1,107.999996704102,2|0,0:2|3:2,0:0:0:0:
324,30,15857,5,0,3:2:0:0:
400,94,16081,1,0,1:2:0:0:
254,168,16305,1,0,0:0:0:0:
130,118,16529,5,4,3:2:0:0:
89,301,16753,1,2,0:2:0:0:
24,219,16977,2,0,L|134:203,1,107.999996704102,2|2,1:2|3:2,0:0:0:0:
191,257,17312,1,0,1:2:0:0:
191,257,17424,6,0,P|255:257|296:292,1,107.999996704102,2|2,3:2|3:2,0:0:0:0:
315,359,17760,1,2,0:2:0:0:
315,359,17872,1,0,1:2:0:0:
472,280,18096,1,2,0:2:0:0:
472,280,18208,1,2,0:2:0:0:
472,280,18320,6,0,L|454:154,1,107.999996704102,6|2,3:3|0:2,0:0:0:0:
393,120,18656,2,0,L|339:128,1,53.9999983520508,2|0,0:2|1:2,0:0:0:0:
285,189,18880,1,2,0:2:0:0:
285,189,18992,2,0,L|166:171,1,107.999996704102,2|0,0:2|3:2,0:0:0:0:
24,132,19439,5,0,3:2:0:0:
86,197,19663,1,0,1:2:0:0:
199,84,19887,1,0,0:2:0:0:
152,263,20111,5,4,3:3:0:0:
112,110,20335,1,2,0:2:0:0:
66,284,20559,2,0,P|94:326|146:349,1,107.999996704102,2|2,1:2|3:2,0:0:0:0:
220,317,20895,1,2,1:2:0:0:
220,317,21007,2,0,P|265:284|317:304,1,107.999996704102,2|2,3:2|3:2,0:0:0:0:
479,248,21454,1,2,1:2:0:0:
421,351,21678,1,2,0:2:0:0:
372,192,21902,6,0,B|352:156|352:156|371:84,1,107.999996704102,6|2,3:3|0:2,0:0:0:0:
198,44,22350,2,0,B|204:87|204:87|218:103|218:103|224:146,1,107.999996704102,6|2,1:2|3:2,0:0:0:0:
188,227,22686,1,2,1:2:0:0:
188,227,22798,1,2,3:2:0:0:
71,342,23021,1,2,3:2:0:0:
48,174,23245,1,6,1:2:0:0:
171,328,23469,1,0,1:2:0:0:
219,323,23581,1,0,1:2:0:0:
264,293,23693,5,6,3:2:0:0:
379,341,23917,1,2,0:2:0:0:
417,129,24141,2,0,P|373:86|313:96,1,125.999996154785,2|2,1:2|3:2,0:0:0:0:
244,40,24477,1,0,1:2:0:0:
244,40,24589,2,0,L|118:57,1,125.999996154785,2|2,3:2|3:2,0:0:0:0:
199,132,24924,2,0,L|207:194,1,62.9999980773926,2|0,2:2|1:2,0:0:0:0:
293,291,25148,1,2,0:2:0:0:
319,273,25260,1,2,0:0:0:0:
332,244,25372,1,2,0:0:0:0:
331,214,25484,6,0,B|273:206|273:206|261:201|261:201|196:193,1,125.999996154785,6|2,3:3|0:0,0:0:0:0:
134,288,25820,2,0,L|196:280,1,62.9999980773926,2|0,0:0|1:0,0:0:0:0:
59,240,26044,1,2,0:0:0:0:
59,240,26156,2,0,P|45:300|75:354,1,125.999996154785,2|0,0:0|3:0,0:0:0:0:
145,198,26604,5,0,3:2:0:0:
315,253,26827,1,0,1:2:0:0:
213,348,27051,1,0,0:2:0:0:
229,229,27275,5,6,3:3:0:0:
331,347,27499,1,2,0:2:0:0:
379,160,27723,2,0,P|440:156|491:190,1,125.999996154785,2|2,1:2|3:2,0:0:0:0:
418,251,28059,1,0,1:0:0:0:
418,251,28171,1,6,3:0:0:0:
277,197,28395,1,2,3:2:0:0:
292,43,28618,2,0,P|218:43|175:79,1,125.999996154785,2|2,1:2|0:2,0:0:0:0:
90,41,28954,1,0,2:0:0:0:
90,41,29066,6,0,L|110:186,1,125.999996154785,6|0,3:3|0:2,0:0:0:0:
190,212,29402,2,0,L|175:307,1,62.9999980773926,2|0,0:0|1:0,0:0:0:0:
69,342,29626,1,2,0:0:0:0:
69,342,29738,2,0,P|38:305|38:228,1,125.999996154785,2|2,3:2|3:0,0:0:0:0:
180,274,30186,5,0,3:2:0:0:
145,262,30298,1,2,0:2:0:0:
112,266,30410,1,0,1:2:0:0:
237,355,30633,1,2,0:2:0:0:
274,347,30745,1,0,1:0:0:0:
311,340,30857,5,6,3:2:0:0:
478,348,31081,1,2,0:0:0:0:
512,185,31305,2,0,P|481:234|427:211,1,125.999996154785,2|2,1:2|3:2,0:0:0:0:
448,126,31641,1,0,1:0:0:0:
448,126,31753,2,0,B|389:118|389:118|374:113|374:113|309:104,1,125.999996154785,2|2,3:0|3:2,0:0:0:0:
256,37,32089,1,2,0:2:0:0:
256,37,32201,1,0,1:2:0:0:
179,132,32424,1,2,0:0:0:0:
53,90,32648,6,0,P|34:147|88:198,1,125.999996154785,6|2,3:0|0:0,0:0:0:0:
149,279,32984,2,0,L|157:216,1,62.9999980773926,2|0,0:0|1:0,0:0:0:0:
78,325,33208,1,2,0:0:0:0:
78,325,33320,2,0,P|132:361|204:347,1,125.999996154785,2|0,3:2|3:0,0:0:0:0:
368,342,33768,5,2,3:2:0:0:
233,244,33992,1,2,1:2:0:0:
387,182,34215,1,2,0:0:0:0:
387,182,34327,1,2,0:0:0:0:
387,182,34439,5,6,3:2:0:0:
276,329,34663,1,2,0:0:0:0:
414,265,34887,2,0,P|446:244|466:149,1,125.999996154785,2|2,1:2|3:2,0:0:0:0:
415,101,35223,1,2,1:2:0:0:
415,101,35335,2,0,P|354:101|303:154,1,125.999996154785,0|2,3:0|3:2,0:0:0:0:
140,45,35783,2,0,P|74:45|74:108,1,125.999996154785,2|2,1:2|3:2,0:0:0:0:
145,141,36118,1,0,1:0:0:0:
145,141,36230,6,0,B|153:189|153:189|149:212|149:212|162:275,1,125.999996154785,6|2,3:2|3:2,0:0:0:0:
331,347,36678,2,0,B|339:298|339:298|335:275|335:275|348:212,1,125.999996154785,2|2,1:2|3:2,0:0:0:0:
90,310,37126,5,0,1:2:0:0:
43,270,37238,1,0,1:0:0:0:
60,211,37350,1,0,1:2:0:0:
122,203,37462,1,0,1:0:0:0:
146,221,37574,5,0,0:3:0:0:
170,218,37686,1,0,0:0:0:0:
197,214,37798,1,0,0:0:0:0:
220,209,37910,1,0,0:0:0:0:
243,203,38021,6,0,B|361:303|278:440|159:311|283:266,1,288,6|8,0:2|0:0,0:0:0:0:
398,227,38693,2,0,B|440:225|460:195|460:195|456:232|495:268,2,144,2|8|0,0:3|0:0|0:3,0:0:0:0:
236,348,39365,1,10,0:3:0:0:
104,197,39589,1,2,0:0:0:0:
40,275,39812,6,0,B|169:347|169:195|312:282,1,288,6|8,0:2|0:0,0:0:0:0:
104,197,40484,1,2,0:0:0:0:
104,197,40596,1,2,0:0:0:0:
104,197,40708,1,10,0:0:0:0:
116,34,40932,1,2,0:0:0:0:
240,152,41156,1,10,0:0:0:0:
240,152,41380,1,2,0:0:0:0:
472,93,41604,6,0,B|402:59|341:127|341:127|303:36|188:57,1,288,6|8,0:2|0:0,0:0:0:0:
60,50,42275,1,2,0:0:0:0:
88,39,42387,1,0,0:0:0:0:
116,34,42499,1,0,0:0:0:0:
40,240,42723,1,2,0:0:0:0:
70,204,42835,1,0,0:0:0:0:
116,194,42947,1,0,0:0:0:0:
384,297,43171,6,0,P|304:360|248:195,1,306.000005836487,6|0,1:2|3:2,0:0:0:0:
335,79,43842,5,0,1:0:0:0:
297,270,44066,1,0,3:2:0:0:
417,159,44290,5,2,1:2:0:0:
450,346,44514,1,0,3:2:0:0:
504,200,44738,5,2,1:2:0:0:
297,270,44962,1,0,1:2:0:0:
255,236,45074,1,0,1:0:0:0:
207,253,45186,6,0,B|190:352|190:352|155:326,1,144,6|2,3:2|0:0,0:0:0:0:
22,237,45633,1,2,3:0:0:0:
84,89,45857,1,2,0:0:0:0:
84,89,45969,2,0,L|108:237,1,144,2|0,0:0|0:0,0:0:0:0:
255,144,46305,2,0,P|214:83|177:125,1,144,2|0,0:0|3:0,0:0:0:0:
325,44,46753,5,2,0:0:0:0:
325,44,46977,1,2,3:0:0:0:
400,250,47201,1,2,0:0:0:0:
465,169,47424,2,0,P|441:154|366:154,1,72,2|0,3:0|0:0,0:0:0:0:
258,272,47648,1,2,0:0:0:0:
258,272,47760,2,0,L|433:246,1,144,2|0,0:0|0:0,0:0:0:0:
178,217,48096,2,0,P|163:289|222:359,1,144,2|0,0:0|1:0,0:0:0:0:
251,158,48544,6,0,P|190:123|170:123,1,80.9999975280763,6|0,0:0|0:0,0:0:0:0:
77,288,48768,1,6,1:2:0:0:
77,288,49104,5,0,1:2:0:0:
72,256,49215,1,2,1:2:0:0:
66,224,49327,1,0,1:2:0:0:
63,191,49439,5,2,1:2:0:0:
88,149,49551,1,0,1:2:0:0:
148,125,49663,1,0,1:2:0:0:
226,167,49775,1,0,1:2:0:0:
229,257,49887,6,0,P|229:299|205:343,1,80.9999975280763,2|0,1:2|1:2,0:2:0:0:
223,80,50111,2,0,P|259:58|309:57,1,80.9999975280763,2|0,1:2|1:2,0:2:0:0:
63,191,50335,2,0,P|26:170|0:127,1,80.9999975280763,6|0,1:2|0:2,0:2:0:0:
229,257,50559,5,2,0:2:0:0:
250,224,51007,1,2,0:2:0:0:
293,215,51454,1,2,0:2:0:0:
332,224,51902,5,0,1:2:0:0:
356,133,52014,1,0,1:2:0:0:
447,108,52126,1,0,1:2:0:0:
512,176,52238,1,0,1:2:0:0:
490,270,52350,6,0,L|467:396,1,90,6|0,3:2|0:2,0:0:0:0:
319,270,52574,1,2,0:2:0:0:
390,214,52686,2,0,L|413:340,1,90,2|8,2:2|1:2,0:0:0:0:
235,288,52910,2,0,P|275:268|319:270,1,90,2|0,0:2|0:2,0:0:0:0:
474,196,53133,1,2,1:2:0:0:
415,129,53245,6,0,P|364:129|324:152,1,90,6|0,3:3|1:2,0:0:0:0:
234,16,53469,2,0,P|253:56|251:100,1,90,2|0,3:2|0:2,0:0:0:0:
96,177,53693,2,0,L|73:51,1,90,10|0,1:2|0:2,0:0:0:0:
185,161,53917,2,0,L|168:72,1,90,2|0,0:2|0:2,0:0:0:0:
12,154,54141,6,0,P|10:198|34:241,1,90,6|0,3:3|0:2,0:0:0:0:
256,358,54365,1,2,0:2:0:0:
197,292,54477,2,0,P|159:268|114:264,1,90,2|8,0:2|1:2,0:0:0:0:
90,351,54701,2,0,P|127:374|172:378,1,90,2|0,0:2|0:2,0:0:0:0:
359,236,54924,1,2,1:2:0:0:
291,178,55036,6,0,L|274:266,1,90,6|0,3:3|1:2,0:0:0:0:
427,294,55260,2,0,L|443:205,1,90,2|0,3:2|0:2,0:0:0:0:
241,89,55484,2,0,L|280:303,1,180,10|0,1:2|0:2,0:0:0:0:
413,352,55820,1,0,0:2:0:0:
498,335,55932,6,0,P|427:269|348:295,1,180,6|0,3:3|0:2,0:0:0:0:
290,354,56268,1,2,0:2:0:0:
199,319,56380,2,0,L|110:302,1,90,10|0,1:2|0:2,0:0:0:0:
5,279,56604,2,0,L|21:367,1,90,2|0,0:2|1:2,0:0:0:0:
128,214,56827,6,0,L|111:302,1,90,6|0,3:3|1:2,0:0:0:0:
0,157,57051,2,0,P|38:133|83:133,1,90,2|0,3:2|0:2,0:0:0:0:
217,231,57275,2,0,L|128:214,1,90,10|0,1:2|0:2,0:0:0:0:
58,38,57499,2,0,L|146:54,1,90,2|0,0:2|0:2,0:0:0:0:
231,94,57723,5,10,0:3:0:0:
252,89,57835,1,0,1:2:0:0:
271,80,57947,1,0,1:2:0:0:
288,65,58059,1,0,1:2:0:0:
300,45,58171,5,6,0:3:0:0:
271,79,58283,1,0,1:2:0:0:
276,122,58395,1,0,1:2:0:0:
311,148,58507,1,0,1:2:0:0:
354,140,58618,5,10,2:3:0:0:
429,107,58730,1,0,1:2:0:0:
482,168,58842,1,8,0:3:0:0:
443,239,58954,1,0,1:2:0:0:
361,224,59066,5,10,0:3:0:0:
310,302,59178,1,0,1:2:0:0:
374,373,59290,1,8,2:3:0:0:
42,185,59514,6,0,L|81:399,1,161.999995056153,6|0,3:2|0:2,0:0:0:0:
146,138,59962,2,0,L|122:265,1,80.9999975280763,10|0,1:2|0:2,0:0:0:0:
226,198,60186,1,2,0:2:0:0:
226,198,60298,1,2,2:2:0:0:
93,67,60410,2,0,P|157:49|232:113,1,161.999995056153,6|0,3:3|0:2,0:0:0:0:
433,208,60857,6,0,L|353:222,1,80.9999975280763,10|0,1:2|0:2,0:0:0:0:
275,180,61081,1,2,0:2:0:0:
275,180,61193,1,2,0:2:0:0:
427,45,61305,2,0,P|465:44|505:64,1,80.9999975280763,6|0,3:3|0:2,0:0:0:0:
433,208,61529,6,0,L|452:114,1,80.9999975280763,2|0,0:2|0:0,0:0:0:0:
275,180,61753,1,10,1:2:0:0:
341,246,61865,2,0,L|358:339,1,80.9999975280763,2|0,0:2|2:2,0:0:0:0:
205,367,62089,1,2,0:2:0:0:
195,275,62201,2,0,P|234:279|268:302,1,80.9999975280763,6|0,3:3|2:2,0:0:0:0:
124,333,62424,5,8,0:2:0:0:
433,208,62648,1,8,1:2:0:0:
180,92,62872,5,2,3:2:0:0:
240,24,62984,1,0,1:2:0:0:
317,65,63096,6,0,L|334:159,1,85.4999977169037,6|0,3:2|0:2,0:0:0:0:
507,240,63320,2,0,P|471:218|429:216,1,85.4999977169037,2|0,0:2|0:2,0:0:0:0:
247,291,63544,2,0,P|282:291|333:260,1,85.4999977169037,10|0,1:2|0:2,0:0:0:0:
332,149,63768,1,2,3:2:0:0:
168,188,63880,2,0,L|139:365,1,180,2|0,1:2|0:2,0:0:0:0:
72,219,64215,6,0,L|58:312,1,94.499997116089,2|0,0:2|0:2,0:0:0:0:
0,115,64439,6,0,P|40:89|91:89,1,99.0000030212403,10|0,1:2|0:2,0:0:0:0:
271,203,64663,6,0,L|168:188,1,103.500001974106,2|0,0:2|1:0,0:0:0:0:
383,33,64887,6,0,P|434:33|489:68,1,107.999996704102,10|0,0:3|0:0,0:0:0:0:
92,331,65111,5,2,1:2:0:0:
56,300,65223,1,2,1:2:0:0:
74,256,65335,1,4,1:1:0:0:
121,260,65447,1,0,1:2:0:0:
131,306,65559,5,2,1:2:0:0:
186,338,65671,1,0,1:2:0:0:
245,313,65783,1,10,2:3:0:0:
264,251,65895,1,0,1:2:0:0:
227,200,66007,1,0,1:2:0:0:
160,189,66118,5,0,1:2:0:0:
72,168,66230,1,10,2:3:0:0:
66,80,66342,1,0,1:2:0:0:
148,46,66454,1,0,1:2:0:0:
205,112,66566,1,0,1:2:0:0:
323,183,66678,6,0,L|417:166,1,90,6|0,3:2|2:2,0:0:0:0:
469,235,66902,1,2,2:2:0:0:
396,339,67014,2,0,L|381:251,1,90,2|8,2:2|1:2,0:0:0:0:
289,99,67238,2,0,P|253:125|234:166,1,90,2|0,2:2|2:2,0:0:0:0:
323,183,67462,1,2,1:2:0:0:
264,251,67574,6,0,L|170:234,1,90,6|0,3:3|1:2,0:0:0:0:
42,350,67798,2,0,L|136:333,1,90,2|0,3:2|2:2,0:0:0:0:
191,146,68021,2,0,L|174:240,1,90,10|0,1:2|2:2,0:0:0:0:
72,265,68245,2,0,L|55:171,1,90,2|0,2:2|2:2,0:0:0:0:
167,60,68469,6,0,P|215:60|264:96,1,90,6|0,3:3|2:2,0:0:0:0:
321,22,68693,1,2,2:2:0:0:
496,172,68805,2,0,L|401:188,1,90,2|8,2:2|1:2,0:0:0:0:
348,113,69029,2,0,P|388:94|432:98,1,90,2|0,0:2|0:2,0:0:0:0:
496,172,69253,1,2,1:2:0:0:
423,275,69365,6,0,L|407:186,1,90,6|0,3:3|1:2,0:0:0:0:
349,337,69589,2,0,L|333:248,1,90,2|0,3:2|0:2,0:0:0:0:
156,280,69812,2,0,L|391:238,1,180,10|0,1:2|0:2,0:0:0:0:
120,363,70148,1,2,0:2:0:0:
120,363,70260,6,0,P|64:284|96:212,1,180,6|0,3:3|0:2,0:0:0:0:
269,166,70596,1,2,0:0:0:0:
269,166,70708,2,0,L|181:182,1,90,10|0,1:2|0:2,0:0:0:0:
249,74,70932,2,0,L|160:89,1,90,2|0,2:2|1:2,0:0:0:0:
74,111,71156,6,0,P|74:61|44:16,1,90,6|0,3:3|1:2,0:0:0:0:
10,171,71380,2,0,P|47:195|91:197,1,90,2|0,3:2|0:2,0:0:0:0:
256,337,71604,2,0,P|258:292|237:253,1,90,10|0,1:2|0:2,0:0:0:0:
274,39,71827,2,0,P|234:59|210:96,1,90,2|0,0:2|0:2,0:0:0:0:
181,182,72051,5,2,1:2:0:0:
237,253,72163,2,0,L|423:219,1,180,0|0,1:2|0:2,0:0:0:0:
398,353,72499,1,2,1:2:0:0:
503,269,72611,2,0,L|317:235,1,180,0|0,1:2|0:2,0:0:0:0:
90,135,72947,5,0,1:0:0:0:
160,78,73059,1,0,1:0:0:0:
242,106,73171,1,0,1:0:0:0:
306,31,73283,1,0,1:2:0:0:
393,60,73395,2,0,L|378:157,1,90,2|0,1:2|0:2,0:0:0:0:
177,276,73618,5,2,1:2:0:0:
259,199,73730,5,2,1:2:0:0:
323,351,73842,6,0,L|227:367,1,80.9999975280763,6|0,3:2|0:0,0:0:0:0:
97,262,74066,2,0,L|193:278,1,80.9999975280763,2|0,0:2|0:0,0:0:0:0:
273,120,74290,2,0,L|260:199,1,80.9999975280763,2|0,1:2|0:0,0:0:0:0:
27,174,74513,5,2,0:2:0:0:
58,93,74625,1,2,1:2:0:0:
146,94,74738,2,0,L|159:188,1,80.9999975280763,6|0,3:3|0:2,0:0:0:0:
330,46,74962,2,0,P|293:28|253:28,1,80.9999975280763,2|0,0:2|2:2,0:0:0:0:
273,120,75186,5,10,1:2:0:0:
398,198,75298,2,0,B|478:186,1,80.9999975280763,2|0,2:2|0:2,0:0:0:0:
423,102,75521,1,2,0:0:0:0:
451,281,75633,2,0,L|462:361,1,80.9999975280763,6|0,3:3|0:2,0:0:0:0:
280,278,75857,2,0,L|293:198,1,80.9999975280763,2|0,0:2|0:2,0:0:0:0:
338,348,76081,6,0,P|262:365|195:310,1,161.999995056153,10|0,1:2|3:2,0:0:0:0:
111,160,76417,1,2,1:2:0:0:
111,160,76529,2,0,L|202:142,1,80.9999975280763,2|0,3:2|2:2,0:0:0:0:
330,46,76753,6,0,P|293:28|253:28,1,80.9999975280763,8|0,0:2|2:2,0:0:0:0:
30,108,76977,2,0,P|13:184|68:251,1,161.999995056153,10|0,1:2|0:2,0:0:0:0:
293,278,77312,1,0,1:2:0:0:
293,278,77424,6,0,L|107:312,1,161.999995056153,6|0,3:2|0:2,0:0:0:0:
333,359,77760,1,2,0:2:0:0:
333,359,77872,2,0,P|379:300|378:255,1,80.9999975280763,10|0,1:2|0:0,0:0:0:0:
278,198,78096,2,0,L|297:302,1,80.9999975280763,2|0,0:2|1:2,0:0:0:0:
512,176,78320,5,6,3:2:0:0:
458,100,78432,1,0,1:0:0:0:
378,136,78544,2,0,L|364:233,1,80.9999975280763,0|0,3:0|0:0,0:0:0:0:
254,78,78768,2,0,P|296:59|345:64,1,80.9999975280763,10|0,1:2|0:0,0:0:0:0:
512,33,78992,2,0,P|476:14|436:15,1,80.9999975280763,2|0,0:2|0:0,0:0:0:0:
97,147,79215,5,6,1:2:0:0:
175,116,79327,1,0,1:2:0:0:
175,31,79439,1,0,1:2:0:0:
93,9,79551,1,0,1:2:0:0:
44,79,79663,5,10,3:3:0:0:
55,138,79775,1,0,1:2:0:0:
101,176,79887,1,0,1:2:0:0:
160,174,79999,1,0,1:2:0:0:
205,135,80111,5,10,3:3:0:0:
187,170,80223,1,0,1:2:0:0:
202,206,80335,1,0,1:2:0:0:
240,217,80447,1,0,1:2:0:0:
272,194,80559,5,10,3:3:0:0:
283,186,80671,1,8,3:3:0:0:
294,179,80783,1,8,3:3:0:0:
306,172,80895,1,4,3:1:0:0:
317,164,81007,6,0,L|340:307,1,144,6|0,3:2|0:2,0:0:0:0:
459,342,81342,2,0,P|408:295|339:305,1,144,2|0,0:2|0:2,0:0:0:0:
264,357,81678,2,0,L|184:341,1,72,2|0,0:2|0:2,0:0:0:0:
49,273,81902,6,0,L|197:243,1,144,6|0,3:2|0:2,0:0:0:0:
186,105,82238,2,0,B|170:144|170:144|190:244,1,144,2|0,0:2|0:2,0:0:0:0:
280,227,82574,2,0,L|263:144,1,72,2|0,0:2|0:2,0:0:0:0:
257,41,82798,6,0,P|212:13|159:13,1,90,6|0,3:2|0:2,0:0:0:0:
378,74,83021,2,0,P|422:80|458:105,1,90,0|0,1:2|0:2,0:0:0:0:
186,105,83245,2,0,P|133:103|87:129,1,90,10|0,0:3|0:2,0:0:0:0:
391,168,83469,2,0,P|426:195|445:235,1,90,8|0,0:3|0:2,0:0:0:0:
222,347,83693,6,0,L|40:310,1,180,4|0,1:2|1:2,0:0:0:0:
140,90,84029,5,0,1:2:0:0:
89,162,84141,1,0,1:2:0:0:
147,231,84253,1,0,1:2:0:0:
229,199,84365,1,0,1:2:0:0:
224,109,84477,1,0,1:2:0:0:
325,213,84589,5,2,2:2:0:0:
325,213,84738,2,0,L|352:87,1,90.0000034332277,2|2,2:2|0:2,0:2:0:0:
454,270,85038,5,2,0:2:0:0:
454,270,85188,2,0,L|424:146,1,90.0000034332277,2|2,0:2|0:2,0:2:0:0:
171,48,85487,6,0,L|80:29,1,72,6|0,1:2|0:2,0:0:0:0:
42,144,85712,2,0,L|123:126,1,76.5000014591217,8|0,0:3|0:2,0:0:0:0:
193,249,85937,2,0,L|103:231,1,80.9999975280763,10|0,0:3|0:2,0:0:0:0:
131,360,86162,2,0,L|323:328,1,170.999995433807,6|0,1:2|0:2,0:0:0:0:
486,151,86611,6,0,L|466:260,1,90,6|0,1:2|0:2,0:0:0:0:
451,336,86836,1,0,1:2:0:0:
295,229,86948,2,0,P|333:251|377:253,1,90,0|0,1:2|0:2,0:0:0:0:
356,161,87172,1,2,1:2:0:0:
122,79,87285,6,0,P|68:177|180:174,1,270,6|0,1:2|0:2,0:0:0:0:
213,89,87735,5,2,0:2:0:0:
