osu file format v14

[General]
AudioFilename: star.mp3
AudioLeadIn: 0
PreviewTime: 50671
Countdown: 0
SampleSet: Soft
StackLeniency: 0.7
Mode: 0
LetterboxInBreaks: 0
WidescreenStoryboard: 0

[Editor]
DistanceSpacing: 1
BeatDivisor: 4
GridSize: 16
TimelineZoom: 3.299999

[Metadata]
Title:Star Marker (TV Size)
TitleUnicode:スターマーカー (TV Size)
Artist:KANA-BOON
ArtistUnicode:KANA-BOON
Creator:-Lian-
Version:EASY
Source:僕のヒーローアカデミア
Tags:Anime Japanese Jpop pop Boku No Hero My Hero Academia Season 4 第4期 Opening 2 op 2 op2 Lian2002 Pepekcz Arronchu1207 Akane-_ Male Vocals
BeatmapID:2698357
BeatmapSetID:1300115

[Difficulty]
HPDrainRate:2
CircleSize:2
OverallDifficulty:2
ApproachRate:3
SliderMultiplier:1.05
SliderTickRate:1

[Events]
//Background and Video events
0,0,"bg (2).jpg",0,0
Video,163,"Video.avi"
//Break Periods
//Storyboard Layer 0 (Background)
//Storyboard Layer 1 (Fail)
//Storyboard Layer 2 (Pass)
//Storyboard Layer 3 (Foreground)
//Storyboard Layer 4 (Overlay)
//Storyboard Sound Samples

[TimingPoints]
410,447.761194029851,4,2,1,70,1,0
2201,-100,4,2,1,80,0,1
9365,-100,4,2,1,50,0,0
23693,-100,4,2,1,60,0,0
37574,-100,4,3,2,60,0,0
38021,-100,4,3,2,65,0,0
43171,-100,4,2,1,70,0,0
45186,-100,4,2,1,60,0,0
48768,-100,4,2,1,70,0,0
49215,-100,4,2,1,70,0,0
50559,-100,4,2,3,40,0,0
51678,-100,4,2,3,40,0,0
51902,-100,4,2,1,70,0,0
52350,-100,4,2,1,85,0,1
57275,-100,4,2,1,85,0,1
57499,-100,4,2,1,85,0,1
59514,-100,4,2,1,70,0,0
63096,-100,4,2,1,75,0,0
64887,-100,4,2,1,75,0,0
65335,-100,4,2,1,75,0,0
65783,-100,4,2,1,75,0,0
66678,-100,4,2,1,85,0,1
73842,-100,4,2,1,70,0,0
81007,-100,4,2,1,75,0,1
82798,-100,4,2,1,80,0,1
84589,449.438202247191,4,2,3,70,1,0
84589,-100,4,2,3,70,0,0
85487,-100,4,2,1,70,0,0
86162,-100,4,2,1,70,0,0
86611,-100,4,2,1,70,0,0
87622,-100,4,2,1,5,0,0
87735,-100,4,2,3,40,0,0

[Colours]
Combo1 : 216,177,177
Combo2 : 138,197,255
Combo3 : 255,197,138
Combo4 : 255,255,136
Combo5 : 174,255,174
Combo6 : 255,168,211

[HitObjects]
48,336,410,6,0,L|160:352,1,105,0|0,1:0|1:0,0:0:0:0:
233,285,1305,2,0,B|339:246|339:331|457:285,1,210,0|6,1:0|3:2,0:0:0:0:
509,215,2648,6,0,L|493:103,1,105,0|0,1:2|3:2,0:0:0:0:
422,33,3544,1,2,1:2:0:0:
322,65,3992,2,0,L|210:49,2,105,2|0|0,3:3|1:2|3:2,0:0:0:0:
399,135,5335,1,2,1:2:0:0:
329,213,5783,5,6,3:2:0:0:
403,286,6230,2,0,P|357:311|291:311,1,105,2|2,1:2|3:2,0:0:0:0:
201,296,7126,1,2,1:2:0:0:
69,209,7798,6,0,L|61:297,2,78.75,6|6|6,1:2|1:2|1:2,0:0:0:0:
88,105,8917,1,0,1:2:0:0:
183,60,9365,1,4,3:2:0:0:
275,109,9812,6,0,L|378:94,1,105,2|2,1:2|3:2,0:0:0:0:
462,158,10708,2,0,P|484:206|479:258,1,105,0|6,1:2|3:3,0:0:0:0:
404,331,11604,1,0,1:2:0:0:
319,270,12051,2,0,P|239:338|136:288,1,210,0|4,3:2|3:3,0:0:0:0:
52,347,13395,6,0,P|44:296|61:247,1,105,2|2,1:2|3:2,0:0:0:0:
115,157,14290,1,2,1:2:0:0:
216,183,14738,2,0,L|328:167,1,105,6|0,3:3|1:2,0:0:0:0:
360,71,15633,2,0,L|136:39,1,210,0|4,3:2|3:2,0:0:0:0:
64,96,16977,6,0,L|80:208,1,105,2|2,1:2|3:2,0:0:0:0:
181,224,17872,2,0,L|165:336,1,105,0|6,1:2|3:3,0:0:0:0:
258,377,18768,1,0,1:2:0:0:
344,317,19215,2,0,P|434:334|423:232,1,210,0|4,3:2|3:3,0:0:0:0:
356,172,20559,6,0,L|244:188,1,105,2|2,1:2|3:2,0:0:0:0:
167,248,21454,1,2,1:2:0:0:
82,185,21902,2,0,P|65:130|84:65,1,105,6|6,3:3|1:2,0:0:0:0:
159,23,22798,2,0,L|383:55,1,210,2|6,3:2|3:2,0:0:0:0:
450,116,24141,6,0,P|457:165|433:224,1,105,2|2,1:2|3:2,0:0:0:0:
334,220,25036,2,0,P|281:220|230:251,1,105,0|6,1:2|3:3,0:0:0:0:
189,338,25932,1,0,1:0:0:0:
84,327,26380,2,0,B|44:283|44:283|62:115,1,210,2|6,3:0|3:0,0:0:0:0:
132,58,27723,6,0,L|260:74,1,105,2|6,1:2|3:0,0:0:0:0:
312,141,28618,1,2,1:2:0:0:
252,227,29066,2,0,L|124:243,1,105,6|0,3:3|1:0,0:0:0:0:
90,328,29962,2,0,L|298:360,1,210,2|6,3:0|3:2,0:0:0:0:
377,291,31305,6,0,L|361:179,1,105,2|2,1:2|3:0,0:0:0:0:
463,156,32201,2,0,L|479:44,1,105,2|6,1:2|3:0,0:0:0:0:
383,6,33096,1,0,1:0:0:0:
290,56,33544,2,0,L|66:88,1,210,2|4,3:0|3:2,0:0:0:0:
20,171,34887,6,0,L|132:187,1,105,2|2,1:2|3:0,0:0:0:0:
153,286,35783,1,2,1:2:0:0:
242,340,36230,1,6,3:2:0:0:
328,279,36678,1,2,1:2:0:0:
429,307,37126,2,0,L|445:179,1,105,2|0,1:2|0:3,0:0:0:0:
455,98,38021,6,0,B|303:78|303:78|236:115,1,210,6|8,0:2|0:0,0:0:0:0:
164,161,39365,1,10,0:3:0:0:
81,96,39812,2,0,P|59:185|152:272,1,210,6|10,0:2|0:0,0:0:0:0:
235,245,41156,1,10,0:0:0:0:
292,333,41604,6,0,L|468:301,1,157.5,6|2,0:2|0:0,0:0:0:0:
492,209,42723,1,2,0:0:0:0:
425,127,43171,2,0,L|264:104,1,157.5,6|0,1:2|1:0,0:0:0:0:
183,43,44290,1,2,1:2:0:0:
110,118,44738,1,2,1:2:0:0:
159,210,45186,6,0,L|143:322,1,105,6|2,3:2|3:0,0:0:0:0:
236,363,46081,2,0,P|282:339|334:337,1,105,2|0,3:0|3:0,0:0:0:0:
437,314,46976,1,2,3:0:0:0:
490,224,47424,2,0,L|506:112,1,105,2|0,3:0|3:0,0:0:0:0:
454,27,48320,1,0,1:0:0:0:
351,51,48768,6,0,P|303:32|249:32,2,105,6|2|0,1:2|1:2|1:2,0:0:0:0:
421,129,50111,1,2,1:2:0:0:
375,223,50559,2,0,L|391:335,2,105,2|2|2,0:2|0:2|0:2,0:0:0:0:
282,173,51902,1,0,1:2:0:0:
192,240,52350,6,0,L|80:224,1,105,6|8,3:2|1:2,0:0:0:0:
15,148,53245,2,0,P|59:127|117:127,1,105,6|10,3:3|1:2,0:0:0:0:
185,49,54141,1,6,3:3:0:0:
279,93,54589,1,8,1:2:0:0:
368,38,55036,2,0,P|382:88|369:145,1,105,6|10,3:3|1:2,0:0:0:0:
315,228,55932,5,6,3:3:0:0:
215,193,56380,2,0,P|158:193|108:222,1,105,10|6,1:2|3:3,0:0:0:0:
27,270,57275,1,10,1:2:0:0:
87,356,57723,1,10,0:3:0:0:
190,340,58171,2,0,B|246:316|291:350|291:350|326:296|396:314,1,210,6|10,0:3|0:3,0:0:0:0:
476,351,59514,6,0,L|492:239,1,105,6|10,3:2|1:2,0:0:0:0:
398,197,60410,2,0,L|382:85,1,105,6|10,3:3|1:2,0:0:0:0:
300,28,61305,2,0,P|239:28|186:58,1,105,6|10,3:3|1:2,0:0:0:0:
136,130,62201,2,0,L|239:144,1,105,6|8,3:3|1:2,0:0:0:0:
319,212,63096,5,6,3:2:0:0:
256,296,63544,1,10,1:2:0:0:
346,347,63992,2,0,L|458:331,1,105,0|10,3:0|1:2,0:0:0:0:
510,246,64887,2,0,B|474:223|474:223|399:231,1,105,10|4,0:3|1:1,0:0:0:0:
307,221,65783,6,0,B|199:232|164:238|164:238|155:155,1,210,10|6,2:3|3:2,0:0:0:0:
96,86,67126,1,8,1:2:0:0:
179,20,67574,2,0,L|283:33,1,105,6|10,3:3|1:2,0:0:0:0:
365,98,68469,5,6,3:3:0:0:
287,168,68917,1,8,1:2:0:0:
350,251,69365,2,0,P|399:227|449:227,1,105,6|10,3:3|1:2,0:0:0:0:
469,329,70260,6,0,P|420:353|370:353,1,105,6|10,3:3|1:2,0:0:0:0:
265,349,71156,1,6,3:3:0:0:
189,271,71604,1,10,1:2:0:0:
176,169,72051,2,0,L|64:185,1,105,2|2,1:2|1:2,0:0:0:0:
86,287,72947,2,0,L|189:272,1,105,14|2,0:3|1:2,0:0:0:0:
285,228,73842,6,0,L|301:340,1,105,6|2,3:2|1:2,0:0:0:0:
398,367,74738,2,0,L|414:255,1,105,6|10,3:3|1:2,0:0:0:0:
485,187,75633,1,6,3:3:0:0:
439,92,76081,1,10,1:2:0:0:
344,45,76529,2,0,L|232:61,1,105,2|10,3:2|1:2,0:0:0:0:
139,31,77424,6,0,P|134:77|163:137,1,105,6|10,3:2|1:2,0:0:0:0:
256,163,78320,2,0,P|261:208|232:268,1,105,6|10,3:2|1:2,0:0:0:0:
158,329,79215,1,6,1:2:0:0:
52,332,79663,1,10,3:3:0:0:
13,238,80111,2,0,B|87:228|87:228|131:184|131:184|225:176,1,210,10|6,3:3|3:2,0:0:0:0:
402,247,81902,5,6,3:2:0:0:
450,37,82798,2,0,L|338:21,2,105,6|10|4,3:2|0:3|1:2,0:0:0:0:
495,131,84141,1,0,1:2:0:0:
392,153,84589,6,0,L|409:270,1,105,2|2,2:2|0:2,0:0:0:0:
389,357,85487,2,0,P|331:319|240:354,1,157.5,6|6,1:2|1:2,0:0:0:0:
178,265,86611,2,0,L|78:279,2,78.75,6|2|6,1:2|1:2|1:2,0:0:0:0:
219,168,87735,5,2,0:2:0:0:
