osu file format v14

[General]
AudioFilename: audio.mp3
AudioLeadIn: 0
PreviewTime:28528
Countdown: 0
SampleSet: Soft
StackLeniency: 0.7
Mode: 0
LetterboxInBreaks: 0
WidescreenStoryboard: 1

[Editor]
Bookmarks:17211,18211,49928,57928,60594,84478,89811
DistanceSpacing: 1
BeatDivisor: 4
GridSize: 4
TimelineZoom: 1

[Metadata]
Title:Spiral
TitleUnicode:スパイラル
Artist:KANA-BOON
ArtistUnicode:KANA-BOON
Creator:Nevo
Version:Normal
Source:NARUTO-ナルト- 疾風伝 ナルティメットストーム4
Tags:nine tail fox bijuu dama rasengan sage of six paths Ultimate Ninja Storm 4 no jutsu shippuuden shipuuden shippuden kanaboon kana-boom kanaboom hokage kage shadow Tailed Beast Super Ultra Rasenshuriken Jutsu Technique video game anime shounen japanese rock cut version short ost soundtrack edit jrock j-rock 谷口鮪 Taniguchi maguro opening cutscene trailer road to boruto dlc
BeatmapID:3032170
BeatmapSetID:1477925

[Difficulty]
HPDrainRate:4
CircleSize:3.2
OverallDifficulty:4
ApproachRate:5
SliderMultiplier:1.1
SliderTickRate:1

[Events]
//Background and Video events
0,0,"naruto.jpg",0,0
//Break Periods
//Storyboard Layer 0 (Background)
//Storyboard Layer 1 (Fail)
//Storyboard Layer 2 (Pass)
//Storyboard Layer 3 (Foreground)
//Storyboard Layer 4 (Overlay)
//Storyboard Sound Samples

[TimingPoints]
695,333.333333333333,4,2,1,70,1,0
1861,-100,4,2,1,80,0,0
4528,-93.4579439252336,4,2,1,80,0,0
4674,333.333333333333,4,2,1,80,1,0
7173,-100,4,2,1,70,0,0
18007,-100,4,2,1,75,0,0
28673,-100,4,2,1,90,0,1
50007,-100,4,2,1,85,0,0
58007,-100,4,2,1,90,0,0
60673,-100,4,2,1,90,0,1
82007,-100,4,2,1,80,0,1
84507,-100,4,2,1,80,0,0
87173,-100,4,2,1,60,0,0
88673,-100,4,2,1,5,0,0

[Colours]
Combo1 : 255,70,70
Combo2 : 255,143,32
Combo3 : 0,89,255

[HitObjects]
350,119,695,6,0,L|236:101,1,110,10|0,0:0|3:0,0:0:0:0:
139,76,1361,1,8,3:2:0:0:
139,76,1528,1,8,3:2:0:0:
54,146,1861,6,0,B|44:188|44:188|55:270,1,110,14|2,0:2|0:2,0:0:0:0:
64,308,2361,1,10,0:2:0:0:
163,260,2694,2,0,L|237:250,1,55,2|2,3:2|3:2,0:0:0:0:
265,280,3028,2,0,L|389:298,1,110,10|2,0:2|3:2,0:0:0:0:
423,272,3528,2,0,P|448:224|434:160,2,110,2|2|2,0:2|0:2|3:2,0:0:0:0:
349,189,4528,6,0,L|340:73,1,110,2|2,0:2|0:2,0:0:0:0:
317,29,5007,2,0,P|282:33|245:59,1,55,10|2,0:2|0:2,0:0:0:0:
238,90,5340,1,2,3:2:0:0:
145,30,5673,2,0,P|82:22|31:55,1,110,10|0,0:2|3:2,0:0:0:0:
19,92,6173,2,0,B|12:168|12:168|35:197,2,110,2|2|14,0:2|0:2|0:2,0:0:0:0:
117,141,7173,6,0,L|105:262,1,110,14|0,0:2|0:0,0:0:0:0:
139,294,7673,1,10,0:2:0:0:
218,217,8007,2,0,P|267:195|314:224,1,110,2|10,3:2|0:2,0:0:0:0:
404,280,8673,2,0,L|524:258,1,110,2|10,3:2|0:2,0:0:0:0:
460,168,9340,1,2,3:2:0:0:
460,168,9507,2,0,L|390:182,1,55,2|10,0:2|0:2,0:0:0:0:
356,202,9840,6,0,L|247:197,1,110,2|0,0:2|0:0,0:0:0:0:
198,225,10340,1,10,0:2:0:0:
108,161,10673,2,0,P|96:107|108:54,1,110,2|10,3:2|0:2,0:0:0:0:
204,0,11340,1,2,3:2:0:0:
300,62,11673,1,10,0:2:0:0:
300,62,11840,2,0,L|433:46,1,110,2|2,0:2|0:2,0:0:0:0:
462,145,12507,6,0,L|349:163,1,110,2|0,0:2|0:0,0:0:0:0:
309,195,13007,2,0,P|310:219|325:253,1,55,10|0,0:2|0:0,0:0:0:0:
342,298,13340,2,0,P|304:279|228:291,1,110,2|10,3:2|0:2,0:0:0:0:
153,355,14007,2,0,P|136:257|153:234,1,110,2|10,3:2|0:2,0:0:0:0:
173,212,14507,2,0,P|181:186|178:159,1,55,2|0,0:2|3:2,0:0:0:0:
146,114,14840,1,2,0:2:0:0:
216,29,15173,6,0,L|332:39,1,110,2|0,0:2|0:0,0:0:0:0:
379,52,15673,1,10,0:2:0:0:
458,128,16007,2,0,P|469:181|450:231,1,110,2|8,3:2|0:2,0:0:0:0:
353,280,16673,1,6,3:2:0:0:
353,280,16840,2,0,L|340:165,2,110,2|2|8,0:2|0:2|0:2,0:0:0:0:
282,365,17840,6,0,P|225:343|171:350,1,110,14|0,0:2|0:0,0:0:0:0:
122,349,18340,2,0,P|106:292|139:238,1,110,10|2,0:2|3:2,0:0:0:0:
211,177,19007,1,10,0:2:0:0:
146,87,19340,2,0,L|76:74,1,55,2|0,3:2|0:0,0:0:0:0:
37,86,19673,2,0,B|26:121|26:121|46:202,1,110,10|2,0:2|3:2,0:0:0:0:
65,242,20173,1,14,0:2:0:0:
143,319,20507,6,0,P|204:328|250:302,1,110,14|0,0:2|0:0,0:0:0:0:
285,269,21007,2,0,L|289:215,1,55,10|0,0:2|0:0,0:0:0:0:
328,175,21340,2,0,L|318:64,1,110,2|10,3:2|0:2,0:0:0:0:
222,10,22007,2,0,B|165:-3|115:46|115:46|102:154,1,220,2|2,3:2|3:2,0:0:0:0:
99,202,22840,1,14,0:2:0:0:
200,157,23173,6,0,P|260:138|324:155,1,110,14|0,0:2|0:0,0:0:0:0:
351,177,23673,1,10,0:2:0:0:
449,127,24007,2,0,L|439:236,1,110,2|10,3:2|0:2,0:0:0:0:
397,337,24673,2,0,P|441:350|511:322,2,110,2|10|2,3:2|0:2|3:0,0:0:0:0:
351,305,25507,1,2,3:0:0:0:
263,371,25840,6,0,B|211:354|211:354|143:378,1,110,14|10,0:2|0:2,0:0:0:0:
105,357,26340,2,0,P|79:327|75:298,1,55,6|0,3:2|0:0,0:0:0:0:
99,263,26673,2,0,L|108:150,1,110,2|10,3:2|0:2,0:0:0:0:
165,59,27340,2,0,P|230:46|274:67,1,110,10|10,0:2|0:2,0:0:0:0:
326,156,28007,2,0,P|377:173|429:159,1,110,10|10,0:2|0:2,0:0:0:0:
473,58,28673,6,0,L|399:72,1,55,6|0,3:2|0:0,0:0:0:0:
370,41,29007,2,0,L|252:21,1,110,10|2,0:2|3:2,0:0:0:0:
207,12,29507,1,2,0:2:0:0:
114,70,29840,2,0,P|94:141|116:189,1,110,2|2,0:2|0:2,0:0:0:0:
132,220,30340,1,10,0:2:0:0:
229,169,30673,2,0,L|220:100,2,55,0|0|8,3:2|0:0|0:2,0:0:0:0:
298,254,31340,6,0,P|335:258|372:250,1,55,2|0,3:2|0:0,0:0:0:0:
401,230,31673,2,0,L|410:117,1,110,8|0,0:2|3:2,0:0:0:0:
446,79,32173,1,2,0:2:0:0:
506,170,32507,2,0,L|497:292,1,110,2|2,0:2|0:2,0:0:0:0:
483,332,33007,2,0,P|434:323|374:339,1,110,8|0,0:2|3:2,0:0:0:0:
276,383,33673,1,8,0:2:0:0:
195,309,34007,6,0,L|116:303,1,55,2|0,3:2|0:0,0:0:0:0:
85,296,34340,2,0,P|41:228|56:184,1,110,10|0,0:2|3:2,0:0:0:0:
81,162,34840,1,2,0:2:0:0:
177,110,35173,2,0,L|295:126,1,110,2|0,0:2|0:0,0:0:0:0:
324,163,35673,1,10,0:2:0:0:
432,130,36007,2,0,P|450:86|420:29,1,110,0|8,3:2|0:2,0:0:0:0:
317,56,36673,6,0,L|189:40,1,110,2|8,3:2|0:2,0:0:0:0:
155,25,37173,1,2,0:0:0:0:
155,25,37340,1,2,3:2:0:0:
58,77,37673,1,8,0:2:0:0:
96,180,38007,2,0,P|111:215|83:289,1,110,6|8,3:2|0:2,0:0:0:0:
62,329,38507,1,2,0:2:0:0:
62,329,38673,2,0,L|189:310,1,110,10|8,0:2|0:2,0:0:0:0:
253,239,39340,6,0,L|315:252,1,55,6|0,3:2|0:0,0:0:0:0:
347,287,39673,2,0,L|469:269,1,110,10|2,0:2|3:2,0:0:0:0:
493,231,40173,1,2,0:2:0:0:
396,177,40507,2,0,P|378:134|400:74,1,110,2|2,0:2|0:2,0:0:0:0:
431,33,41007,1,10,0:2:0:0:
322,14,41340,2,0,L|253:4,2,55,0|0|8,3:2|0:0|0:2,0:0:0:0:
325,124,42007,6,0,L|251:114,1,55,2|0,3:2|0:0,0:0:0:0:
223,144,42340,2,0,P|198:190|219:245,1,110,8|0,0:2|3:2,0:0:0:0:
252,282,42840,1,2,0:2:0:0:
178,364,43173,2,0,L|58:344,1,110,2|2,0:2|0:2,0:0:0:0:
28,309,43673,2,0,P|25:254|63:199,1,110,8|0,0:0|3:0,0:0:0:0:
120,121,44340,1,8,0:2:0:0:
68,31,44673,6,0,P|117:11|134:12,1,55,6|0,3:2|0:0,0:0:0:0:
168,34,45007,2,0,L|278:25,1,110,10|0,0:2|3:2,0:0:0:0:
332,19,45507,1,2,0:2:0:0:
416,89,45840,2,0,B|438:118|438:118|422:209,1,110,2|2,0:2|0:0,0:0:0:0:
414,244,46340,1,10,0:2:0:0:
304,234,46673,2,0,L|292:158,2,55,0|0|8,3:2|0:0|0:2,0:0:0:0:
238,322,47340,6,0,P|190:347|137:336,1,110,6|8,3:2|0:2,0:0:0:0:
100,303,47840,1,2,0:2:0:0:
100,303,48007,2,0,L|78:173,1,110,2|8,3:2|0:2,0:0:0:0:
99,86,48673,2,0,P|176:137|287:90,1,220,6|10,3:2|0:2,0:0:0:0:
359,10,49673,1,8,0:2:0:0:
467,30,50007,5,6,3:2:0:0:
489,137,50340,2,0,B|498:168|498:168|475:224|475:224|483:261,1,110,10|0,0:0|3:0,0:0:0:0:
477,295,50840,2,0,P|437:273|369:279,1,110,10|0,0:0|0:0,0:0:0:0:
331,311,51340,1,10,0:0:0:0:
175,367,51840,1,10,0:0:0:0:
54,254,52340,6,0,L|43:185,2,55,10|2|6,0:0|0:0|3:2,0:0:0:0:
133,178,53007,2,0,B|142:147|142:147|119:91|119:91|127:54,1,110,10|0,0:0|3:0,0:0:0:0:
152,28,53507,2,0,P|200:51|254:46,1,110,10|0,0:0|0:0,0:0:0:0:
304,23,54007,1,10,0:0:0:0:
466,52,54507,1,10,0:0:0:0:
482,216,55007,6,0,L|494:273,2,55,10|2|6,0:0|0:0|3:2,0:0:0:0:
415,128,55673,2,0,P|353:98|311:122,1,110,10|0,0:0|3:0,0:0:0:0:
274,81,56173,2,0,L|261:196,1,110,10|0,0:0|0:0,0:0:0:0:
272,244,56673,1,10,0:0:0:0:
142,142,57173,1,10,0:0:0:0:
32,264,57673,2,0,L|44:327,1,55,8|8,0:0|0:0,0:0:0:0:
66,367,58007,6,0,P|126:362|179:322,1,110,14|0,0:0|3:0,0:0:0:0:
192,286,58507,2,0,L|171:164,1,110,14|0,0:0|3:0,0:0:0:0:
121,158,59007,2,0,L|127:100,1,55,14|0,0:0|3:0,0:0:0:0:
200,21,59507,2,0,B|281:-13|379:8|379:8|335:31|320:85,1,275,14|8,0:0|0:0,0:0:0:0:
403,151,60673,6,0,L|408:76,1,55,6|0,3:2|0:0,0:0:0:0:
453,66,61007,2,0,P|501:113|504:168,1,110,10|2,0:2|3:2,0:0:0:0:
497,207,61507,1,2,0:2:0:0:
429,293,61840,2,0,L|304:278,1,110,2|2,0:2|0:2,0:0:0:0:
273,249,62340,2,0,L|201:263,1,55,10|0,0:2|0:0,0:0:0:0:
166,275,62673,1,0,3:2:0:0:
74,212,63007,1,8,0:2:0:0:
123,113,63340,6,0,P|141:74|142:46,1,55,2|0,3:2|0:0,0:0:0:0:
95,33,63673,2,0,P|43:85|39:118,1,110,8|0,0:2|3:2,0:0:0:0:
54,171,64173,1,2,0:2:0:0:
161,194,64507,2,0,L|292:168,1,110,2|2,0:2|0:2,0:0:0:0:
310,135,65007,2,0,L|386:150,1,55,8|0,0:2|0:0,0:0:0:0:
402,184,65340,2,0,P|423:225|394:290,1,110,0|8,3:2|0:2,0:0:0:0:
306,335,66007,6,0,L|246:332,1,55,2|0,3:2|0:0,0:0:0:0:
198,348,66340,2,0,L|76:338,1,110,10|0,0:2|3:2,0:0:0:0:
33,340,66840,1,2,0:2:0:0:
108,259,67173,2,0,P|144:200|132:142,1,110,2|0,0:2|0:0,0:0:0:0:
115,112,67673,1,10,0:2:0:0:
12,151,68007,2,0,L|6:212,2,55,0|0|8,3:2|0:0|0:2,0:0:0:0:
48,47,68673,6,0,B|84:20|84:20|166:25,1,110,2|8,3:2|0:2,0:0:0:0:
194,54,69173,1,2,0:2:0:0:
194,54,69340,2,0,L|319:47,1,110,2|8,3:2|0:2,0:0:0:0:
409,17,70007,2,0,P|414:62|378:124,1,110,6|8,3:2|0:2,0:0:0:0:
346,156,70507,1,2,0:2:0:0:
346,156,70673,2,0,L|359:279,1,110,10|8,0:2|0:2,0:0:0:0:
286,349,71340,6,0,L|217:337,1,55,6|0,3:2|0:0,0:0:0:0:
183,313,71673,2,0,P|160:255|170:207,1,110,10|2,0:2|3:2,0:0:0:0:
202,166,72173,1,2,0:2:0:0:
252,67,72507,2,0,L|133:82,1,110,2|2,0:2|0:2,0:0:0:0:
94,54,73007,1,10,0:2:0:0:
54,156,73340,2,0,L|-18:151,2,55,0|0|8,3:2|0:0|0:2,0:0:0:0:
137,228,74007,6,0,P|163:230|201:220,1,55,2|0,3:2|0:0,0:0:0:0:
235,190,74340,2,0,P|290:171|356:192,1,110,8|0,0:2|3:2,0:0:0:0:
377,221,74840,1,2,0:2:0:0:
456,145,75173,2,0,B|472:115|472:115|457:31,1,110,2|2,0:2|0:2,0:0:0:0:
408,17,75673,2,0,P|363:4|300:20,1,110,8|0,0:2|3:2,0:0:0:0:
226,98,76340,1,8,0:2:0:0:
135,36,76673,6,0,L|70:27,1,55,6|0,3:2|0:0,0:0:0:0:
29,51,77007,2,0,P|17:98|47:168,1,110,10|0,0:2|3:2,0:0:0:0:
77,190,77507,1,2,0:2:0:0:
41,293,77840,2,0,L|158:266,1,110,2|2,0:2|0:0,0:0:0:0:
191,234,78340,2,0,L|319:249,1,110,10|0,0:2|3:2,0:0:0:0:
378,323,79007,1,8,0:2:0:0:
450,240,79340,6,0,P|474:196|467:117,1,110,6|8,3:2|0:2,0:0:0:0:
451,93,79840,1,2,0:2:0:0:
451,93,80007,2,0,L|338:84,1,110,2|8,3:2|0:2,0:0:0:0:
259,10,80673,2,0,L|146:23,1,110,6|8,3:2|0:2,0:0:0:0:
105,53,81173,1,2,0:2:0:0:
105,53,81340,2,0,P|86:93|82:169,1,110,10|8,0:2|0:2,0:0:0:0:
143,247,82007,6,0,B|85:267|85:267|37:256,2,110,6|10|2,3:2|0:2|3:2,0:0:0:0:
231,181,83007,2,0,P|292:174|354:202,1,110,10|0,0:2|3:2,0:0:0:0:
375,229,83507,2,0,L|357:353,2,110,2|2|14,0:2|0:2|0:2,0:0:0:0:
438,139,84507,6,0,P|437:73|401:37,1,110,14|2,0:2|0:2,0:0:0:0:
357,23,85007,2,0,L|242:41,1,110,10|2,0:2|3:2,0:0:0:0:
175,122,85673,2,0,L|57:103,1,110,10|0,0:2|3:0,0:0:0:0:
15,126,86173,2,0,P|4:182|33:253,2,110,2|2|6,0:0|0:0|0:0,0:0:0:0:
94,47,87173,6,0,L|213:32,1,110,2|2,0:0|0:0,0:0:0:0:
255,50,87673,2,0,L|314:68,1,55,2|2,0:0|0:0,0:0:0:0:
361,52,88007,2,0,P|370:31|368:-7,2,55,2|2|2,0:0|0:0|0:0,0:0:0:0:
