osu file format v14

[General]
AudioFilename: audio.mp3
AudioLeadIn: 0
PreviewTime: 28528
Countdown: 0
SampleSet: Soft
StackLeniency: 0.7
Mode: 0
LetterboxInBreaks: 0
WidescreenStoryboard: 1

[Editor]
Bookmarks: 17211,18211,49928,57928,60594,84478,89811
DistanceSpacing: 0.6
BeatDivisor: 4
GridSize: 4
TimelineZoom: 2

[Metadata]
Title:Spiral
TitleUnicode:スパイラル
Artist:KANA-BOON
ArtistUnicode:KANA-BOON
Creator:Nevo
Version:Insane
Source:NARUTO-ナルト- 疾風伝 ナルティメットストーム4
Tags:nine tail fox bijuu dama rasengan sage of six paths Ultimate Ninja Storm 4 no jutsu shippuuden shipuuden shippuden kanaboon kana-boom kanaboom hokage kage shadow Tailed Beast Super Ultra Rasenshuriken Jutsu Technique video game anime shounen japanese rock cut version short ost soundtrack edit jrock j-rock 谷口鮪 Taniguchi maguro opening cutscene trailer road to boruto dlc
BeatmapID:3032169
BeatmapSetID:1477925

[Difficulty]
HPDrainRate:5
CircleSize:3.8
OverallDifficulty:8
ApproachRate:9
SliderMultiplier:1.6
SliderTickRate:1

[Events]
//Background and Video events
0,0,"naruto.jpg",0,0
//Break Periods
//Storyboard Layer 0 (Background)
//Storyboard Layer 1 (Fail)
//Storyboard Layer 2 (Pass)
//Storyboard Layer 3 (Foreground)
//Storyboard Layer 4 (Overlay)
//Storyboard Sound Samples

[TimingPoints]
695,333.333333333333,4,2,1,70,1,0
1861,-100,4,2,1,80,0,0
4528,-88.4955752212389,4,2,1,80,0,0
4674,333.333333333333,4,2,1,80,1,0
7173,-100,4,2,1,70,0,0
7340,-125,4,2,1,70,0,0
18007,-100,4,2,1,75,0,0
27340,-90.9090909090909,4,2,1,75,0,0
28673,-83.3333333333333,4,2,1,90,0,1
50007,-83.3333333333333,4,2,1,85,0,0
58007,-83.3333333333333,4,2,1,90,0,0
60673,-83.3333333333333,4,2,1,90,0,1
82007,-100,4,2,1,80,0,0
87173,-125,4,2,1,60,0,0
88340,-142.857142857143,4,2,1,60,0,0
88673,-142.857142857143,4,2,1,5,0,0

[Colours]
Combo1 : 255,70,70
Combo2 : 255,143,32
Combo3 : 0,89,255

[HitObjects]
69,308,695,5,10,0:0:0:0:
86,341,778,1,0,3:0:0:0:
117,362,861,1,0,3:0:0:0:
155,366,944,1,0,3:0:0:0:
190,350,1028,2,0,L|186:294,3,40,0|0|0|0,3:0|3:0|3:0|3:0,0:0:0:0:
269,384,1361,5,8,3:2:0:0:
306,200,1528,1,8,3:2:0:0:
468,334,1861,6,0,P|390:305|286:304,1,160,14|2,0:2|0:2,0:0:0:0:
146,247,2361,2,0,P|202:259|251:240,1,80,10|2,0:2|0:2,0:0:0:0:
85,174,2694,2,0,P|58:204|43:254,1,80,2|2,3:2|3:2,0:0:0:0:
188,167,3028,2,0,L|167:4,1,160,10|2,0:2|3:2,0:0:0:0:
349,101,3528,2,0,L|261:90,1,80,2|8,0:2|0:2,0:0:0:0:
402,15,3861,2,0,L|490:4,1,80,2|0,0:2|3:2,0:0:0:0:
430,210,4194,2,0,L|276:193,1,120,2|0,3:2|0:0,0:0:0:0:
310,196,4528,6,0,P|297:242|314:284,1,80,6|2,0:2|3:2,0:0:0:0:
392,340,4840,1,2,0:2:0:0:
251,374,5007,2,0,P|196:379|156:355,1,80,10|2,0:2|0:2,0:0:0:0:
127,257,5340,2,0,P|182:252|222:276,1,80,2|2,3:2|3:2,0:0:0:0:
21,320,5673,2,0,L|43:141,1,160,10|0,0:2|3:2,0:0:0:0:
67,38,6173,2,0,P|99:85|125:98,1,80,2|8,0:2|0:2,0:0:0:0:
244,26,6507,2,0,P|209:70|204:99,1,80,2|0,0:2|3:2,0:0:0:0:
310,190,6840,2,0,P|256:170|227:175,1,80,14|8,0:2|0:2,0:0:0:0:
174,303,7173,1,14,0:2:0:0:
174,303,7340,6,0,L|293:288,1,96,0|0,3:2|0:0,0:0:0:0:
269,290,7673,2,0,L|348:306,1,64,10|0,0:2|0:0,0:0:0:0:
435,323,8007,2,0,P|414:286|415:248,1,64,2|0,3:2|0:0,0:0:0:0:
510,200,8340,2,0,L|490:284,1,64,10|0,0:2|0:0,0:0:0:0:
423,182,8673,2,0,L|412:95,1,64,2|0,3:2|0:0,0:0:0:0:
362,30,9007,2,0,P|316:6|277:8,1,64,10|0,0:2|0:0,0:0:0:0:
165,107,9340,1,2,3:2:0:0:
298,94,9507,1,2,0:2:0:0:
208,35,9673,1,10,0:2:0:0:
313,110,9840,6,0,L|289:235,1,128,2|0,0:2|0:0,0:0:0:0:
238,318,10340,2,0,P|196:279|166:271,1,64,10|0,0:2|0:0,0:0:0:0:
82,372,10673,2,0,L|172:362,1,64,2|0,3:2|0:0,0:0:0:0:
126,220,11007,2,0,L|62:227,1,64,10|0,0:2|0:0,0:0:0:0:
100,64,11340,6,0,L|83:154,1,64,2|0,3:2|0:0,0:0:0:0:
207,126,11673,1,10,0:2:0:0:
207,126,11840,2,0,L|224:216,1,64,2|0,0:2|3:2,0:0:0:0:
338,50,12173,2,0,L|321:140,1,64,2|8,0:2|0:2,0:0:0:0:
462,237,12507,6,0,L|434:98,1,128,2|0,0:2|0:0,0:0:0:0:
304,202,13007,2,0,P|350:219|380:210,1,64,10|0,0:2|0:0,0:0:0:0:
257,268,13340,2,0,P|247:298|252:329,1,64,2|0,3:2|0:0,0:0:0:0:
184,232,13673,2,0,P|152:227|122:238,1,64,10|0,0:2|0:0,0:0:0:0:
31,339,14007,6,0,L|41:184,1,128,2|10,3:2|0:2,0:0:0:0:
81,77,14507,2,0,L|95:155,1,64,2|0,0:2|3:2,0:0:0:0:
186,23,14840,2,0,L|174:85,1,64,2|8,0:2|0:2,0:0:0:0:
287,197,15173,2,0,L|259:73,1,128,2|0,0:2|0:0,0:0:0:0:
419,110,15673,2,0,P|376:117|341:107,1,64,10|0,0:2|0:0,0:0:0:0:
508,69,16007,2,0,L|502:150,1,64,2|0,3:2|0:0,0:0:0:0:
383,223,16340,2,0,P|421:201|457:199,1,64,8|0,0:2|0:0,0:0:0:0:
351,302,16673,5,6,3:2:0:0:
277,161,16840,1,2,0:2:0:0:
235,335,17007,1,8,0:2:0:0:
264,258,17173,2,0,L|303:249,1,32,2|8,0:2|0:2,0:0:0:0:
189,216,17340,1,8,0:2:0:0:
157,211,17423,1,10,0:2:0:0:
125,207,17506,1,8,0:2:0:0:
93,203,17589,1,8,0:2:0:0:
49,197,17673,2,0,L|65:248,3,32,8|10|8|8,0:2|0:2|0:2|0:2,0:0:0:0:
147,127,18007,6,0,P|166:88|158:38,1,80,6|0,3:2|0:0,0:0:0:0:
0,66,18340,2,0,L|103:79,1,80,10|0,0:2|0:0,0:0:0:0:
247,128,18673,2,0,L|326:117,1,80,2|0,3:2|0:0,0:0:0:0:
429,58,19007,1,10,0:2:0:0:
487,195,19173,1,2,0:2:0:0:
424,79,19340,6,0,L|408:170,1,80,2|0,3:2|0:0,0:0:0:0:
503,297,19673,2,0,L|487:206,1,80,10|0,0:2|0:0,0:0:0:0:
322,220,20007,1,2,3:2:0:0:
416,265,20173,1,14,0:2:0:0:
251,292,20340,1,0,3:2:0:0:
331,384,20507,6,0,P|343:342|329:276,1,80,14|0,0:2|3:2,0:0:0:0:
234,207,20840,1,0,0:0:0:0:
155,326,21007,2,0,L|57:314,1,80,10|0,0:2|0:0,0:0:0:0:
8,201,21340,2,0,L|106:189,1,80,2|0,3:2|0:0,0:0:0:0:
191,77,21673,2,0,L|93:65,1,80,10|0,0:2|0:0,0:0:0:0:
234,207,22007,5,10,0:2:0:0:
261,201,22090,1,8,0:2:0:0:
288,196,22173,1,8,0:2:0:0:
316,190,22256,1,8,0:2:0:0:
343,184,22340,2,0,P|349:152|350:131,3,40,10|8|8|8,0:2|0:2|0:2|0:2,0:0:0:0:
330,289,22673,1,2,3:2:0:0:
463,347,22840,2,0,L|455:257,1,80,14|0,0:2|3:2,0:0:0:0:
460,92,23173,6,0,P|423:157|342:136,1,160,14|0,0:2|0:0,0:0:0:0:
232,35,23673,2,0,P|176:23|142:32,1,80,10|0,0:2|0:0,0:0:0:0:
23,127,24007,2,0,L|128:100,1,80,2|0,3:2|0:0,0:0:0:0:
212,219,24340,2,0,L|107:192,1,80,10|0,0:2|0:0,0:0:0:0:
294,165,24673,6,0,P|312:211|300:256,1,80,2|0,3:2|0:0,0:0:0:0:
163,374,25007,2,0,L|142:258,1,80,10|0,0:2|0:0,0:0:0:0:
214,110,25340,1,2,3:0:0:0:
214,110,25423,1,2,3:0:0:0:
214,110,25507,2,0,P|261:78|306:85,1,80,2|2,3:0|3:0,0:0:0:0:
453,178,25840,6,0,L|270:163,1,160,14|2,0:2|3:2,0:0:0:0:
360,259,26340,1,10,0:2:0:0:
378,81,26507,1,0,3:2:0:0:
187,190,26673,2,0,L|267:180,1,80,10|0,0:2|3:2,0:2:0:0:
216,268,27007,1,10,0:2:0:0:
76,155,27173,1,0,3:2:0:0:
76,155,27257,1,0,3:2:0:0:
76,155,27340,6,0,P|52:102|64:59,1,88.000002685547,10|8,0:2|0:2,0:0:0:0:
243,129,27673,2,0,P|210:180|174:191,1,88.000002685547,10|8,0:2|0:2,0:0:0:0:
129,283,27923,1,8,0:0:0:0:
129,283,28007,2,0,L|225:266,1,88.000002685547,10|8,0:2|0:2,0:0:0:0:
269,357,28257,1,8,0:0:0:0:
269,357,28340,2,0,L|365:340,1,88.000002685547,10|8,0:2|0:2,0:0:0:0:
358,173,28673,6,0,P|336:219|342:274,1,95.9999970703126,6|0,3:2|0:0,0:0:0:0:
512,89,29007,2,0,L|406:102,1,95.9999970703126,10|0,0:2|0:0,0:0:0:0:
267,135,29340,1,2,3:2:0:0:
277,0,29507,2,0,P|317:28|330:82,1,95.9999970703126,2|10,0:2|0:2,0:0:0:0:
190,199,29840,6,0,L|168:80,1,95.9999970703126,2|0,0:2|3:2,0:0:0:0:
285,232,30173,1,2,0:2:0:0:
72,280,30340,2,0,L|94:161,1,95.9999970703126,10|0,0:2|0:0,0:0:0:0:
240,307,30673,1,0,3:2:0:0:
143,341,30840,1,0,0:0:0:0:
345,313,31007,1,8,0:2:0:0:
190,199,31173,1,0,0:0:0:0:
312,121,31340,6,0,L|299:238,1,95.9999970703126,2|0,3:2|0:0,0:0:0:0:
252,37,31673,2,0,P|343:21|409:87,1,191.999994140625,8|0,0:2|3:2,0:0:0:0:
199,112,32173,2,0,L|90:91,1,95.9999970703126,2|8,0:2|0:2,0:0:0:0:
0,227,32507,2,0,L|205:196,1,191.999994140625,2|2,0:2|0:2,0:0:0:0:
401,241,33007,2,0,P|398:319|364:345,1,95.9999970703126,8|0,0:2|0:0,0:0:0:0:
199,360,33340,1,0,3:2:0:0:
328,272,33507,1,0,3:2:0:0:
171,267,33673,1,8,0:2:0:0:
297,364,33840,1,0,0:0:0:0:
254,212,34007,6,0,L|244:104,1,95.9999970703126,2|0,3:2|0:0,0:0:0:0:
140,39,34340,2,0,L|130:147,1,95.9999970703126,10|0,0:2|0:0,0:0:0:0:
118,259,34673,1,0,3:2:0:0:
258,103,34840,2,0,P|307:90|365:106,1,95.9999970703126,2|8,0:2|0:2,0:0:0:0:
496,209,35173,6,0,B|419:191|419:191|378:201|378:201|297:184,1,191.999994140625,2|0,0:2|0:0,0:0:0:0:
179,331,35673,2,0,B|256:313|256:313|297:323|297:323|378:306,1,191.999994140625,10|0,0:2|3:2,0:0:0:0:
118,259,36173,1,0,0:0:0:0:
118,259,36340,2,0,P|83:309|83:345,1,95.9999970703126,8|2,0:2|0:2,0:0:0:0:
243,201,36673,6,0,P|245:108|226:81,1,95.9999970703126,2|0,3:2|0:0,0:0:0:0:
146,42,37007,1,8,0:2:0:0:
342,47,37173,1,2,0:2:0:0:
159,161,37340,2,0,L|39:147,1,95.9999970703126,2|0,3:2|0:0,0:0:0:0:
206,303,37673,2,0,L|326:289,1,95.9999970703126,8|8,0:2|0:2,0:0:0:0:
301,291,37923,1,8,0:2:0:0:
301,291,38007,6,0,P|351:254|354:203,1,95.9999970703126,6|0,3:2|0:0,0:0:0:0:
250,43,38340,2,0,P|257:104|300:133,1,95.9999970703126,8|2,0:2|0:2,0:0:0:0:
480,66,38673,1,10,0:2:0:0:
446,61,38756,1,8,0:2:0:0:
413,57,38839,1,8,0:2:0:0:
380,53,38923,1,8,0:2:0:0:
346,48,39007,2,0,L|356:102,3,47.9999985351563,8|8|8|8,0:2|0:2|0:2|0:2,0:0:0:0:
417,159,39340,6,0,L|401:263,1,95.9999970703126,6|0,3:2|0:0,0:0:0:0:
244,122,39673,2,0,L|260:226,1,95.9999970703126,10|0,0:2|0:0,0:0:0:0:
270,333,40007,1,2,3:2:0:0:
160,243,40173,2,0,P|97:215|50:219,1,95.9999970703126,2|8,0:2|0:2,0:0:0:0:
175,348,40507,6,0,L|313:326,1,95.9999970703126,2|0,0:2|3:2,0:0:0:0:
402,253,40840,1,2,0:2:0:0:
482,371,41007,2,0,L|350:352,1,95.9999970703126,10|0,0:2|0:0,0:0:0:0:
249,252,41340,2,0,P|222:205|218:142,1,95.9999970703126,0|0,3:2|0:0,0:0:0:0:
348,32,41673,1,8,0:2:0:0:
315,175,41840,1,2,0:0:0:0:
147,99,42007,6,0,B|189:73|189:73|273:75,1,95.9999970703126,2|0,3:2|0:0,0:0:0:0:
91,177,42340,2,0,P|45:111|94:20,1,191.999994140625,8|0,0:2|3:2,0:0:0:0:
215,164,42840,2,0,L|206:290,1,95.9999970703126,2|8,0:2|0:2,0:0:0:0:
427,216,43173,6,0,L|418:90,1,95.9999970703126,2|0,0:2|3:2,0:0:0:0:
235,74,43507,1,2,0:2:0:0:
309,313,43673,2,0,L|318:187,1,95.9999970703126,8|0,0:2|0:0,0:0:0:0:
121,203,44007,1,0,3:2:0:0:
208,259,44173,1,0,3:2:0:0:
114,108,44340,2,0,P|59:126|36:185,1,95.9999970703126,8|0,0:2|0:0,0:0:0:0:
105,294,44673,6,0,B|123:256|123:256|118:161,1,95.9999970703126,6|0,3:2|0:0,0:0:0:0:
22,37,45007,2,0,B|60:19|60:19|155:24,1,95.9999970703126,10|0,0:2|0:0,0:0:0:0:
295,96,45340,1,0,3:2:0:0:
221,165,45507,2,0,P|199:110|204:59,1,95.9999970703126,2|8,0:2|0:2,0:0:0:0:
399,52,45840,6,0,L|384:171,1,95.9999970703126,2|0,0:2|3:2,0:0:0:0:
488,218,46173,1,2,0:0:0:0:
321,297,46340,2,0,L|306:178,1,95.9999970703126,10|0,0:2|0:0,0:0:0:0:
418,335,46673,1,0,3:2:0:0:
217,278,46840,1,0,0:0:0:0:
419,237,47007,1,8,0:2:0:0:
261,376,47173,1,2,0:2:0:0:
261,376,47257,1,2,0:0:0:0:
261,376,47340,6,0,P|213:381|111:290,1,191.999994140625,6|8,3:2|0:2,0:0:0:0:
132,139,47840,1,2,0:2:0:0:
52,239,48007,2,0,B|112:263|112:263|275:228,1,191.999994140625,2|8,3:2|0:2,0:0:0:0:
322,79,48507,1,8,0:2:0:0:
233,26,48673,6,0,P|225:83|240:133,1,95.9999970703126,6|0,3:2|0:0,0:0:0:0:
376,200,49007,1,8,0:2:0:0:
149,169,49173,1,2,0:2:0:0:
322,79,49340,1,10,0:2:0:0:
271,289,49507,1,8,0:2:0:0:
223,96,49673,1,8,0:2:0:0:
194,78,49756,1,8,0:2:0:0:
162,70,49839,1,8,0:2:0:0:
128,72,49923,1,8,0:2:0:0:
97,83,50007,6,0,B|73:110|73:110|54:186,1,95.9999970703126,6|0,3:2|0:0,0:0:0:0:
46,299,50340,2,0,P|95:249|228:269,1,191.999994140625,10|0,0:0|3:0,0:0:0:0:
349,360,50840,2,0,B|322:344|287:357|287:357|269:329|269:329|222:357|169:343,1,191.999994140625,10|0,0:0|0:0,0:0:0:0:
453,193,51340,6,0,B|477:229|454:269|454:269|457:326|457:326|430:384,1,191.999994140625,10|0,0:0|0:0,0:0:0:0:
343,84,51840,2,0,B|319:120|342:160|342:160|339:217|339:217|366:275,1,191.999994140625,10|0,0:0|0:0,0:0:0:0:
512,131,52340,2,0,B|466:107|466:107|411:115,2,95.9999970703126,10|2|6,0:0|0:0|3:2,0:0:0:0:
230,50,53007,6,0,L|420:22,1,191.999994140625,10|0,0:0|3:0,0:0:0:0:
220,143,53507,2,0,L|409:114,1,191.999994140625,10|0,0:0|0:0,0:0:0:0:
182,237,54007,2,0,P|133:200|134:68,1,191.999994140625,10|0,0:0|3:0,0:0:0:0:
257,306,54507,2,0,P|205:339|81:293,1,191.999994140625,10|0,0:0|0:0,0:0:0:0:
360,265,55007,2,0,L|348:369,1,95.9999970703126,10|2,0:0|0:0,0:0:0:0:
338,180,55340,6,0,B|380:163|380:163|406:186|406:186|497:203,1,143.999995605469,6|0,3:2|0:0,0:0:0:0:
468,197,55673,2,0,P|488:129|378:54,1,191.999994140625,10|0,0:0|3:0,0:0:0:0:
211,229,56173,2,0,B|151:248|151:248|10:212,1,191.999994140625,10|0,0:0|0:0,0:0:0:0:
271,149,56673,6,0,L|237:355,1,191.999994140625,10|0,0:0|3:0,0:0:0:0:
119,59,57173,2,0,L|153:265,1,191.999994140625,10|0,0:0|0:0,0:0:0:0:
361,105,57673,1,8,0:0:0:0:
341,77,57756,1,8,0:0:0:0:
313,58,57839,1,8,0:0:0:0:
281,51,57923,1,8,0:0:0:0:
247,56,58007,6,0,L|226:166,2,95.9999970703126,14|0|0,0:0|3:0|3:0,0:0:0:0:
438,22,58507,2,0,L|450:213,1,191.999994140625,14|0,0:0|3:0,0:0:0:0:
273,259,59007,2,0,P|338:221|377:223,2,95.9999970703126,14|0|0,0:0|3:0|3:0,0:0:0:0:
120,369,59507,6,0,P|159:335|87:206,1,191.999994140625,14|0,0:0|3:0,0:0:0:0:
6,158,60007,1,0,3:0:0:0:
82,291,60173,1,0,3:0:0:0:
232,163,60340,1,8,0:0:0:0:
272,137,60423,1,8,0:0:0:0:
319,128,60506,1,8,0:0:0:0:
366,136,60590,1,8,0:0:0:0:
408,159,60673,6,0,L|426:263,1,95.9999970703126,6|0,3:2|0:0,0:0:0:0:
296,353,61007,2,0,L|312:258,1,95.9999970703126,10|0,0:2|0:0,0:0:0:0:
119,198,61340,1,2,3:2:0:0:
213,289,61507,1,2,0:2:0:0:
161,107,61673,1,10,0:2:0:0:
87,301,61840,6,0,P|37:295|-1:270,1,95.9999970703126,2|0,0:2|3:2,0:0:0:0:
22,173,62173,1,2,0:2:0:0:
213,289,62340,2,0,L|195:399,1,95.9999970703126,10|0,0:2|0:0,0:0:0:0:
371,297,62673,2,0,L|353:187,1,95.9999970703126,0|0,3:2|0:0,0:0:0:0:
239,49,63007,6,0,P|306:115|370:107,1,143.999995605469,8|0,0:2|0:0,0:0:0:0:
350,114,63340,2,0,P|411:82|463:88,1,95.9999970703126,2|0,3:2|0:0,0:0:0:0:
512,193,63673,2,0,L|405:175,1,95.9999970703126,8|0,0:2|0:0,0:0:0:0:
329,260,64007,1,0,3:2:0:0:
250,131,64173,2,0,L|141:148,1,95.9999970703126,2|8,0:2|0:2,0:0:0:0:
48,288,64507,6,0,P|42:342|55:385,1,95.9999970703126,2|0,0:2|3:2,0:0:0:0:
179,252,64840,1,2,0:2:0:0:
67,165,65007,2,0,B|50:142|50:142|61:54,1,95.9999970703126,8|0,0:2|0:0,0:0:0:0:
239,70,65340,2,0,P|191:107|150:106,1,95.9999970703126,0|0,3:2|3:2,0:0:0:0:
319,0,65673,2,0,P|365:5|400:37,1,95.9999970703126,8|0,0:2|0:0,0:0:0:0:
336,194,66007,6,0,L|319:83,1,95.9999970703126,2|0,3:2|0:0,0:0:0:0:
480,136,66340,2,0,L|447:337,1,191.999994140625,10|0,0:2|3:2,0:0:0:0:
331,362,66840,2,0,P|270:333|224:334,1,95.9999970703126,2|8,0:2|0:2,0:0:0:0:
49,348,67173,2,0,P|124:359|234:283,1,191.999994140625,2|0,0:2|0:0,0:0:0:0:
73,165,67673,2,0,P|94:238|134:270,1,95.9999970703126,10|0,0:2|0:0,0:0:0:0:
267,132,68007,1,0,3:2:0:0:
129,83,68173,1,0,0:0:0:0:
352,77,68340,1,8,0:2:0:0:
171,171,68507,1,2,0:2:0:0:
328,307,68673,6,0,B|374:334|374:334|527:308,1,191.999994140625,2|8,3:2|0:2,0:0:0:0:
282,223,69173,1,2,0:2:0:0:
282,223,69340,2,0,P|228:279|261:378,1,191.999994140625,2|8,3:2|0:2,0:0:0:0:
399,239,69840,1,8,0:2:0:0:
399,239,69923,1,8,0:2:0:0:
399,239,70007,6,0,L|406:142,1,95.9999970703126,6|0,3:2|0:0,0:0:0:0:
304,42,70340,2,0,L|311:139,1,95.9999970703126,8|2,0:2|0:2,0:0:0:0:
229,282,70673,1,10,0:2:0:0:
200,299,70756,1,8,0:2:0:0:
167,303,70839,1,8,0:2:0:0:
134,295,70922,1,8,0:2:0:0:
108,275,71007,2,0,L|98:224,3,47.9999985351563,8|8|8|8,0:2|0:2|0:2|0:2,0:0:0:0:
179,202,71340,6,0,L|190:76,1,95.9999970703126,6|0,3:2|0:0,0:0:0:0:
50,20,71673,2,0,P|103:61|247:37,1,191.999994140625,10|2,0:2|3:2,0:0:0:0:
393,22,72173,2,0,P|329:25|296:50,1,95.9999970703126,2|8,0:2|0:2,0:0:0:0:
335,220,72507,6,0,B|380:255|380:255|366:81,1,191.999994140625,2|2,0:2|0:2,0:0:0:0:
466,257,73007,2,0,L|456:132,1,95.9999970703126,10|0,0:2|0:0,0:0:0:0:
267,142,73340,1,0,3:2:0:0:
335,220,73507,1,0,0:0:0:0:
178,276,73673,1,8,0:2:0:0:
360,229,73840,1,2,0:0:0:0:
168,177,74007,6,0,L|70:187,1,95.9999970703126,2|0,3:2|0:0,0:0:0:0:
203,154,74340,2,0,L|-2:175,1,191.999994140625,8|0,0:2|3:2,0:0:0:0:
266,80,74840,2,0,P|301:133|295:175,1,95.9999970703126,2|8,0:2|0:2,0:0:0:0:
226,345,75173,6,0,L|209:213,1,95.9999970703126,2|0,0:2|3:2,0:0:0:0:
353,373,75507,1,2,0:2:0:0:
353,373,75673,2,0,L|365:277,1,95.9999970703126,8|0,0:2|0:0,0:0:0:0:
429,149,76007,1,0,3:2:0:0:
489,295,76173,1,0,3:2:0:0:
337,190,76339,1,8,0:2:0:0:
512,99,76506,1,0,0:0:0:0:
351,27,76673,6,0,P|287:13|235:20,1,95.9999970703126,6|0,3:2|0:0,0:0:0:0:
111,164,77007,2,0,P|182:176|276:106,1,191.999994140625,10|0,0:2|3:2,0:0:0:0:
34,99,77507,2,0,P|11:159|22:217,1,95.9999970703126,2|8,0:2|0:2,0:0:0:0:
108,365,77840,6,0,L|126:254,1,95.9999970703126,2|0,0:2|3:2,0:0:0:0:
169,72,78173,1,2,0:0:0:0:
237,197,78340,2,0,P|287:203|349:175,1,95.9999970703126,10|0,0:2|0:0,0:0:0:0:
436,44,78673,2,0,P|393:77|376:120,1,95.9999970703126,0|0,3:2|0:0,0:0:0:0:
438,279,79007,1,8,0:2:0:0:
484,141,79173,1,2,0:2:0:0:
330,190,79340,6,0,L|349:390,1,191.999994140625,6|8,3:2|0:2,0:0:0:0:
239,113,79840,1,2,0:2:0:0:
239,113,80007,2,0,L|220:313,1,191.999994140625,2|8,3:2|0:2,0:0:0:0:
86,344,80507,1,8,0:2:0:0:
28,185,80673,6,0,P|16:97|96:10,1,191.999994140625,6|8,3:2|0:2,0:0:0:0:
208,136,81173,1,2,0:2:0:0:
208,136,81340,2,0,L|109:119,1,95.9999970703126,10|8,0:2|0:2,0:0:0:0:
293,42,81673,1,8,0:2:0:0:
327,36,81756,1,8,0:2:0:0:
361,30,81839,1,8,0:2:0:0:
395,24,81922,1,8,0:2:0:0:
430,18,82007,6,0,L|415:117,2,80,6|2|10,3:2|0:2|0:2,0:0:0:0:
332,153,82507,1,2,0:2:0:0:
486,240,82673,2,0,L|480:146,1,80,2|2,3:2|0:2,0:0:0:0:
234,176,83007,6,0,P|305:254|368:246,1,160,10|0,0:2|3:2,0:0:0:0:
219,73,83507,2,0,P|172:93|149:121,1,80,2|8,0:2|0:2,0:0:0:0:
38,158,83840,2,0,P|85:178|108:206,1,80,2|0,0:2|3:2,0:0:0:0:
197,262,84173,2,0,P|150:282|127:310,1,80,14|8,0:2|0:2,0:0:0:0:
351,347,84507,6,0,L|375:170,1,160,14|2,0:2|0:2,0:0:0:0:
448,62,85007,2,0,L|467:164,1,80,10|2,0:2|0:2,0:0:0:0:
341,15,85340,2,0,L|356:94,1,80,2|2,3:2|3:2,0:0:0:0:
254,92,85673,2,0,L|287:259,1,160,10|0,0:2|3:0,0:0:0:0:
150,360,86173,2,0,P|130:318|141:274,1,80,2|8,0:0|0:0,0:0:0:0:
45,255,86507,2,0,P|60:211|99:187,1,80,2|0,0:0|3:0,0:0:0:0:
45,106,86840,2,0,P|87:86|131:97,1,80,14|0,0:0|0:0,0:0:0:0:
227,178,87173,6,0,P|286:199|352:158,1,128,2|2,0:0|0:0,0:0:0:0:
443,103,87673,2,0,L|433:166,1,64,2|2,0:0|0:0,0:0:0:0:
501,228,88007,2,0,L|511:292,1,64,2|2,0:0|0:0,0:0:0:0:
442,365,88340,2,0,P|370:326|276:338,1,167.999994873047,2|0,0:0|0:0,0:0:0:0:
