osu file format v14

[General]
AudioFilename: audio.mp3
AudioLeadIn: 0
PreviewTime: 28528
Countdown: 0
SampleSet: Soft
StackLeniency: 0.7
Mode: 0
LetterboxInBreaks: 0
WidescreenStoryboard: 0

[Editor]
Bookmarks: 17211,18211,49928,57928,60594,84478,89811
DistanceSpacing: 1
BeatDivisor: 4
GridSize: 4
TimelineZoom: 2.1

[Metadata]
Title:Spiral
TitleUnicode:スパイラル
Artist:KANA-BOON
ArtistUnicode:KANA-BOON
Creator:Nevo
Version:Hokage
Source:NARUTO-ナルト- 疾風伝 ナルティメットストーム4
Tags:nine tail fox bijuu dama rasengan sage of six paths Ultimate Ninja Storm 4 no jutsu shippuuden shipuuden shippuden kanaboon kana-boom kanaboom hokage kage shadow Tailed Beast Super Ultra Rasenshuriken Jutsu Technique video game anime shounen japanese rock cut version short ost soundtrack edit jrock j-rock 谷口鮪 Taniguchi maguro opening cutscene trailer road to boruto dlc
BeatmapID:3032168
BeatmapSetID:1477925

[Difficulty]
HPDrainRate:6
CircleSize:4
OverallDifficulty:9
ApproachRate:9.3
SliderMultiplier:1.7
SliderTickRate:1

[Events]
//Background and Video events
0,0,"naruto.jpg",0,0
//Break Periods
//Storyboard Layer 0 (Background)
//Storyboard Layer 1 (Fail)
//Storyboard Layer 2 (Pass)
//Storyboard Layer 3 (Foreground)
//Storyboard Layer 4 (Overlay)
//Storyboard Sound Samples

[TimingPoints]
695,333.333333333333,4,2,1,70,1,0
1861,-90.9090909090909,4,2,1,80,0,0
3028,-111.111111111111,4,2,1,80,0,0
3361,-90.9090909090909,4,2,1,80,0,0
4528,-85.4700854700855,4,2,1,80,0,0
4674,333.333333333333,4,2,1,80,1,0
4674,-90.9090909090909,4,2,1,80,0,0
5667,-111.111111111111,4,2,1,80,0,0
6000,-90.9090909090909,4,2,1,80,0,0
7167,-100,4,2,1,70,0,0
18001,-100,4,2,1,75,0,0
25834,-90.9090909090909,4,2,1,75,0,0
28673,-76.9230769230769,4,2,1,90,0,1
50007,-76.9230769230769,4,2,1,85,0,0
58001,-76.9230769230769,4,2,1,90,0,0
60673,-76.9230769230769,4,2,1,90,0,1
82007,-100,4,2,1,80,0,0
83001,-111.111111111111,4,2,1,80,0,0
83334,-90.9090909090909,4,2,1,80,0,0
85667,-111.111111111111,4,2,1,80,0,0
86000,-90.9090909090909,4,2,1,80,0,0
87167,-100,4,2,1,60,0,0
88334,-125,4,2,1,60,0,0
88667,-125,4,2,1,5,0,0

[Colours]
Combo1 : 255,70,70
Combo2 : 255,143,32
Combo3 : 0,89,255

[HitObjects]
165,162,695,6,0,L|102:146,1,42.5,10|0,0:0|3:0,0:0:0:0:
342,111,861,2,0,L|405:95,1,42.5,0|0,3:0|3:0,0:0:0:0:
241,33,1028,2,0,L|234:91,1,42.5,0|0,3:0|3:0,0:0:0:0:
295,257,1194,2,0,L|288:199,1,42.5,0|0,3:0|3:0,0:0:0:0:
153,282,1361,5,8,3:2:0:0:
455,326,1528,1,8,3:2:0:0:
455,326,1861,6,0,L|472:224,1,93.5000028533936,14|0,0:2|0:0,0:0:0:0:
430,94,2194,1,2,0:2:0:0:
289,214,2361,2,0,P|244:232|182:216,1,93.5000028533936,10|2,0:2|0:2,0:0:0:0:
78,85,2694,1,2,3:2:0:0:
280,119,2861,1,2,3:2:0:0:
94,191,3028,2,0,B|74:227|74:227|93:363,1,152.999995330811,10|2,0:2|3:2,0:0:0:0:
166,103,3528,6,0,P|119:82|73:86,1,93.5000028533936,2|8,0:2|0:2,0:0:0:0:
278,79,3861,2,0,P|259:30|224:1,1,93.5000028533936,2|0,0:2|3:2,0:0:0:0:
374,141,4194,2,0,P|395:93|391:47,1,93.5000028533936,2|8,3:2|0:2,0:0:0:0:
242,219,4528,6,0,P|329:189|429:194,1,187.000005706787,2|2,0:2|0:2,0:0:0:0:
257,328,5007,2,0,P|193:327|148:290,1,93.5000028533936,10|2,0:2|0:2,0:0:0:0:
355,281,5340,1,2,3:2:0:0:
143,322,5507,1,2,3:2:0:0:
242,219,5673,2,0,L|267:69,1,152.999995330811,10|0,0:2|3:2,0:0:0:0:
74,90,6173,6,0,B|100:112|100:112|173:106,1,93.5000028533936,2|8,0:2|0:2,0:0:0:0:
445,76,6507,2,0,B|419:54|419:54|346:60,1,93.5000028533936,2|0,0:2|3:2,0:0:0:0:
84,185,6840,1,14,0:2:0:0:
381,153,7007,1,8,0:2:0:0:
256,307,7173,6,0,L|87:293,1,170,14|0,0:2|0:0,0:0:0:0:
0,195,7673,2,0,L|102:184,1,85,10|0,0:2|0:0,0:0:0:0:
226,108,8007,2,0,L|124:97,1,85,2|0,3:2|0:0,0:0:0:0:
301,45,8340,2,0,P|325:81|319:141,1,85,10|0,0:2|0:0,0:0:0:0:
270,291,8673,6,0,L|252:192,1,85,2|0,3:2|0:0,0:0:0:0:
428,285,9007,2,0,L|410:384,1,85,10|0,0:2|0:0,0:0:0:0:
183,342,9340,1,2,3:2:0:0:
351,232,9507,1,2,0:2:0:0:
213,213,9673,1,10,0:2:0:0:
270,291,9840,6,0,P|310:236|246:125,1,170,2|0,0:2|0:0,0:0:0:0:
117,92,10340,2,0,P|173:124|197:125,1,85,10|0,0:2|0:0,0:0:0:0:
279,28,10673,2,0,L|169:39,1,85,2|0,3:2|0:0,0:0:0:0:
347,85,11007,2,0,L|457:96,1,85,10|0,0:2|0:0,0:0:0:0:
402,267,11340,6,0,P|376:219|388:167,1,85,2|0,3:2|0:0,0:0:0:0:
451,365,11673,1,10,0:2:0:0:
451,365,11840,2,0,L|354:351,1,85,2|0,0:2|3:2,0:0:0:0:
261,266,12173,2,0,L|176:278,1,85,2|8,0:2|0:2,0:0:0:0:
28,370,12507,6,0,P|85:302|47:197,1,170,2|0,0:2|0:0,0:0:0:0:
51,92,13007,2,0,P|86:131|138:144,1,85,10|0,0:2|0:0,0:0:0:0:
232,36,13340,2,0,P|166:35|143:49,1,85,2|0,3:2|0:0,0:0:0:0:
296,119,13673,2,0,P|334:70|339:38,1,85,10|0,0:2|0:0,0:0:0:0:
202,126,14007,6,0,L|216:251,1,85,2|0,3:2|0:0,0:0:0:0:
196,321,14340,1,10,0:2:0:0:
196,321,14507,2,0,P|249:282|302:284,1,85,2|0,0:2|3:2,0:0:0:0:
373,345,14840,1,2,0:2:0:0:
322,218,15007,1,8,0:2:0:0:
440,87,15173,6,0,B|466:129|466:129|435:259,1,170,2|0,0:2|0:0,0:0:0:0:
324,108,15673,2,0,P|314:54|331:9,1,85,10|0,0:2|0:0,0:0:0:0:
322,218,16007,2,0,L|237:205,1,85,2|0,3:2|0:0,0:0:0:0:
126,116,16340,2,0,L|211:103,1,85,8|0,0:2|0:0,0:0:0:0:
90,203,16673,5,6,3:2:0:0:
160,20,16840,1,2,0:2:0:0:
196,200,17007,1,8,0:2:0:0:
26,123,17173,1,2,0:2:0:0:
19,290,17340,1,8,0:2:0:0:
56,309,17423,1,10,0:2:0:0:
98,314,17506,1,8,0:2:0:0:
139,303,17589,1,8,0:2:0:0:
173,278,17673,1,8,0:2:0:0:
211,259,17757,1,10,0:2:0:0:
253,254,17840,1,8,0:2:0:0:
294,265,17923,1,8,0:2:0:0:
328,290,18007,6,0,P|351:227|338:151,1,127.5,6|0,3:2|0:0,0:0:0:0:
330,75,18340,2,0,L|316:177,1,85,10|0,0:2|0:0,0:0:0:0:
461,268,18673,2,0,L|449:183,1,85,2|0,3:2|0:0,0:0:0:0:
239,95,19007,1,10,0:2:0:0:
442,44,19173,1,2,0:2:0:0:
253,221,19340,6,0,L|159:196,1,85,2|0,3:2|0:0,0:0:0:0:
364,332,19673,2,0,L|458:307,1,85,10|0,0:2|0:0,0:0:0:0:
318,137,20007,1,2,3:2:0:0:
201,300,20173,1,14,0:2:0:0:
128,108,20340,1,0,3:2:0:0:
265,364,20507,6,0,P|296:288|252:220,1,170,14|0,0:2|0:0,0:0:0:0:
117,314,21007,2,0,L|214:297,1,85,10|0,0:2|0:0,0:0:0:0:
401,151,21340,2,0,L|304:134,1,85,2|0,3:2|0:0,0:0:0:0:
171,20,21673,1,10,0:2:0:0:
113,204,21840,1,0,0:0:0:0:
33,146,22007,5,10,0:2:0:0:
62,115,22090,1,8,0:2:0:0:
101,100,22173,1,8,0:2:0:0:
143,103,22256,1,8,0:2:0:0:
179,124,22340,1,10,0:2:0:0:
208,154,22423,1,8,0:2:0:0:
247,169,22506,1,8,0:2:0:0:
289,166,22589,1,8,0:2:0:0:
325,145,22673,6,0,L|330:95,1,42.5,2|0,3:2|0:0,0:0:0:0:
260,32,22840,1,14,0:2:0:0:
334,245,23007,1,0,3:2:0:0:
496,135,23173,6,0,P|464:126|400:140,1,85,14|2,0:2|3:2,0:0:0:0:
334,245,23507,1,0,0:0:0:0:
439,302,23673,2,0,L|453:201,1,85,10|0,0:2|0:0,0:0:0:0:
226,300,24007,2,0,L|240:401,1,85,2|0,3:2|0:0,0:0:0:0:
118,220,24340,1,10,0:2:0:0:
334,245,24507,1,0,0:0:0:0:
58,296,24673,6,0,P|23:240|26:192,1,85,2|0,3:2|0:0,0:0:0:0:
126,135,25007,2,0,L|116:240,1,85,10|0,0:2|0:0,0:0:0:0:
44,77,25340,1,2,3:0:0:0:
75,49,25423,1,2,3:0:0:0:
116,37,25506,1,2,3:0:0:0:
157,43,25589,1,2,3:0:0:0:
193,66,25673,2,0,L|207:128,1,42.5,2|0,3:0|0:0,0:0:0:0:
208,217,25840,6,0,B|184:228|184:228|84:214,1,93.5000028533936,14|0,0:2|0:0,0:0:0:0:
275,151,26173,1,2,3:2:0:0:
269,322,26340,1,10,0:2:0:0:
349,110,26507,1,0,3:0:0:0:
380,322,26673,1,8,0:2:0:0:
423,54,26840,1,0,3:0:0:0:
489,288,27007,1,8,0:2:0:0:
510,13,27173,1,0,3:2:0:0:
269,322,27340,5,10,0:2:0:0:
230,347,27423,1,8,0:2:0:0:
184,350,27506,1,8,0:2:0:0:
142,331,27590,1,8,0:2:0:0:
114,294,27673,1,10,0:2:0:0:
106,249,27756,1,8,0:2:0:0:
122,205,27839,1,8,0:2:0:0:
154,172,27924,1,8,0:2:0:0:
198,155,28007,1,10,0:2:0:0:
244,157,28090,1,8,0:2:0:0:
285,177,28173,1,8,0:2:0:0:
326,197,28258,1,8,0:2:0:0:
373,199,28341,1,10,0:2:0:0:
416,182,28424,1,8,0:2:0:0:
448,149,28507,1,8,0:2:0:0:
466,104,28590,1,8,0:2:0:0:
454,59,28673,6,0,P|396:48|334:79,1,110.499994941712,6|0,3:2|0:0,0:0:0:0:
208,264,29007,2,0,L|193:110,1,110.499994941712,10|0,0:2|0:0,0:0:0:0:
350,276,29340,1,2,3:2:0:0:
52,355,29507,2,0,L|72:204,1,110.499994941712,2|10,0:2|0:2,0:0:0:0:
444,303,29840,6,0,P|400:367|269:342,1,220.999989883423,2|2,0:2|0:2,0:0:0:0:
155,142,30340,2,0,B|202:129|202:129|268:150,1,110.499994941712,10|0,0:2|0:0,0:0:0:0:
433,203,30673,1,0,3:2:0:0:
202,256,30840,1,0,0:0:0:0:
295,54,31007,1,8,0:2:0:0:
272,346,31173,1,0,0:0:0:0:
65,184,31340,6,0,P|52:131|72:80,1,110.499994941712,2|0,3:2|0:0,0:0:0:0:
367,165,31673,2,0,P|288:133|128:153,1,220.999989883423,8|0,0:2|3:2,0:0:0:0:
51,296,32173,2,0,P|117:285|153:251,1,110.499994941712,2|8,0:2|0:2,0:0:0:0:
139,32,32507,6,0,L|156:158,1,110.499994941712,2|0,0:2|3:2,0:0:0:0:
382,71,32840,1,2,0:2:0:0:
270,308,33007,2,0,L|284:198,1,110.499994941712,8|0,0:2|0:0,0:0:0:0:
373,341,33340,1,0,3:2:0:0:
176,240,33507,1,0,3:2:0:0:
400,208,33673,1,8,0:2:0:0:
148,257,33840,1,0,0:0:0:0:
464,280,34007,6,0,P|495:230|480:156,1,110.499994941712,2|0,3:2|0:0,0:0:0:0:
271,26,34340,2,0,P|311:102|431:83,1,220.999989883423,10|0,0:2|3:2,0:0:0:0:
229,191,34840,2,0,P|168:157|125:158,1,110.499994941712,2|8,0:2|0:2,0:0:0:0:
340,327,35173,6,0,L|368:97,1,220.999989883423,2|0,0:2|0:0,0:0:0:0:
153,371,35673,2,0,L|147:228,1,110.499994941712,10|0,0:2|0:0,0:0:0:0:
47,123,36007,1,0,3:2:0:0:
260,219,36173,1,0,0:0:0:0:
180,21,36340,1,8,0:2:0:0:
43,236,36507,1,2,0:2:0:0:
339,131,36673,6,0,L|229:111,1,110.499994941712,2|0,3:2|0:0,0:0:0:0:
414,224,37007,1,8,0:2:0:0:
306,20,37173,1,2,0:2:0:0:
151,238,37340,2,0,L|261:218,1,110.499994941712,2|0,3:2|0:0,0:0:0:0:
95,331,37673,1,8,0:2:0:0:
191,134,37840,2,0,L|182:63,1,55.2499974708558,8|8,0:2|0:2,0:0:0:0:
75,5,38007,6,0,L|54:148,1,110.499994941712,6|0,3:2|0:0,0:0:0:0:
252,245,38340,1,8,0:2:0:0:
19,274,38507,1,2,0:2:0:0:
298,161,38673,1,10,0:2:0:0:
337,198,38756,1,8,0:2:0:0:
351,251,38839,1,8,0:2:0:0:
335,303,38923,1,8,0:2:0:0:
295,339,39006,1,8,0:2:0:0:
241,349,39089,1,8,0:2:0:0:
190,329,39173,1,8,0:2:0:0:
158,286,39256,1,8,0:2:0:0:
152,231,39340,6,0,L|170:88,1,110.499994941712,6|0,3:2|0:0,0:0:0:0:
498,138,39673,2,0,B|456:182|456:182|292:160,1,220.999989883423,10|2,0:2|3:2,0:0:0:0:
109,29,40173,2,0,P|164:11|217:30,1,110.499994941712,2|8,0:2|0:2,0:0:0:0:
41,289,40507,6,0,L|26:165,1,110.499994941712,2|0,0:2|3:2,0:0:0:0:
158,107,40840,1,2,0:2:0:0:
252,245,41007,2,0,P|318:259|370:234,1,110.499994941712,10|0,0:2|0:0,0:0:0:0:
454,77,41340,1,0,3:2:0:0:
303,160,41507,1,0,0:0:0:0:
458,226,41673,1,8,0:2:0:0:
280,165,41840,1,2,0:0:0:0:
511,153,42007,6,0,L|493:290,1,110.499994941712,2|0,3:2|0:0,0:0:0:0:
335,378,42340,2,0,L|300:139,1,220.999989883423,8|0,0:2|3:2,0:0:0:0:
95,269,42840,2,0,P|165:301|225:285,1,110.499994941712,2|8,0:2|0:2,0:0:0:0:
169,90,43173,6,0,B|148:128|148:128|167:222,1,110.499994941712,2|0,0:2|3:2,0:0:0:0:
256,32,43507,1,2,0:2:0:0:
256,32,43673,2,0,P|194:-1|64:63,1,220.999989883423,8|0,0:2|3:2,0:0:0:0:
310,167,44173,1,0,3:2:0:0:
354,17,44340,1,8,0:2:0:0:
169,90,44507,1,0,0:0:0:0:
401,237,44673,6,0,L|413:124,1,110.499994941712,6|0,3:2|0:0,0:0:0:0:
245,319,45007,2,0,P|309:263|435:306,1,220.999989883423,10|0,0:2|3:2,0:0:0:0:
173,384,45507,2,0,P|146:325|173:262,1,110.499994941712,2|8,0:2|0:2,0:0:0:0:
327,87,45840,6,0,L|449:71,1,110.499994941712,2|0,0:2|3:2,0:0:0:0:
309,209,46173,1,2,0:0:0:0:
186,24,46340,2,0,L|64:8,1,110.499994941712,10|0,0:2|0:0,0:0:0:0:
174,158,46673,1,0,3:2:0:0:
300,5,46840,1,0,0:0:0:0:
385,207,47007,1,8,0:2:0:0:
263,96,47173,1,2,0:2:0:0:
263,96,47257,1,2,0:0:0:0:
263,96,47340,6,0,L|274:218,1,110.499994941712,6|0,3:2|0:0,0:0:0:0:
382,305,47673,1,8,0:2:0:0:
151,221,47840,1,2,0:2:0:0:
119,347,48007,2,0,P|184:352|225:319,1,110.499994941712,2|0,3:2|0:0,0:0:0:0:
70,136,48340,2,0,P|33:189|41:241,1,110.499994941712,8|0,0:2|0:2,0:0:0:0:
252,171,48590,1,0,3:0:0:0:
252,171,48673,6,0,L|278:22,1,110.499994941712,6|0,3:2|0:0,0:0:0:0:
151,221,49007,1,8,0:2:0:0:
443,116,49173,1,2,0:2:0:0:
174,100,49340,1,10,0:2:0:0:
344,298,49507,1,8,0:2:0:0:
241,17,49673,1,8,0:2:0:0:
189,0,49756,1,8,0:2:0:0:
135,11,49839,1,8,0:2:0:0:
95,47,49923,1,8,0:2:0:0:
78,99,50007,6,0,L|98:233,1,110.499994941712,6|0,3:2|0:0,0:0:0:0:
140,329,50340,2,0,B|107:318|107:318|181:220|292:277,1,220.999989883423,10|0,0:0|3:0,0:0:0:0:
435,332,50840,2,0,B|424:365|424:365|326:291|383:180,1,220.999989883423,10|0,0:0|0:0,0:0:0:0:
477,36,51340,2,0,B|510:47|510:47|436:145|325:88,1,220.999989883423,10|0,0:0|3:0,0:0:0:0:
182,33,51840,2,0,B|193:0|193:0|291:74|234:185,1,220.999989883423,10|0,0:0|0:0,0:0:0:0:
140,329,52340,1,10,0:0:0:0:
377,226,52507,1,2,0:0:0:0:
135,182,52673,6,0,L|23:167,1,110.499994941712,6|0,3:2|0:0,0:0:0:0:
211,105,53007,2,0,P|249:209|139:280,1,220.999989883423,10|0,0:0|3:0,0:0:0:0:
98,73,53507,2,0,L|332:61,1,220.999989883423,10|0,0:0|0:0,0:0:0:0:
326,317,54007,2,0,P|288:213|398:142,1,220.999989883423,10|0,0:0|3:0,0:0:0:0:
439,349,54507,2,0,L|205:361,1,220.999989883423,10|0,0:0|0:0,0:0:0:0:
88,216,55007,1,10,0:0:0:0:
388,239,55173,1,2,0:0:0:0:
203,296,55340,6,0,P|182:241|183:180,1,110.499994941712,6|0,3:2|0:0,0:0:0:0:
254,75,55673,2,0,B|304:55|304:55|275:223,1,220.999989883423,10|0,0:0|3:0,0:0:0:0:
64,329,56173,2,0,P|81:266|205:307,1,220.999989883423,10|0,0:0|0:0,0:0:0:0:
364,364,56673,2,0,B|314:384|314:384|343:216,1,220.999989883423,10|0,0:0|3:0,0:0:0:0:
512,76,57173,2,0,P|495:139|371:98,1,220.999989883423,10|0,0:0|0:0,0:0:0:0:
205,23,57673,1,8,0:0:0:0:
168,10,57756,1,8,0:0:0:0:
130,10,57839,1,8,0:0:0:0:
93,23,57923,1,8,0:0:0:0:
64,48,58006,5,14,0:0:0:0:
276,131,58173,1,0,3:0:0:0:
65,188,58340,1,0,3:0:0:0:
304,160,58507,5,14,0:0:0:0:
134,115,58673,1,0,3:0:0:0:
401,109,58840,1,0,3:0:0:0:
164,300,59007,5,14,0:0:0:0:
409,245,59173,1,0,3:0:0:0:
199,168,59340,1,0,3:0:0:0:
435,266,59507,5,14,0:0:0:0:
118,218,59673,1,0,3:0:0:0:
311,98,59840,1,0,3:0:0:0:
303,357,60007,6,0,L|279:186,1,165.749992412568,0|0,3:0|3:0,0:0:0:0:
206,70,60340,2,0,L|145:57,1,55.2499974708558,8|8,0:0|0:0,0:0:0:0:
417,160,60507,2,0,L|478:147,1,55.2499974708558,8|8,0:0|0:0,0:0:0:0:
167,366,60673,6,0,L|186:234,1,110.499994941712,6|0,3:2|0:0,0:0:0:0:
401,367,61007,2,0,L|382:235,1,110.499994941712,10|0,0:2|0:0,0:0:0:0:
303,58,61340,1,2,3:2:0:0:
129,141,61507,2,0,P|194:173|245:165,1,110.499994941712,2|10,0:2|0:2,0:0:0:0:
453,99,61840,1,2,0:2:0:0:
200,77,62007,5,0,3:2:0:0:
298,248,62173,1,2,0:2:0:0:
383,13,62340,1,10,0:2:0:0:
230,170,62507,1,0,0:0:0:0:
420,251,62673,1,0,3:2:0:0:
420,251,62757,1,0,3:0:0:0:
420,251,62840,2,0,L|499:239,1,55.2499974708558,0|0,3:0|3:0,0:0:0:0:
252,364,63007,2,0,L|108:350,1,110.499994941712,8|0,0:2|0:0,0:0:0:0:
157,115,63340,6,0,P|213:175|223:221,1,110.499994941712,2|0,3:2|0:0,0:0:0:0:
63,120,63673,2,0,L|81:6,1,110.499994941712,8|0,0:2|0:0,0:0:0:0:
274,79,64007,1,0,3:2:0:0:
105,205,64173,2,0,B|53:218|53:218|-4:199,1,110.499994941712,2|8,0:2|0:2,0:0:0:0:
233,8,64507,6,0,L|208:142,1,110.499994941712,2|0,0:2|3:2,0:0:0:0:
185,280,64840,1,2,0:2:0:0:
345,180,65007,2,0,P|412:149|455:148,1,110.499994941712,8|0,0:2|0:0,0:0:0:0:
351,299,65340,1,0,3:2:0:0:
351,299,65423,1,0,3:2:0:0:
351,299,65507,2,0,L|282:291,1,55.2499974708558,0|0,3:2|3:2,0:0:0:0:
124,376,65673,2,0,L|259:356,1,110.499994941712,8|0,0:2|0:0,0:0:0:0:
63,103,66007,6,0,P|41:187|57:246,1,110.499994941712,2|0,3:2|0:0,0:0:0:0:
249,182,66340,2,0,L|122:165,1,110.499994941712,10|0,0:2|0:0,0:0:0:0:
173,298,66673,1,0,3:2:0:0:
328,232,66840,2,0,P|345:163|317:108,1,110.499994941712,2|8,0:2|0:2,0:0:0:0:
151,28,67173,6,0,L|164:153,1,110.499994941712,2|0,0:2|3:2,0:0:0:0:
426,103,67507,1,2,0:0:0:0:
256,63,67673,2,0,P|314:33|392:47,1,110.499994941712,10|0,0:2|0:0,0:0:0:0:
461,215,68007,1,0,3:2:0:0:
328,127,68173,1,0,0:0:0:0:
245,298,68340,1,8,0:2:0:0:
356,221,68507,1,2,3:2:0:0:
356,221,68590,1,0,3:0:0:0:
356,221,68673,6,0,L|216:204,1,110.499994941712,2|0,3:2|0:0,0:0:0:0:
175,107,69007,1,8,0:2:0:0:
106,344,69173,1,2,0:2:0:0:
39,256,69340,2,0,L|179:239,1,110.499994941712,2|0,3:2|0:0,0:0:0:0:
274,89,69673,1,8,0:2:0:0:
437,279,69840,1,8,0:2:0:0:
437,279,69923,1,8,0:2:0:0:
437,279,70007,6,0,P|454:219|434:170,1,110.499994941712,6|0,3:2|0:0,0:0:0:0:
252,84,70340,1,8,0:2:0:0:
283,337,70507,1,2,0:2:0:0:
357,220,70673,5,10,0:2:0:0:
318,215,70756,1,8,0:2:0:0:
280,211,70839,1,8,0:2:0:0:
241,206,70922,1,8,0:2:0:0:
205,178,71007,5,8,0:2:0:0:
150,184,71090,1,8,0:2:0:0:
95,190,71173,1,8,0:2:0:0:
40,196,71256,1,8,0:2:0:0:
2,238,71340,6,0,P|-16:172|8:111,1,110.499994941712,6|0,3:2|0:0,0:0:0:0:
136,0,71673,2,0,L|114:119,1,110.499994941712,10|0,0:2|0:0,0:0:0:0:
67,312,72007,1,2,3:2:0:0:
280,211,72173,2,0,L|258:92,1,110.499994941712,2|8,0:2|0:2,0:0:0:0:
498,210,72507,6,0,P|439:242|388:237,1,110.499994941712,2|0,0:2|3:2,0:0:0:0:
242,13,72840,1,2,0:2:0:0:
454,33,73007,2,0,L|430:165,1,110.499994941712,10|0,0:2|0:0,0:0:0:0:
239,304,73340,1,0,3:2:0:0:
439,274,73507,1,0,3:0:0:0:
203,189,73673,1,8,0:2:0:0:
502,214,73840,1,2,0:0:0:0:
141,383,74007,6,0,L|129:249,1,110.499994941712,2|0,3:2|0:0,0:0:0:0:
32,71,74340,2,0,P|89:120|146:121,1,110.499994941712,8|0,0:2|0:0,0:0:0:0:
396,78,74673,1,0,3:2:0:0:
270,0,74840,2,0,L|248:143,1,110.499994941712,2|8,0:2|0:2,0:0:0:0:
462,248,75173,6,0,P|396:196|263:248,1,220.999989883423,2|2,0:2|0:2,0:0:0:0:
326,384,75673,2,0,P|363:333|358:269,1,110.499994941712,8|0,0:2|0:0,0:0:0:0:
134,194,76007,1,0,3:2:0:0:
269,311,76173,1,0,3:2:0:0:
80,345,76340,1,8,0:2:0:0:
309,213,76507,1,0,0:0:0:0:
30,147,76673,6,0,L|51:274,1,110.499994941712,6|0,3:2|0:0,0:0:0:0:
249,54,77007,2,0,L|228:181,1,110.499994941712,10|0,0:2|0:0,0:0:0:0:
114,30,77340,1,0,3:2:0:0:
338,130,77507,2,0,P|421:114|439:82,1,110.499994941712,2|8,0:2|0:2,0:0:0:0:
130,126,77840,6,0,L|154:246,1,110.499994941712,2|0,0:2|3:2,0:0:0:0:
347,326,78173,1,2,0:0:0:0:
72,307,78340,1,10,0:2:0:0:
269,375,78507,1,0,0:0:0:0:
213,106,78673,1,0,3:2:0:0:
162,312,78840,1,0,0:0:0:0:
372,212,79007,1,8,0:2:0:0:
124,234,79173,1,2,0:2:0:0:
414,112,79340,6,0,P|469:166|478:233,1,110.499994941712,6|0,3:2|0:0,0:0:0:0:
213,106,79673,1,8,0:2:0:0:
495,41,79840,1,2,0:2:0:0:
372,212,80007,2,0,L|227:197,1,110.499994941712,2|0,3:2|0:0,0:0:0:0:
110,127,80340,1,8,0:2:0:0:
159,367,80507,1,8,0:2:0:0:
159,367,80590,1,8,0:2:0:0:
159,367,80673,6,0,P|187:298|181:257,1,110.499994941712,6|0,3:2|0:0,0:0:0:0:
19,148,81007,2,0,P|52:206|127:222,1,110.499994941712,8|2,0:2|0:2,0:0:0:0:
324,48,81340,1,10,0:2:0:0:
101,37,81507,1,8,0:2:0:0:
243,236,81673,1,8,0:2:0:0:
289,266,81756,1,8,0:2:0:0:
343,277,81839,1,8,0:2:0:0:
397,268,81922,1,8,0:2:0:0:
444,240,82007,6,0,L|462:132,1,85,6|2,3:2|0:2,0:0:0:0:
323,47,82340,2,0,L|338:131,1,85,10|2,0:2|0:2,0:0:0:0:
186,185,82673,2,0,L|204:77,1,85,2|2,3:2|0:2,0:0:0:0:
77,138,83007,2,0,L|101:306,1,152.999995330811,10|0,0:2|3:2,0:0:0:0:
171,365,83507,6,0,P|218:332|266:335,1,93.5000028533936,2|8,0:2|0:2,0:0:0:0:
319,247,83840,2,0,P|375:256|407:292,1,93.5000028533936,2|0,0:2|3:2,0:0:0:0:
454,358,84173,1,14,0:2:0:0:
229,250,84340,1,8,0:2:0:0:
453,204,84507,6,0,B|479:161|479:161|443:12,1,187.000005706787,14|2,0:2|0:2,0:0:0:0:
287,81,85007,2,0,P|343:112|388:113,1,93.5000028533936,10|2,0:2|0:2,0:0:0:0:
206,158,85340,2,0,P|150:189|105:190,1,93.5000028533936,2|2,3:2|3:2,0:0:0:0:
298,261,85673,2,0,P|371:291|474:269,1,152.999995330811,10|0,0:2|3:0,0:0:0:0:
481,181,86173,6,0,L|371:199,1,93.5000028533936,2|8,0:0|0:0,0:0:0:0:
287,81,86507,2,0,L|194:65,1,93.5000028533936,2|0,0:0|3:0,0:0:0:0:
147,247,86840,2,0,L|37:265,1,93.5000028533936,6|0,0:0|0:0,0:0:0:0:
230,318,87173,6,0,P|264:266|218:158,1,170,2|2,0:0|0:0,0:0:0:0:
147,247,87673,2,0,L|130:345,1,85,2|2,0:0|0:0,0:0:0:0:
350,207,88007,2,0,L|367:305,1,85,2|2,0:0|0:0,0:0:0:0:
255,157,88340,2,0,P|325:105|442:164,1,204,2|0,0:0|0:0,0:0:0:0:
