osu file format v14

[General]
AudioFilename: audio.mp3
AudioLeadIn: 0
PreviewTime: 28528
Countdown: 0
SampleSet: Soft
StackLeniency: 0.7
Mode: 0
LetterboxInBreaks: 0
WidescreenStoryboard: 1

[Editor]
Bookmarks: 17211,18211,27694,49928,57928,60594,84478,89811
DistanceSpacing: 0.6
BeatDivisor: 4
GridSize: 4
TimelineZoom: 3.499999

[Metadata]
Title:Spiral
TitleUnicode:スパイラル
Artist:KANA-BOON
ArtistUnicode:KANA-BOON
Creator:Nevo
Version:Hard
Source:NARUTO-ナルト- 疾風伝 ナルティメットストーム4
Tags:nine tail fox bijuu dama rasengan sage of six paths Ultimate Ninja Storm 4 no jutsu shippuuden shipuuden shippuden kanaboon kana-boom kanaboom hokage kage shadow Tailed Beast Super Ultra Rasenshuriken Jutsu Technique video game anime shounen japanese rock cut version short ost soundtrack edit jrock j-rock 谷口鮪 Taniguchi maguro opening cutscene trailer road to boruto dlc
BeatmapID:3032167
BeatmapSetID:1477925

[Difficulty]
HPDrainRate:4.5
CircleSize:3.3
OverallDifficulty:6
ApproachRate:7
SliderMultiplier:1.5
SliderTickRate:1

[Events]
//Background and Video events
0,0,"naruto.jpg",0,0
//Break Periods
//Storyboard Layer 0 (Background)
//Storyboard Layer 1 (Fail)
//Storyboard Layer 2 (Pass)
//Storyboard Layer 3 (Foreground)
//Storyboard Layer 4 (Overlay)
//Storyboard Sound Samples

[TimingPoints]
695,333.333333333333,4,2,1,70,1,0
1861,-100,4,2,1,80,0,0
4528,-93.4579439252336,4,2,1,80,0,0
4674,333.333333333333,4,2,1,80,1,0
7173,-125,4,2,1,70,0,0
17840,-111.111111111111,4,2,1,70,0,0
18007,-111.111111111111,4,2,1,75,0,0
28673,-90.9090909090908,4,2,1,90,0,1
50007,-100,4,2,1,85,0,0
58007,-100,4,2,1,90,0,0
60673,-90.9090909090909,4,2,1,90,0,1
82007,-100,4,2,1,80,0,0
87173,-133.333333333333,4,2,1,60,0,0
88340,-166.666666666667,4,2,1,60,0,0
88673,-166.666666666667,4,2,1,5,0,0

[Colours]
Combo1 : 255,70,70
Combo2 : 255,143,32
Combo3 : 0,89,255

[HitObjects]
139,149,695,6,0,L|133:200,3,37.5,10|0|0|0,0:0|3:0|3:0|3:0,0:0:0:0:
177,198,1028,2,0,L|184:248,3,37.5,0|0|0|0,3:0|3:0|3:0|3:0,0:0:0:0:
258,274,1361,5,8,3:2:0:0:
378,250,1528,1,8,3:2:0:0:
378,250,1861,6,0,L|391:88,1,150,14|2,0:2|0:2,0:0:0:0:
362,2,2361,2,0,P|324:24|304:48,1,75,10|2,0:2|0:2,0:0:0:0:
253,131,2694,2,0,P|220:101|191:90,1,75,2|2,3:2|3:2,0:0:0:0:
155,4,3028,2,0,P|117:26|98:76,1,75,10|0,0:2|0:0,0:0:0:0:
127,228,3528,6,0,L|43:218,1,75,2|8,0:2|0:2,0:0:0:0:
108,321,3861,2,0,L|182:329,1,75,2|0,0:2|3:2,0:0:0:0:
287,357,4194,1,0,3:0:0:0:
287,357,4361,1,8,0:0:0:0:
404,333,4528,6,0,P|429:293|402:186,1,150,6|2,0:2|0:2,0:0:0:0:
336,137,5007,2,0,P|316:186|319:222,1,75,10|2,0:2|0:2,0:0:0:0:
237,271,5340,2,0,L|228:167,1,75,2|2,3:2|3:2,0:0:0:0:
107,156,5673,2,0,P|139:198|145:233,1,75,10|0,0:2|0:0,0:0:0:0:
44,32,6173,6,0,L|146:51,1,75,2|8,0:2|0:2,0:0:0:0:
195,110,6507,2,0,L|268:96,1,75,2|0,0:2|3:2,0:0:0:0:
299,0,6840,1,14,0:0:0:0:
299,0,7007,1,0,0:0:0:0:
363,80,7173,6,0,L|337:223,1,120,14|0,0:2|0:0,0:0:0:0:
258,262,7673,2,0,L|248:188,1,60,10|0,0:2|0:0,0:0:0:0:
168,248,8007,2,0,L|159:307,1,60,2|0,3:2|0:0,0:0:0:0:
250,356,8340,2,0,P|291:357|321:336,1,60,10|0,0:2|0:0,0:0:0:0:
418,270,8673,6,0,L|429:192,1,60,2|0,3:2|0:0,0:0:0:0:
512,209,9007,2,0,L|501:131,1,60,10|0,0:2|0:0,0:0:0:0:
448,69,9340,2,0,P|484:52|523:51,2,60,2|2|10,3:2|0:2|0:2,0:0:0:0:
354,141,9840,6,0,L|215:129,1,120,2|0,0:2|0:0,0:0:0:0:
138,106,10340,2,0,P|139:157|151:175,1,60,10|0,0:2|0:0,0:0:0:0:
217,214,10673,2,0,P|181:250|177:271,1,60,2|0,3:2|0:0,0:0:0:0:
198,357,11007,2,0,P|169:344|133:347,1,60,10|0,0:2|0:0,0:0:0:0:
32,278,11340,6,0,L|106:270,1,60,2|0,3:2|0:0,0:0:0:0:
88,179,11673,1,10,0:2:0:0:
88,179,11840,2,0,L|11:187,1,60,2|0,0:2|3:2,0:0:0:0:
138,106,12173,2,0,L|215:114,1,60,2|8,0:2|0:2,0:0:0:0:
322,144,12507,6,0,P|367:132|396:52,1,120,2|0,0:2|0:0,0:0:0:0:
300,0,13007,2,0,L|318:77,1,60,10|0,0:2|0:0,0:0:0:0:
211,53,13340,2,0,L|193:130,1,60,2|0,3:2|0:0,0:0:0:0:
322,144,13673,2,0,L|340:221,1,60,10|0,0:2|0:0,0:0:0:0:
362,304,14007,6,0,L|240:273,1,120,2|10,3:2|0:2,0:0:0:0:
155,222,14507,2,0,P|139:270|145:299,1,60,2|0,0:2|3:2,0:0:0:0:
100,375,14840,2,0,P|66:337|38:327,1,60,2|8,0:2|0:2,0:0:0:0:
0,248,15173,2,0,P|49:237|71:218,1,60,2|0,0:2|3:2,0:0:0:0:
12,63,15673,6,0,L|-4:141,1,60,10|0,0:2|0:0,0:0:0:0:
110,31,16007,2,0,L|122:89,1,60,2|0,3:2|0:0,0:0:0:0:
196,171,16340,2,0,P|243:183|281:174,1,60,8|0,0:2|0:0,0:0:0:0:
328,104,16673,5,6,3:2:0:0:
328,104,16840,2,0,L|402:95,1,60,2|8,0:2|0:2,0:0:0:0:
467,141,17173,2,0,B|480:168|480:168|468:214,1,60,2|8,0:2|0:2,0:0:0:0:
404,263,17507,1,8,0:2:0:0:
404,263,17590,1,8,0:2:0:0:
404,263,17673,1,8,0:2:0:0:
468,375,17840,6,0,P|403:348|336:355,1,134.999995880127,14|0,0:2|0:0,0:0:0:0:
252,367,18340,2,0,P|205:368|181:352,1,67.4999979400635,10|0,0:2|0:0,0:0:0:0:
123,295,18673,2,0,L|109:213,1,67.4999979400635,2|0,3:2|0:0,0:0:0:0:
77,142,19007,1,10,0:2:0:0:
77,142,19173,1,2,0:2:0:0:
196,181,19340,6,0,P|262:179|284:167,1,67.4999979400635,2|0,3:2|0:0,0:0:0:0:
305,92,19673,2,0,P|239:94|217:106,1,67.4999979400635,10|0,0:2|0:0,0:0:0:0:
378,150,20007,1,2,3:2:0:0:
378,150,20173,2,0,L|394:68,1,67.4999979400635,14|0,0:2|3:2,0:0:0:0:
284,178,20507,6,0,L|310:329,1,134.999995880127,14|0,0:2|0:0,0:0:0:0:
380,360,21007,2,0,P|424:367|451:358,1,67.4999979400635,10|0,0:2|0:0,0:0:0:0:
447,264,21340,2,0,P|414:257|381:264,1,67.4999979400635,2|0,3:2|0:0,0:0:0:0:
297,323,21673,1,10,0:2:0:0:
297,323,21840,1,0,0:0:0:0:
201,341,22007,6,0,L|157:333,3,33.7499989700318,10|8|8|8,0:2|0:2|0:2|0:2,0:0:0:0:
147,289,22340,2,0,L|103:281,3,33.7499989700318,10|8|8|8,0:2|0:2|0:2|0:2,0:0:0:0:
205,227,22673,1,2,3:2:0:0:
122,171,22840,1,14,0:2:0:0:
292,64,23173,6,0,B|398:48|398:48|439:58,1,134.999995880127,14|0,0:2|0:0,0:0:0:0:
505,92,23673,2,0,P|478:126|452:138,1,67.4999979400635,10|0,0:2|0:0,0:0:0:0:
485,219,24007,2,0,P|441:223|414:214,1,67.4999979400635,2|0,3:2|0:0,0:0:0:0:
397,313,24340,1,10,0:2:0:0:
397,313,24507,1,0,0:0:0:0:
321,241,24673,6,0,P|256:213|184:250,1,134.999995880127,2|10,3:2|0:2,0:0:0:0:
36,339,25340,1,2,3:0:0:0:
36,339,25423,1,2,3:0:0:0:
36,339,25507,1,2,3:0:0:0:
114,384,25673,1,2,3:0:0:0:
160,302,25840,6,0,L|177:160,1,134.999995880127,14|10,0:2|0:2,0:0:0:0:
153,85,26340,2,0,L|73:76,1,67.4999979400635,6|0,3:2|0:0,0:0:0:0:
187,2,26673,2,0,L|254:9,1,67.4999979400635,2|0,3:2|0:0,0:0:0:0:
339,80,27007,1,10,0:2:0:0:
339,80,27173,1,2,0:2:0:0:
459,17,27340,6,0,L|466:100,1,67.4999979400635,10|8,0:2|0:2,0:0:0:0:
398,150,27673,2,0,L|405:233,1,67.4999979400635,10|8,0:2|0:2,0:0:0:0:
463,286,28007,2,0,P|413:312|386:305,1,67.4999979400635,10|8,0:2|0:2,0:0:0:0:
315,266,28340,2,0,P|283:255|251:263,1,67.4999979400635,10|8,0:2|0:2,0:0:0:0:
136,205,28673,6,0,P|111:281|151:351,2,165.000005035401,6|10|2,3:2|0:2|3:2,0:0:0:0:
137,94,29507,2,0,L|47:83,1,82.5000025177003,2|10,0:2|0:2,0:0:0:0:
200,25,29840,2,0,L|290:14,1,82.5000025177003,2|0,0:2|3:2,0:0:0:0:
371,45,30173,1,2,0:2:0:0:
469,23,30340,6,0,P|490:78|433:176,1,165.000005035401,10|0,0:2|3:2,0:0:0:0:
311,238,31007,1,8,0:2:0:0:
439,352,31340,6,0,L|447:255,1,82.5000025177003,2|0,3:2|0:0,0:0:0:0:
336,158,31673,2,0,L|350:330,1,165.000005035401,8|0,0:2|3:2,0:0:0:0:
241,340,32173,2,0,P|180:330|150:290,1,82.5000025177003,2|8,0:2|0:2,0:0:0:0:
93,263,32507,2,0,L|81:160,1,82.5000025177003,2|0,0:2|3:2,0:0:0:0:
129,103,32840,1,2,0:2:0:0:
129,103,33007,2,0,P|200:124|285:78,1,165.000005035401,8|0,0:2|3:2,0:0:0:0:
410,0,33673,1,8,0:2:0:0:
512,129,34007,6,0,L|414:118,1,82.5000025177003,2|0,3:2|0:0,0:0:0:0:
378,211,34340,2,0,L|214:230,1,165.000005035401,10|0,0:2|3:2,0:0:0:0:
128,274,34840,2,0,P|132:314|149:352,1,82.5000025177003,2|8,0:2|0:2,0:0:0:0:
240,369,35173,6,0,P|287:338|411:353,1,165.000005035401,2|0,0:2|0:0,0:0:0:0:
489,365,35673,2,0,P|439:321|459:220,1,165.000005035401,10|0,0:2|3:2,0:0:0:0:
499,136,36173,1,0,0:0:0:0:
499,136,36340,2,0,L|400:124,1,82.5000025177003,8|2,0:2|0:2,0:0:0:0:
304,66,36673,6,0,L|365:242,1,165.000005035401,2|8,3:2|0:2,0:0:0:0:
291,280,37173,1,2,0:2:0:0:
217,227,37340,2,0,B|174:208|140:226|140:226|104:243|57:230,1,165.000005035401,2|8,3:2|0:2,0:0:0:0:
101,139,37840,1,8,0:2:0:0:
189,78,38007,6,0,P|191:25|168:-14,1,82.5000025177003,6|0,3:2|0:0,0:0:0:0:
80,58,38340,2,0,L|103:150,1,82.5000025177003,8|2,0:2|0:2,0:0:0:0:
217,227,38673,1,10,0:2:0:0:
213,241,38756,1,8,0:2:0:0:
210,255,38839,1,8,0:2:0:0:
207,270,38923,1,8,0:2:0:0:
205,283,39007,2,0,L|147:297,3,41.2500012588501,8|8|8|8,0:2|0:2|0:2|0:2,0:0:0:0:
285,322,39340,6,0,L|389:336,1,82.5000025177003,6|0,3:2|0:0,0:0:0:0:
463,311,39673,2,0,P|496:257|449:158,1,165.000005035401,10|2,0:2|3:2,0:0:0:0:
356,131,40173,2,0,L|371:217,1,82.5000025177003,2|8,0:2|0:2,0:0:0:0:
254,147,40507,2,0,L|269:61,1,82.5000025177003,2|0,0:2|3:2,0:0:0:0:
204,0,40840,1,2,0:2:0:0:
143,79,41007,2,0,P|96:89|53:83,1,82.5000025177003,10|0,0:2|0:0,0:0:0:0:
42,196,41340,2,0,P|89:186|132:192,1,82.5000025177003,0|0,3:2|0:0,0:0:0:0:
190,263,41673,1,8,0:2:0:0:
190,263,41840,1,2,0:0:0:0:
108,366,42007,6,0,L|89:273,1,82.5000025177003,2|0,3:2|0:0,0:0:0:0:
225,348,42340,2,0,L|256:178,1,165.000005035401,8|0,0:2|3:2,0:0:0:0:
330,115,42840,2,0,P|374:96|421:105,1,82.5000025177003,2|8,0:2|0:2,0:0:0:0:
419,234,43173,6,0,L|312:216,1,82.5000025177003,2|0,0:2|3:2,0:0:0:0:
254,185,43507,1,2,0:2:0:0:
254,185,43673,2,0,L|147:203,1,82.5000025177003,8|0,0:2|0:0,0:0:0:0:
102,251,44007,2,0,P|87:207|97:159,1,82.5000025177003,0|0,3:2|3:2,0:0:0:0:
160,118,44340,1,8,0:2:0:0:
62,18,44673,6,0,B|37:143|37:143|56:182,2,165.000005035401,6|10|0,3:2|0:2|3:2,0:0:0:0:
179,27,45507,2,0,P|226:35|274:13,1,82.5000025177003,2|8,0:2|0:2,0:0:0:0:
373,101,45840,2,0,P|326:93|278:115,1,82.5000025177003,2|0,0:2|3:2,0:0:0:0:
245,186,46173,1,2,0:0:0:0:
326,265,46340,2,0,L|340:181,1,82.5000025177003,10|0,0:2|0:0,0:0:0:0:
465,125,46673,2,0,L|478:206,1,82.5000025177003,0|0,3:2|0:0,0:0:0:0:
484,317,47007,1,8,0:2:0:0:
374,353,47173,1,2,0:2:0:0:
374,353,47257,1,2,0:0:0:0:
374,353,47340,6,0,P|319:366|231:287,1,165.000005035401,6|8,3:2|0:2,0:0:0:0:
147,273,47840,1,2,0:2:0:0:
147,273,48007,2,0,P|202:286|290:207,1,165.000005035401,2|8,3:2|0:2,0:0:0:0:
309,132,48507,1,8,0:2:0:0:
187,181,48673,6,0,P|108:157|27:152,2,165.000005035401,6|8|10,3:2|0:2|0:2,0:0:0:0:
327,262,49673,2,0,L|419:248,1,82.5000025177003,8|8,0:2|0:2,0:0:0:0:
493,192,50007,6,0,B|509:156|509:156|486:94,1,75,6|0,3:2|0:0,0:0:0:0:
450,32,50340,2,0,P|408:70|295:47,1,150,10|0,0:0|3:0,0:0:0:0:
257,144,50840,2,0,P|215:106|102:129,1,150,10|0,0:0|0:0,0:0:0:0:
45,179,51340,6,0,L|56:338,1,150,10|0,0:0|3:0,0:0:0:0:
164,207,51840,2,0,L|147:366,1,150,10|0,0:0|0:0,0:0:0:0:
258,272,52340,2,0,L|265:359,2,75,10|2|6,0:0|0:0|3:2,0:0:0:0:
241,104,53007,6,0,B|275:126|275:126|400:106,1,150,10|0,0:0|3:0,0:0:0:0:
440,30,53507,2,0,P|417:63|473:162,1,150,10|0,0:0|0:0,0:0:0:0:
512,271,54007,2,0,P|447:244|363:267,1,150,10|0,0:0|3:0,0:0:0:0:
287,332,54507,2,0,B|254:360|254:360|190:371|190:371|135:356,1,150,10|0,0:0|0:0,0:0:0:0:
86,230,55007,2,0,L|6:247,2,75,10|2|6,0:0|0:0|3:2,0:0:0:0:
157,46,55673,6,0,P|161:120|193:187,1,150,10|0,0:0|3:0,0:0:0:0:
279,122,56173,2,0,P|229:178|204:248,1,150,10|0,0:0|0:0,0:0:0:0:
309,361,56673,2,0,L|328:210,1,150,10|0,0:0|3:0,0:0:0:0:
446,295,57173,2,0,L|427:144,1,150,10|0,0:0|0:0,0:0:0:0:
405,50,57673,1,8,0:0:0:0:
405,50,57757,1,8,0:0:0:0:
405,50,57840,1,8,0:0:0:0:
314,98,58007,6,0,P|257:113|188:46,1,150,14|0,0:0|3:0,0:0:0:0:
86,2,58507,2,0,L|112:153,1,150,14|0,0:0|3:0,0:0:0:0:
0,303,59007,2,0,P|24:261|132:253,1,150,14|0,0:0|3:0,0:0:0:0:
221,314,59507,2,0,B|277:333|322:314|322:314|352:321|352:321|396:296|453:309,1,225,14|0,0:0|3:0,0:0:0:0:
258,192,60340,2,0,L|269:241,3,37.5,8|8|8|8,0:0|0:0|0:0|0:0,0:0:0:0:
197,129,60673,6,0,L|214:16,1,82.5000025177003,6|0,3:2|0:0,0:0:0:0:
94,115,61007,2,0,L|123:290,1,165.000005035401,10|2,0:2|3:2,0:0:0:0:
175,356,61507,2,0,P|227:324|285:324,1,82.5000025177003,2|10,0:2|0:2,0:0:0:0:
375,352,61840,6,0,P|439:359|495:269,1,165.000005035401,2|2,0:2|0:2,0:0:0:0:
392,190,62340,2,0,L|413:294,1,82.5000025177003,10|0,0:2|0:0,0:0:0:0:
492,170,62673,2,0,L|508:89,1,82.5000025177003,0|0,3:2|0:0,0:0:0:0:
420,20,63007,1,8,0:2:0:0:
420,20,63173,1,0,0:0:0:0:
352,106,63340,6,0,P|306:115|252:96,1,82.5000025177003,2|0,3:2|0:0,0:0:0:0:
184,33,63673,2,0,B|144:6|144:6|14:27,1,165.000005035401,8|0,0:2|3:2,0:0:0:0:
97,178,64173,2,0,P|118:130|118:89,1,82.5000025177003,2|8,0:2|0:2,0:0:0:0:
4,181,64507,6,0,L|15:290,1,82.5000025177003,2|0,0:2|3:2,0:0:0:0:
66,341,64840,1,2,0:2:0:0:
156,281,65007,2,0,P|220:248|326:285,1,165.000005035401,8|0,0:2|3:2,0:0:0:0:
382,331,65507,1,0,3:2:0:0:
464,264,65673,2,0,L|454:165,1,82.5000025177003,8|0,0:2|0:0,0:0:0:0:
364,88,66007,6,0,L|353:184,1,82.5000025177003,2|0,3:2|0:0,0:0:0:0:
261,233,66340,2,0,L|239:56,1,165.000005035401,10|0,0:2|3:2,0:0:0:0:
330,5,66840,2,0,P|378:-3|429:24,1,82.5000025177003,2|8,0:2|0:2,0:0:0:0:
465,90,67173,2,0,L|453:180,1,82.5000025177003,2|0,0:2|3:2,0:0:0:0:
439,273,67507,1,2,0:0:0:0:
339,284,67673,2,0,P|253:259|187:292,1,165.000005035401,10|0,0:2|3:2,0:0:0:0:
97,349,68173,2,0,P|84:312|85:266,1,82.5000025177003,0|8,0:0|0:2,0:0:0:0:
165,173,68507,1,2,0:2:0:0:
53,106,68673,6,0,L|87:287,1,165.000005035401,2|8,3:2|0:2,0:0:0:0:
188,290,69173,1,2,0:2:0:0:
263,208,69340,2,0,L|293:45,1,165.000005035401,2|8,3:2|0:2,0:0:0:0:
398,94,69840,1,8,0:2:0:0:
398,94,69923,1,8,0:2:0:0:
398,94,70007,6,0,L|410:193,1,82.5000025177003,6|0,3:2|0:0,0:0:0:0:
496,206,70340,2,0,L|484:305,1,82.5000025177003,8|2,0:2|0:2,0:0:0:0:
386,350,70673,1,10,0:2:0:0:
364,350,70756,1,8,0:2:0:0:
344,342,70839,1,8,0:2:0:0:
326,334,70922,1,8,0:2:0:0:
312,321,71007,2,0,L|302:255,3,41.2500012588501,8|8|8|8,0:2|0:2|0:2|0:2,0:0:0:0:
234,382,71340,6,0,P|191:381|131:348,1,82.5000025177003,6|0,3:2|0:0,0:0:0:0:
67,334,71673,2,0,P|37:302|18:237,1,82.5000025177003,10|0,0:2|0:0,0:0:0:0:
47,172,72007,1,2,3:2:0:0:
47,172,72173,2,0,L|156:161,1,82.5000025177003,2|8,0:2|0:2,0:0:0:0:
213,72,72507,6,0,L|104:61,1,82.5000025177003,2|0,0:2|3:2,0:0:0:0:
273,146,72840,1,2,0:2:0:0:
273,146,73007,2,0,P|302:97|261:-8,2,165.000005035401,10|0|8,0:2|3:2|0:2,0:0:0:0:
196,219,73840,1,2,0:0:0:0:
290,265,74007,6,0,L|375:249,1,82.5000025177003,2|0,3:2|0:0,0:0:0:0:
437,159,74340,2,0,L|267:145,1,165.000005035401,8|0,0:2|3:2,0:0:0:0:
177,87,74840,2,0,P|159:137|165:183,1,82.5000025177003,2|8,0:2|0:2,0:0:0:0:
173,264,75173,6,0,L|69:249,1,82.5000025177003,2|0,0:2|3:2,0:0:0:0:
210,358,75507,1,2,0:2:0:0:
210,358,75673,2,0,L|398:342,2,165.000005035401,8|0|8,0:2|3:2|0:2,0:0:0:0:
7,286,76673,6,0,P|-2:227|14:184,1,82.5000025177003,6|0,3:2|0:0,0:0:0:0:
116,89,77007,2,0,L|89:266,1,165.000005035401,10|0,0:2|3:2,0:0:0:0:
131,331,77507,2,0,P|181:329|213:308,1,82.5000025177003,2|8,0:2|0:2,0:0:0:0:
274,236,77840,6,0,P|327:214|425:257,1,165.000005035401,2|2,0:2|0:0,0:0:0:0:
474,340,78340,2,0,L|466:158,1,165.000005035401,10|0,0:2|3:2,0:0:0:0:
461,83,78840,1,0,0:0:0:0:
376,119,79007,2,0,P|337:130|294:118,1,82.5000025177003,8|2,0:2|0:2,0:0:0:0:
237,46,79340,6,0,P|162:35|68:87,1,165.000005035401,6|8,3:2|0:2,0:0:0:0:
78,157,79840,1,2,0:2:0:0:
170,130,80007,2,0,L|149:293,1,165.000005035401,2|8,3:2|0:2,0:0:0:0:
287,370,80673,6,0,L|265:193,1,165.000005035401,6|8,3:2|0:2,0:0:0:0:
278,116,81173,1,2,0:2:0:0:
349,178,81340,2,0,P|393:179|444:69,1,165.000005035401,10|8,0:2|0:2,0:0:0:0:
351,15,81840,1,8,0:2:0:0:
351,15,81923,1,8,0:2:0:0:
351,15,82007,6,0,L|365:96,2,75,6|2|10,3:2|0:2|0:2,0:0:0:0:
247,68,82507,1,2,0:2:0:0:
247,68,82673,2,0,L|224:170,1,75,2|2,3:2|0:2,0:0:0:0:
118,123,83007,2,0,L|141:225,1,75,10|0,0:2|0:0,0:0:0:0:
255,341,83507,6,0,P|300:344|340:324,1,75,2|8,0:2|0:2,0:0:0:0:
359,235,83840,2,0,P|314:232|274:252,1,75,2|0,0:2|3:2,0:0:0:0:
171,304,84173,1,14,0:2:0:0:
31,182,84507,6,0,P|10:116|55:26,1,150,14|2,0:2|0:2,0:0:0:0:
191,109,85007,2,0,L|111:124,1,75,10|2,0:2|0:2,0:0:0:0:
149,26,85340,2,0,L|222:12,1,75,2|2,3:2|3:2,0:0:0:0:
303,52,85673,2,0,L|376:65,1,75,10|0,0:2|0:0,0:0:0:0:
360,220,86173,6,0,P|327:165|328:126,1,75,2|8,0:0|0:0,0:0:0:0:
449,234,86507,2,0,P|417:290|383:308,1,75,2|0,0:0|3:0,0:0:0:0:
315,310,86840,1,6,0:0:0:0:
190,221,87173,6,0,L|73:239,1,112.500004291535,2|2,0:0|0:0,0:0:0:0:
130,143,87673,2,0,L|137:88,1,56.2500021457673,2|2,0:0|0:0,0:0:0:0:
222,125,88007,2,0,L|229:70,1,56.2500021457673,2|2,0:0|0:0,0:0:0:0:
323,33,88340,2,0,L|306:182,1,134.999995880127,2|0,0:0|0:0,0:0:0:0:
