osu file format v14

[General]
AudioFilename: audio.mp3
AudioLeadIn: 0
PreviewTime: 44921
Countdown: 0
SampleSet: Soft
StackLeniency: 0.5
Mode: 0
LetterboxInBreaks: 0
WidescreenStoryboard: 0

[Editor]
Bookmarks: 823,3445,13937
DistanceSpacing: 1.1
BeatDivisor: 4
GridSize: 32
TimelineZoom: 1.5

[Metadata]
Title:Silhouette
TitleUnicode:シルエット
Artist:KANA-BOON
ArtistUnicode:KANA-BOON
Creator:Xinying
Version:Relentless
Source:NARUTO-ナルト-疾風伝
Tags:Ki/oon Records Shippuden Nine Tails Opening 16 TV Size Kage Reckful Sodapoppin Japan Twitch Stream Season 2 Finale
BeatmapID:1445419
BeatmapSetID:683408

[Difficulty]
HPDrainRate:5
CircleSize:4
OverallDifficulty:8
ApproachRate:9
SliderMultiplier:1.8
SliderTickRate:1

[Events]
//Background and Video events
0,0,"Silhouette.png",0,0
//Break Periods
//Storyboard Layer 0 (Background)
//Storyboard Layer 1 (Fail)
//Storyboard Layer 2 (Pass)
//Storyboard Layer 3 (Foreground)
//Storyboard Sound Samples

[TimingPoints]
823,327.868113723346,4,2,1,70,1,0
823,-100,4,2,1,70,0,0
2790,-200,4,2,1,70,0,0
3118,-200,4,2,1,5,0,0
3445,-100,4,2,1,75,0,0
13937,-113.636363636364,4,2,1,60,0,0
24429,-113.636363636364,4,2,1,70,0,0
34921,-113.636363636364,4,2,1,60,0,0
40167,-113.636363636364,4,2,1,70,0,0
42790,-100,4,2,1,70,0,0
45085,-200,4,1,1,70,0,0
45331,-200,4,2,1,5,0,0
45413,-100,4,2,1,80,0,1
55576,-100,4,2,1,80,0,0
55904,-100,4,2,1,80,0,1
76888,-113.636363636364,4,2,1,75,0,0
82134,-100,4,2,1,80,0,1
87380,-100,4,2,1,5,0,0

[Colours]
Combo1 : 151,203,255
Combo2 : 245,240,141
Combo3 : 255,185,220
Combo4 : 0,128,255

[HitObjects]
182,145,495,5,8,3:0:0:0:
182,145,823,5,2,0:0:0:0:
121,210,986,1,2,0:0:0:0:
247,206,1150,1,8,0:0:0:0:
95,124,1314,2,0,P|50:151|31:194,1,90,0|2,0:0|0:0,0:0:0:0:
273,292,1642,5,2,0:0:0:0:
182,145,1806,1,8,0:0:0:0:
101,298,1970,1,2,0:0:0:0:
247,206,2134,6,0,L|297:206,1,45,8|8,0:0|0:0,0:0:0:0:
294,77,2298,2,0,L|294:122,1,45,8|8,0:0|0:0,0:0:0:0:
423,124,2462,2,0,L|378:124,1,45,8|8,0:0|0:0,0:0:0:0:
376,253,2626,2,0,L|376:208,1,45,8|8,0:0|0:0,0:0:0:0:
293,77,2790,6,0,P|247:63|191:83,1,90,2|2,0:0|2:1,0:0:0:0:
207,72,3445,6,0,L|221:167,1,90,6|0,0:0|0:0,0:0:0:0:
235,250,3773,1,8,0:0:0:0:
304,192,3937,1,0,0:0:0:0:
151,219,4101,1,2,0:0:0:0:
251,339,4265,1,0,0:0:0:0:
220,161,4429,2,0,P|178:132|125:133,1,90,8|0,0:0|0:0,0:0:0:0:
251,339,4757,6,0,P|293:368|346:367,1,90,2|0,0:0|0:0,0:0:0:0:
304,192,5085,1,8,0:0:0:0:
319,280,5249,1,0,0:0:0:0:
388,224,5413,1,2,0:0:0:0:
235,250,5577,1,0,0:0:0:0:
403,310,5741,2,0,L|502:344,1,90,8|0,0:0|0:0,0:0:0:0:
374,136,6068,6,0,L|288:106,1,90,2|0,0:0|0:0,0:0:0:0:
319,280,6396,1,8,0:0:0:0:
457,168,6560,2,0,P|462:120|443:81,1,90,0|2,0:0|0:0,0:0:0:0:
235,250,6888,1,0,0:0:0:0:
374,136,7052,1,8,0:0:0:0:
403,310,7216,1,0,0:0:0:0:
235,250,7380,6,0,L|133:250,1,90,2|0,0:0|0:0,0:0:0:0:
304,192,7708,1,8,0:0:0:0:
251,339,7872,2,0,P|293:368|346:367,1,90,0|2,0:0|0:0,0:0:0:0:
388,224,8200,1,0,0:0:0:0:
235,250,8363,2,0,P|188:271|163:318,1,90,8|0,0:0|0:0,0:0:0:0:
67,188,8691,6,0,P|113:166|138:119,1,90,2|0,0:0|0:0,0:0:0:0:
53,100,9019,1,8,0:0:0:0:
81,276,9183,2,0,L|100:377,1,90,0|2,0:0|0:0,0:0:0:0:
221,164,9511,1,0,0:0:0:0:
151,220,9675,2,0,L|170:321,1,90,8|0,0:0|0:0,0:0:0:0:
361,164,10003,6,0,L|342:63,1,90,2|0,0:0|0:0,0:0:0:0:
393,340,10331,1,8,0:0:0:0:
445,194,10495,1,0,0:0:0:0:
309,310,10659,1,2,0:0:0:0:
477,370,10822,1,0,0:0:0:0:
361,164,10986,2,0,P|312:186|289:229,1,90,8|0,0:0|0:0,0:0:0:0:
210,375,11314,6,0,P|215:321|189:280,1,90,2|0,0:0|0:0,0:0:0:0:
76,182,11642,1,8,0:0:0:0:
45,342,11806,2,0,L|135:342,1,90,0|2,0:0|0:0,0:0:0:0:
288,289,12134,1,0,0:0:0:0:
288,289,12298,2,0,L|199:290,1,90,8|0,0:0|0:0,0:0:0:0:
288,114,12626,6,0,L|288:203,1,90,2|0,0:0|0:0,0:0:0:0:
234,47,12954,2,0,P|282:28|327:37,1,90,8|0,0:0|0:0,0:0:0:0:
288,114,13281,1,2,0:0:0:0:
258,129,13362,1,2,0:0:0:0:
225,133,13444,1,8,0:0:0:0:
193,123,13526,1,8,0:0:0:0:
167,101,13609,2,0,L|64:102,1,90,8|8,0:0|0:0,0:0:0:0:
37,123,13855,1,8,0:0:0:0:
37,123,13937,6,0,L|22:206,1,79.2000024169922,6|0,0:0|0:0,0:0:0:0:
172,231,14265,2,0,L|107:176,1,79.2000024169922,8|0,0:0|0:0,0:0:0:0:
10,293,14593,2,0,L|89:264,1,79.2000024169922,2|2,0:0|0:0,0:0:0:0:
37,123,14921,2,0,L|22:200,1,79.2000024169922,8|0,0:0|0:0,0:0:0:0:
157,308,15249,6,0,L|172:231,1,79.2000024169922,2|0,0:0|0:0,0:0:0:0:
340,231,15577,2,0,L|354:308,1,79.2000024169922,8|0,0:0|0:0,0:0:0:0:
253,238,15904,1,2,0:0:0:0:
333,144,16068,1,2,0:0:0:0:
427,224,16232,2,0,L|441:301,1,79.2000024169922,8|0,0:0|0:0,0:0:0:0:
246,151,16560,5,2,0:0:0:0:
303,310,16724,1,0,0:0:0:0:
333,144,16888,1,8,0:0:0:0:
175,202,17052,1,0,0:0:0:0:
340,231,17216,2,0,P|383:217|411:184,1,79.2000024169922,2|2,0:0|0:0,0:0:0:0:
284,73,17544,1,8,0:0:0:0:
253,238,17708,1,0,0:0:0:0:
125,128,17872,6,0,L|210:128,1,79.2000024169922,2|0,0:0|0:0,0:0:0:0:
253,238,18200,2,0,L|173:238,1,79.2000024169922,8|0,0:0|0:0,0:0:0:0:
45,128,18527,2,0,L|124:128,1,79.2000024169922,2|2,0:0|0:0,0:0:0:0:
173,238,18855,2,0,L|93:238,1,79.2000024169922,8|0,0:0|0:0,0:0:0:0:
28,45,19183,6,0,L|196:45,1,158.400004833984,2|8,0:0|0:0,0:0:0:0:
263,87,19675,1,0,0:0:0:0:
343,129,19839,2,0,P|349:86|338:44,1,79.2000024169922,2|2,0:0|0:0,0:0:0:0:
187,128,20167,2,0,P|219:160|261:172,1,79.2000024169922,8|0,0:0|0:0,0:0:0:0:
255,314,20495,6,0,P|281:241|250:171,1,158.400004833984,2|8,0:0|0:0,0:0:0:0:
104,250,20986,1,0,0:0:0:0:
104,250,21150,2,0,L|184:246,1,79.2000024169922,2|2,0:0|0:0,0:0:0:0:
334,318,21478,2,0,L|255:314,1,79.2000024169922,8|0,0:0|0:0,0:0:0:0:
250,171,21806,6,0,B|302:148|302:148|416:165,1,158.400004833984,2|8,0:0|0:0,0:0:0:0:
304,238,22298,1,0,0:0:0:0:
196,104,22462,2,0,L|277:69,1,79.2000024169922,2|2,0:0|0:0,0:0:0:0:
116,140,22790,2,0,L|35:105,1,79.2000024169922,8|0,0:0|0:0,0:0:0:0:
141,295,23118,6,0,P|137:256|152:219,1,79.2000024169922,2|0,0:0|0:0,0:0:0:0:
299,278,23445,2,0,P|260:282|224:268,1,79.2000024169922,8|0,0:0|0:0,0:0:0:0:
282,119,23773,2,0,P|286:158|272:195,1,79.2000024169922,2|2,0:0|0:0,0:0:0:0:
123,136,24101,2,0,P|162:132|199:147,1,79.2000024169922,8|2,0:0|0:0,0:0:0:0:
299,278,24429,6,0,P|260:282|223:267,1,79.2000024169922,6|0,0:0|0:0,0:0:0:0:
309,200,24757,2,0,L|299:285,1,79.2000024169922,8|0,0:0|0:0,0:0:0:0:
388,158,25085,2,0,L|466:124,1,79.2000024169922,2|2,0:0|0:0,0:0:0:0:
313,111,25413,2,0,L|244:59,1,79.2000024169922,8|0,0:0|0:0,0:0:0:0:
81,112,25740,6,0,P|127:102|175:119,1,79.2000024169922,2|0,0:0|0:0,0:0:0:0:
166,265,26068,2,0,P|120:275|72:258,1,79.2000024169922,8|0,0:0|0:0,0:0:0:0:
124,189,26396,1,2,0:0:0:0:
54,347,26560,1,2,0:0:0:0:
226,329,26724,1,8,0:0:0:0:
89,268,26888,1,0,0:0:0:0:
210,179,27052,5,2,0:0:0:0:
139,337,27216,1,0,0:0:0:0:
124,189,27380,1,8,0:0:0:0:
54,347,27544,1,0,0:0:0:0:
226,329,27708,2,0,L|309:320,1,79.2000024169922,2|2,0:0|0:0,0:0:0:0:
158,109,28036,1,8,0:0:0:0:
262,249,28199,1,0,0:0:0:0:
332,89,28363,6,0,P|317:49|291:24,1,79.2000024169922,2|0,0:0|0:0,0:0:0:0:
297,169,28691,2,0,P|339:176|373:165,1,79.2000024169922,8|0,0:0|0:0,0:0:0:0:
408,86,29019,2,0,P|369:78|332:89,1,79.2000024169922,2|2,0:0|0:0,0:0:0:0:
424,236,29347,2,0,P|449:206|459:168,1,79.2000024169922,8|0,0:0|0:0,0:0:0:0:
459,168,29675,2,0,L|455:355,1,158.400004833984,2|8,0:0|0:0,0:0:0:0:
146,254,30331,5,2,0:0:0:0:
204,189,30495,1,2,0:0:0:0:
174,337,30658,2,0,P|130:340|90:320,1,79.2000024169922,8|0,0:0|0:0,0:0:0:0:
98,326,30986,2,0,P|171:312|282:353,1,158.400004833984,2|8,0:0|0:0,0:0:0:0:
286,53,31642,5,2,0:0:0:0:
276,139,31806,1,2,0:0:0:0:
372,63,31970,2,0,L|452:73,1,79.2000024169922,8|0,0:0|0:0,0:0:0:0:
450,72,32298,6,0,B|463:124|463:124|438:245,1,158.400004833984,2|8,0:0|0:0,0:0:0:0:
266,225,32790,1,0,0:0:0:0:
276,139,32954,2,0,P|319:157|347:199,1,79.2000024169922,2|2,0:0|0:0,0:0:0:0:
255,311,33281,2,0,P|212:293|184:251,1,79.2000024169922,8|0,0:0|0:0,0:0:0:0:
286,60,33609,6,0,L|273:155,1,79.2000024169922,2|0,0:0|0:0,0:0:0:0:
255,311,33937,2,0,L|265:232,1,79.2000024169922,8|0,0:0|0:0,0:0:0:0:
234,22,34265,6,0,L|247:117,1,79.2000024169922,8|8,0:0|0:0,0:0:0:0:
307,349,34593,2,0,L|294:254,1,79.2000024169922,2|2,0:0|0:0,0:0:0:0:
296,270,34921,6,0,P|346:280|424:202,1,158.400004833984,6|2,0:0|0:0,0:0:0:0:
334,109,35413,2,0,L|335:189,1,79.2000024169922,8|0,0:0|0:0,0:0:0:0:
420,292,35740,2,0,L|421:213,2,79.2000024169922,2|8|2,0:0|0:0|0:0,0:0:0:0:
268,292,36232,6,0,P|344:272|420:292,1,158.400004833984,6|2,0:0|0:0,0:0:0:0:
211,360,36724,2,0,P|182:321|182:279,1,79.2000024169922,8|0,0:0|0:0,0:0:0:0:
265,150,37052,2,0,P|245:194|209:215,2,79.2000024169922,2|8|2,0:0|0:0|0:0,0:0:0:0:
183,138,37544,6,0,L|371:163,1,158.400004833984,6|2,0:0|0:0,0:0:0:0:
407,215,38036,2,0,P|426:176|424:137,1,79.2000024169922,8|0,0:0|0:0,0:0:0:0:
283,75,38363,1,2,0:0:0:0:
283,75,38527,2,0,P|264:110|265:150,1,79.2000024169922,8|0,0:0|0:0,0:0:0:0:
359,332,38855,6,0,B|307:331|307:331|258:312|258:312|190:311,1,158.400004833984,6|2,0:0|0:0,0:0:0:0:
125,272,39347,2,0,P|115:316|128:357,1,79.2000024169922,8|0,0:0|0:0,0:0:0:0:
199,224,39675,2,0,P|209:180|196:139,2,79.2000024169922,2|8|2,0:0|0:0|0:0,0:0:0:0:
128,106,40167,6,0,L|304:129,1,158.400004833984,6|8,0:0|0:0,0:0:0:0:
303,278,40658,1,0,0:0:0:0:
389,265,40822,1,2,0:0:0:0:
335,196,40986,1,2,0:0:0:0:
357,347,41150,2,0,P|410:352|444:334,1,79.2000024169922,8|0,0:0|0:0,0:0:0:0:
303,278,41478,6,0,P|250:273|216:291,1,79.2000024169922,2|0,0:0|0:0,0:0:0:0:
110,362,41806,2,0,P|140:318|142:280,1,79.2000024169922,8|0,0:0|0:0,0:0:0:0:
133,152,42134,2,0,P|155:200|187:220,2,79.2000024169922,2|2|8,0:0|0:0|0:0,0:0:0:0:
142,64,42626,1,0,0:0:0:0:
335,196,42790,5,6,0:0:0:0:
311,109,42954,1,0,0:0:0:0:
272,261,43117,1,8,0:0:0:0:
424,219,43281,1,0,0:0:0:0:
246,173,43445,5,2,0:0:0:0:
298,349,43609,1,2,0:0:0:0:
398,131,43773,1,8,0:0:0:0:
272,261,43937,1,0,0:0:0:0:
450,307,44101,5,6,0:0:0:0:
311,109,44265,1,0,0:0:0:0:
210,329,44429,1,8,0:0:0:0:
249,349,44510,1,8,0:0:0:0:
294,349,44592,1,8,0:0:0:0:
333,327,44674,1,8,0:0:0:0:
357,290,44756,5,2,0:0:0:0:
109,48,45085,2,0,L|122:131,1,67.5,2|0,0:0|0:0,0:0:0:0:
119,114,45413,6,0,L|102:216,1,90,6|0,0:0|0:0,0:0:0:0:
257,225,45740,2,0,L|188:169,1,90,8|0,0:0|0:0,0:0:0:0:
90,289,46068,2,0,L|174:256,1,90,2|2,0:0|0:0,0:0:0:0:
203,81,46396,2,0,L|119:114,1,90,8|0,0:0|0:0,0:0:0:0:
90,289,46724,6,0,L|174:256,1,90,2|0,0:0|0:0,0:0:0:0:
339,189,47052,1,8,0:0:0:0:
257,225,47216,1,0,0:0:0:0:
375,271,47380,2,0,P|413:242|428:198,1,90,2|2,0:0|0:0,0:0:0:0:
293,307,47708,2,0,P|322:345|366:360,1,90,8|0,0:0|0:0,0:0:0:0:
339,189,48036,6,0,P|310:151|266:136,1,90,2|0,0:0|0:0,0:0:0:0:
189,172,48363,2,0,P|215:208|257:225,1,90,8|0,0:0|0:0,0:0:0:0:
281,46,48691,2,0,P|236:50|201:78,1,90,2|2,0:0|0:0,0:0:0:0:
178,257,49019,2,0,P|195:216|189:172,1,90,8|0,0:0|0:0,0:0:0:0:
46,61,49347,6,0,P|72:96|113:113,1,90,2|0,0:0|0:0,0:0:0:0:
271,136,49675,1,8,0:0:0:0:
128,24,49839,1,0,0:0:0:0:
103,203,50003,2,0,L|111:306,1,90,2|2,0:0|0:0,0:0:0:0:
271,136,50331,2,0,L|181:142,1,90,8|0,0:0|0:0,0:0:0:0:
25,330,50658,6,0,L|205:317,1,180,2|8,0:0|0:0,0:0:0:0:
341,193,51150,1,0,0:0:0:0:
271,136,51314,2,0,L|181:142,1,90,2|2,0:0|0:0,0:0:0:0:
284,263,51642,2,0,L|373:256,1,90,8|0,0:0|0:0,0:0:0:0:
314,57,51970,6,0,B|269:36|269:36|109:50,1,180,2|8,0:0|0:0,0:0:0:0:
185,248,52462,1,0,0:0:0:0:
219,164,52626,2,0,P|165:159|118:189,1,90,2|2,0:0|0:0,0:0:0:0:
151,332,52954,2,0,P|205:337|252:307,1,90,8|0,0:0|0:0,0:0:0:0:
384,369,53281,6,0,P|321:309|236:322,1,180,2|8,0:0|0:0,0:0:0:0:
185,248,53773,1,0,0:0:0:0:
219,164,53937,2,0,L|310:173,1,90,2|2,0:0|0:0,0:0:0:0:
443,95,54265,2,0,L|389:169,1,90,8|0,0:0|0:0,0:0:0:0:
234,350,54593,6,0,P|218:317|228:259,1,90,2|0,0:0|0:0,0:0:0:0:
180,51,54921,2,0,P|213:68|239:121,1,90,8|0,0:0|0:0,0:0:0:0:
399,261,55249,2,0,P|363:266|311:239,1,90,2|2,0:0|0:0,0:0:0:0:
98,219,55576,2,0,P|125:194|183:186,1,90,8|0,0:0|0:0,0:0:0:0:
367,77,55904,6,0,P|360:113|318:153,1,90,6|0,0:0|0:0,0:0:0:0:
188,69,56232,2,0,P|231:57|274:70,1,90,12|0,0:0|0:0,0:0:0:0:
272,228,56560,2,0,P|244:203|230:147,1,90,2|2,0:0|0:0,0:0:0:0:
367,77,56888,2,0,P|394:101|408:157,1,90,8|0,0:0|0:0,0:0:0:0:
186,227,57216,6,0,P|193:191|234:151,1,90,2|0,0:0|0:0,0:0:0:0:
354,361,57544,1,8,0:0:0:0:
272,228,57708,1,0,0:0:0:0:
108,366,57872,2,0,L|198:366,1,90,2|2,0:0|0:0,0:0:0:0:
186,227,58199,2,0,L|96:227,1,90,8|0,0:0|0:0,0:0:0:0:
255,40,58527,6,0,P|301:27|350:44,1,90,2|0,0:0|0:0,0:0:0:0:
297,207,58855,2,0,L|299:118,1,90,8|0,0:0|0:0,0:0:0:0:
405,118,59183,2,0,L|403:207,1,90,2|2,0:0|0:0,0:0:0:0:
447,286,59511,2,0,P|404:298|361:288,1,90,8|0,0:0|0:0,0:0:0:0:
403,207,59839,6,0,P|445:194|488:204,1,90,2|0,0:0|0:0,0:0:0:0:
491,365,60167,1,8,0:0:0:0:
403,207,60331,1,0,0:0:0:0:
311,363,60494,2,0,L|416:363,1,90,2|2,0:0|0:0,0:0:0:0:
449,129,60822,2,0,P|481:159|493:202,1,90,8|0,0:0|0:0,0:0:0:0:
357,285,61150,6,0,P|324:254|312:211,1,90,2|0,0:0|0:0,0:0:0:0:
490,53,61478,2,0,P|479:96|449:128,1,90,8|0,0:0|0:0,0:0:0:0:
223,55,61806,2,0,P|265:42|308:52,1,90,2|2,0:0|0:0,0:0:0:0:
493,202,62134,2,0,P|450:214|407:204,1,90,8|0,0:0|0:0,0:0:0:0:
512,119,62462,6,0,L|501:318,1,180,2|8,0:0|0:0,0:0:0:0:
256,192,62954,1,0,0:0:0:0:
309,120,63117,2,0,L|416:120,1,90,2|2,0:0|0:0,0:0:0:0:
203,264,63445,2,0,L|96:264,1,90,8|0,0:0|0:0,0:0:0:0:
328,245,63773,6,0,L|328:352,1,90,2|0,0:0|0:0,0:0:0:0:
184,139,64101,2,0,L|184:32,1,90,8|0,0:0|0:0,0:0:0:0:
134,226,64429,2,0,L|41:279,1,90,2|2,0:0|0:0,0:0:0:0:
235,226,64757,2,0,L|327:279,1,90,8|0,0:0|0:0,0:0:0:0:
184,139,65085,6,0,P|137:125|85:139,1,90,2|0,0:0|0:0,0:0:0:0:
185,313,65413,2,0,P|232:327|284:313,1,90,8|0,0:0|0:0,0:0:0:0:
232,67,65740,2,0,P|199:97|184:139,1,90,2|2,0:0|0:0,0:0:0:0:
366,50,66068,5,8,0:0:0:0:
333,54,66150,1,8,0:0:0:0:
299,58,66232,1,8,0:0:0:0:
266,63,66314,1,8,0:0:0:0:
232,67,66396,6,0,P|199:97|184:139,1,90,6|0,0:0|0:0,0:0:0:0:
420,231,66724,2,0,P|410:187|382:152,1,90,12|0,0:0|0:0,0:0:0:0:
185,313,67052,2,0,P|232:327|284:313,1,90,2|2,0:0|0:0,0:0:0:0:
281,152,67380,2,0,L|236:230,1,90,8|0,0:0|0:0,0:0:0:0:
372,315,67708,6,0,L|327:236,1,90,2|0,0:0|0:0,0:0:0:0:
185,312,68035,1,8,0:0:0:0:
274,312,68199,1,0,0:0:0:0:
370,151,68363,2,0,L|281:152,1,90,2|2,0:0|0:0,0:0:0:0:
95,312,68691,2,0,L|185:312,1,90,8|0,0:0|0:0,0:0:0:0:
280,152,69019,6,0,L|235:229,1,90,2|0,0:0|0:0,0:0:0:0:
100,152,69347,2,0,L|190:152,1,90,8|0,0:0|0:0,0:0:0:0:
280,152,69675,2,0,L|190:152,1,90,2|2,0:0|0:0,0:0:0:0:
50,77,70003,1,8,0:0:0:0:
61,232,70167,1,0,0:0:0:0:
139,72,70331,6,0,P|125:26|93:-2,1,90,2|0,0:0|0:0,0:0:0:0:
189,146,70658,2,0,P|221:110|230:69,1,90,8|0,0:0|0:0,0:0:0:0:
100,152,70986,2,0,P|113:197|146:225,1,90,2|2,0:0|0:0,0:0:0:0:
139,72,71314,2,0,L|36:72,1,90,8|0,0:0|0:0,0:0:0:0:
150,226,71642,6,0,L|240:226,1,90,2|0,0:0|0:0,0:0:0:0:
375,148,71970,2,0,P|327:135|275:155,1,90,8|0,0:0|0:0,0:0:0:0:
285,304,72298,1,2,0:0:0:0:
330,226,72462,1,2,0:0:0:0:
376,304,72626,2,0,P|424:317|476:297,1,90,8|0,0:0|0:0,0:0:0:0:
420,70,72953,6,0,P|372:57|320:77,1,90,2|0,0:0|0:0,0:0:0:0:
415,223,73281,2,0,P|405:180|375:148,1,90,8|0,0:0|0:0,0:0:0:0:
240,382,73609,1,2,0:0:0:0:
330,226,73773,1,2,0:0:0:0:
150,227,73937,2,0,L|196:318,1,90,8|0,0:0|0:0,0:0:0:0:
334,67,74265,6,0,L|284:154,1,90,6|0,0:0|0:0,0:0:0:0:
158,64,74593,2,0,L|258:63,1,90,8|0,0:0|0:0,0:0:0:0:
330,226,74921,1,2,0:0:0:0:
289,145,75085,1,2,0:0:0:0:
281,303,75249,1,8,0:0:0:0:
422,231,75412,1,0,0:0:0:0:
238,221,75576,5,2,0:0:0:0:
371,307,75740,1,8,0:0:0:0:
289,145,75904,1,6,0:0:0:0:
189,298,76068,1,0,0:0:0:0:
381,150,76232,1,8,0:0:0:0:
197,140,76396,1,8,0:0:0:0:
281,303,76560,1,2,0:0:0:0:
338,68,76724,1,2,0:0:0:0:
189,298,76888,6,0,L|-3:286,1,158.400004833984,6|0,0:0|0:0,0:0:0:0:
0,169,77380,2,0,L|158:178,1,158.400004833984,8|2,0:0|0:0,0:0:0:0:
189,298,77872,2,0,L|93:292,1,79.2000024169922,8|2,0:0|0:0,0:0:0:0:
323,86,78199,6,0,L|515:98,1,158.400004833984,6|0,0:0|0:0,0:0:0:0:
512,215,78691,2,0,L|353:205,1,158.400004833984,8|2,0:0|0:0,0:0:0:0:
323,86,79183,2,0,L|419:92,1,79.2000024169922,8|2,0:0|0:0,0:0:0:0:
150,125,79511,6,0,L|156:29,1,79.2000024169922,6|0,0:0|0:0,0:0:0:0:
142,219,79839,1,0,0:0:0:0:
142,219,80003,2,0,L|46:213,1,79.2000024169922,8|0,0:0|0:0,0:0:0:0:
244,133,80331,1,2,0:0:0:0:
228,321,80494,2,0,L|307:325,1,79.2000024169922,8|2,0:0|0:0,0:0:0:0:
364,167,80822,6,0,P|338:196|330:235,1,79.2000024169922,6|0,0:0|0:0,0:0:0:0:
398,87,81150,2,0,P|359:78|322:90,1,79.2000024169922,0|8,0:0|0:0,0:0:0:0:
484,75,81478,2,0,P|472:37|443:11,1,79.2000024169922,0|2,0:0|0:0,0:0:0:0:
418,236,81806,2,0,P|429:274|458:300,1,79.2000024169922,8|2,0:0|0:0,0:0:0:0:
256,192,82134,6,0,L|160:192,1,90,6|0,0:0|0:0,0:0:0:0:
31,114,82462,2,0,L|121:114,1,90,8|0,0:0|0:0,0:0:0:0:
211,270,82790,1,2,0:0:0:0:
166,192,82953,1,2,0:0:0:0:
166,348,83117,2,0,P|215:360|255:348,1,90,8|0,0:0|0:0,0:0:0:0:
121,114,83445,5,2,0:0:0:0:
211,270,83609,1,0,0:0:0:0:
301,114,83773,2,0,P|286:65|256:36,1,90,8|0,0:0|0:0,0:0:0:0:
74,346,84101,5,8,0:0:0:0:
211,114,84265,1,0,0:0:0:0:
343,349,84429,1,8,0:0:0:0:
332,305,84510,1,8,0:0:0:0:
302,272,84592,1,8,0:0:0:0:
260,259,84674,1,8,0:0:0:0:
216,268,84757,6,0,L|250:360,2,90,0|12|2,0:0|0:0|0:0,0:0:0:0:
60,319,85249,2,0,L|148:334,1,90,8|2,0:0|0:0,0:0:0:0:
182,172,85576,2,0,L|124:240,2,90,2|2|12,0:0|0:0|0:0,0:0:0:0:
309,50,86068,5,0,0:0:0:0:
278,223,86232,1,2,0:0:0:0:
201,65,86396,1,2,0:0:0:0:
357,148,86560,1,2,0:0:0:0:
182,172,86724,1,0,0:0:0:0:
309,50,86888,5,8,0:0:0:0:
373,312,87052,1,8,0:0:0:0:
114,236,87216,2,0,P|89:188|91:151,1,90,8|0,0:0|0:0,0:0:0:0:
