osu file format v14

[General]
AudioFilename: audio.mp3
AudioLeadIn: 0
PreviewTime: 44921
Countdown: 0
SampleSet: None
StackLeniency: 0.5
Mode: 0
LetterboxInBreaks: 0
WidescreenStoryboard: 0

[Editor]
Bookmarks: 823,3445,13937
DistanceSpacing: 1
BeatDivisor: 4
GridSize: 32
TimelineZoom: 1.5

[Metadata]
Title:Silhouette
TitleUnicode:シルエット
Artist:KANA-BOON
ArtistUnicode:KANA-BOON
Creator:Xinying
Version:Normal
Source:NARUTO-ナルト-疾風伝
Tags:Ki/oon Records Shippuden Nine Tails Opening 16 TV Size Kage Reckful Sodapoppin Japan Twitch Stream Season 2 Finale
BeatmapID:1448156
BeatmapSetID:683408

[Difficulty]
HPDrainRate:4
CircleSize:3
OverallDifficulty:4
ApproachRate:4
SliderMultiplier:1
SliderTickRate:1

[Events]
//Background and Video events
0,0,"Silhouette.png",0,0
//Break Periods
//Storyboard Layer 0 (Background)
//Storyboard Layer 1 (Fail)
//Storyboard Layer 2 (Pass)
//Storyboard Layer 3 (Foreground)
//Storyboard Sound Samples

[TimingPoints]
823,327.868113723346,4,2,1,70,1,0
823,-100,4,2,1,70,0,0
2790,-100,4,2,1,70,0,0
3118,-100,4,2,1,5,0,0
3445,-100,4,2,1,75,0,0
13937,-100,4,2,1,60,0,0
24429,-100,4,2,1,70,0,0
34921,-100,4,2,1,60,0,0
40167,-100,4,2,1,70,0,0
42790,-100,4,2,1,70,0,0
45085,-100,4,1,1,70,0,0
45331,-100,4,2,1,5,0,0
45413,-100,4,2,1,80,0,1
55576,-100,4,2,1,80,0,0
55904,-100,4,2,1,80,0,1
76888,-100,4,2,1,75,0,0
82134,-100,4,2,1,80,0,1
87380,-100,4,2,1,5,0,0

[Colours]
Combo1 : 151,203,255
Combo2 : 245,240,141
Combo3 : 255,185,220
Combo4 : 0,128,255

[HitObjects]
128,192,495,5,8,3:0:0:0:
61,267,823,6,0,P|124:293|226:215,1,200,2|2,0:0|0:0,0:0:0:0:
128,192,1806,1,8,0:0:0:0:
195,117,2134,2,0,P|157:95|98:96,2,100,8|8|2,0:0|0:0|0:0,0:0:0:0:
329,265,3445,6,0,B|380:280|380:280|482:270,2,150,6|0|8,0:0|0:0|0:0,0:0:0:0:
240,217,4757,2,0,P|234:299|282:355,2,150,2|0|8,0:0|0:0|0:0,0:0:0:0:
325,164,6068,6,0,L|481:164,2,150,2|0|8,0:0|0:0|0:0,0:0:0:0:
237,118,7380,2,0,L|137:118,1,100,2|8,0:0|0:0,0:0:0:0:
137,218,8036,2,0,L|37:218,1,100,2|8,0:0|0:0,0:0:0:0:
37,318,8691,6,0,L|137:318,1,100,2|8,0:0|0:0,0:0:0:0:
222,370,9347,2,0,P|238:318|222:263,1,100,2|8,0:0|0:0,0:0:0:0:
144,216,10003,2,0,P|181:183|230:174,2,100,2|8|2,0:0|0:0|0:0,0:0:0:0:
228,274,10986,1,8,0:0:0:0:
316,226,11314,6,0,L|329:77,2,150,2|0|8,0:0|0:0|0:0,0:0:0:0:
228,274,12626,2,0,P|266:314|317:328,1,100,2|8,0:0|0:0,0:0:0:0:
400,284,13281,1,2,0:0:0:0:
316,226,13609,1,8,0:0:0:0:
408,182,13937,6,0,P|457:200|492:244,2,100,6|8|2,0:0|0:0|0:0,0:0:0:0:
316,226,14921,1,8,0:0:0:0:
231,168,15249,2,0,P|173:181|135:220,1,100,2|8,0:0|0:0,0:0:0:0:
136,309,15904,2,0,P|185:300|224:270,1,100,2|8,0:0|0:0,0:0:0:0:
231,168,16560,6,0,L|231:50,1,100,2|8,0:0|0:0,0:0:0:0:
330,82,17216,2,0,B|367:91|367:91|445:78,2,100,2|8|2,0:0|0:0|0:0,0:0:0:0:
231,68,18200,1,8,0:0:0:0:
132,54,18527,2,0,B|95:45|95:45|17:58,1,100,2|8,0:0|0:0,0:0:0:0:
28,155,19183,6,0,B|65:164|65:164|143:151,1,100,2|8,0:0|0:0,0:0:0:0:
179,238,19839,2,0,L|174:341,2,100,2|8|2,0:0|0:0|0:0,0:0:0:0:
240,159,20822,1,8,0:0:0:0:
277,251,21150,2,0,L|272:354,2,100,2|8|2,0:0|0:0|0:0,0:0:0:0:
339,173,22134,5,8,0:0:0:0:
375,264,22462,2,0,L|370:367,1,100,2|8,0:0|0:0,0:0:0:0:
469,377,23118,2,0,L|474:278,1,100,2|8,0:0|0:0,0:0:0:0:
438,187,23773,2,0,L|433:87,1,100,2|8,0:0|0:0,0:0:0:0:
345,37,24429,6,0,P|302:53|240:33,2,100,6|8|2,0:0|0:0|0:0,0:0:0:0:
433,87,25413,1,8,0:0:0:0:
438,187,25740,2,0,L|338:191,1,100,2|8,0:0|0:0,0:0:0:0:
338,292,26396,2,0,L|238:296,1,100,2|8,0:0|0:0,0:0:0:0:
161,361,27052,6,0,P|140:318|144:261,1,100,2|8,0:0|0:0,0:0:0:0:
215,197,27708,2,0,P|217:147|196:102,2,100,2|8|2,0:0|0:0|0:0,0:0:0:0:
118,169,28691,1,8,0:0:0:0:
21,141,29019,2,0,P|18:190|39:235,1,100,2|8,0:0|0:0,0:0:0:0:
111,305,29675,6,0,L|217:301,1,100,2|8,0:0|0:0,0:0:0:0:
294,248,30331,2,0,P|306:197|290:147,2,100,2|8|2,0:0|0:0|0:0,0:0:0:0:
207,202,31314,1,8,0:0:0:0:
207,102,31642,2,0,P|242:67|290:54,2,100,2|8|2,0:0|0:0|0:0,0:0:0:0:
293,152,32626,5,8,0:0:0:0:
379,198,32954,2,0,P|391:150|379:103,1,100,2|8,0:0|0:0,0:0:0:0:
290,53,33609,2,0,L|169:45,2,100,2|8|8,0:0|0:0|0:0,0:0:0:0:
293,152,34593,1,2,0:0:0:0:
296,251,34921,6,0,L|459:239,2,150,6|8|8,0:0|0:0|0:0,0:0:0:0:
293,152,36232,2,0,L|281:-11,2,150,6|8|8,0:0|0:0|0:0,0:0:0:0:
194,155,37544,6,0,L|31:167,2,150,6|8|8,0:0|0:0|0:0,0:0:0:0:
197,254,38855,2,0,L|206:368,1,100,6|2,0:0|0:0,0:0:0:0:
303,350,39511,2,0,L|296:251,1,100,0|8,0:0|0:0,0:0:0:0:
244,167,40167,6,0,P|293:151|349:167,1,100,6|8,0:0|0:0,0:0:0:0:
394,242,40822,2,0,P|427:205|437:157,1,100,2|8,0:0|0:0,0:0:0:0:
382,73,41478,2,0,P|429:57|478:68,2,100,2|8|2,0:0|0:0|0:0,0:0:0:0:
339,161,42462,1,8,0:0:0:0:
244,167,42790,6,0,L|142:167,1,100,6|8,0:0|0:0,0:0:0:0:
61,223,43445,2,0,P|41:174|54:120,1,100,2|8,0:0|0:0,0:0:0:0:
43,27,44101,2,0,P|92:33|130:64,1,100,6|8,0:0|0:0,0:0:0:0:
220,108,44757,2,0,P|190:147|144:165,1,100,2|2,0:0|0:0,0:0:0:0:
61,223,45413,6,0,B|43:257|43:257|54:326,1,100,6|8,0:0|0:0,0:0:0:0:
144,357,46068,2,0,B|162:323|162:323|151:254,1,100,2|8,0:0|0:0,0:0:0:0:
141,164,46724,2,0,P|103:133|53:124,2,100,2|8|2,0:0|0:0|0:0,0:0:0:0:
152,262,47708,1,8,0:0:0:0:
232,203,48036,6,0,L|333:203,1,100,2|8,0:0|0:0,0:0:0:0:
417,255,48691,2,0,P|431:205|420:158,1,100,2|8,0:0|0:0,0:0:0:0:
422,58,49347,2,0,P|371:70|336:103,1,100,2|8,0:0|0:0,0:0:0:0:
332,203,50003,1,2,0:0:0:0:
247,147,50331,1,8,0:0:0:0:
242,249,50658,6,0,P|278:289|325:304,1,100,2|8,0:0|0:0,0:0:0:0:
332,203,51314,2,0,L|440:203,2,100,2|8|2,0:0|0:0|0:0,0:0:0:0:
247,147,52298,1,8,0:0:0:0:
162,91,52626,2,0,L|54:91,2,100,2|8|2,0:0|0:0|0:0,0:0:0:0:
252,45,53609,5,8,0:0:0:0:
247,147,53937,2,0,L|241:258,1,100,2|8,0:0|0:0,0:0:0:0:
278,340,54593,2,0,P|222:345|178:323,1,100,2|8,0:0|0:0,0:0:0:0:
141,235,55249,2,0,P|95:216|46:222,1,100,2|8,0:0|0:0,0:0:0:0:
16,126,55904,6,0,L|22:23,1,100,6|12,0:0|0:0,0:0:0:0:
122,30,56560,2,0,L|116:129,1,100,2|8,0:0|0:0,0:0:0:0:
214,132,57216,2,0,P|263:124|306:83,2,100,2|8|2,0:0|0:0|0:0,0:0:0:0:
208,232,58199,1,8,0:0:0:0:
202,332,58527,6,0,L|302:335,1,100,2|8,0:0|0:0,0:0:0:0:
394,372,59183,2,0,P|398:316|377:271,1,100,2|8,0:0|0:0,0:0:0:0:
290,237,59839,2,0,P|320:198|366:178,1,100,2|8,0:0|0:0,0:0:0:0:
457,213,60494,1,2,0:0:0:0:
443,117,60822,1,8,0:0:0:0:
352,82,61150,6,0,L|246:74,1,100,2|8,0:0|0:0,0:0:0:0:
152,61,61806,2,0,P|96:70|54:107,2,100,2|8|2,0:0|0:0|0:0,0:0:0:0:
139,161,62790,1,8,0:0:0:0:
126,261,63117,2,0,P|182:252|224:215,2,100,2|8|2,0:0|0:0|0:0,0:0:0:0:
139,161,64101,5,8,0:0:0:0:
232,122,64429,2,0,B|263:108|263:108|333:118,1,100,2|8,0:0|0:0,0:0:0:0:
406,179,65085,2,0,P|426:133|421:82,2,100,2|8|2,0:0|0:0|0:0,0:0:0:0:
313,215,66068,1,8,0:0:0:0:
391,278,66396,6,0,P|440:272|482:242,1,100,6|12,0:0|0:0,0:0:0:0:
406,179,67052,2,0,P|426:133|421:82,1,100,2|8,0:0|0:0,0:0:0:0:
327,116,67708,2,0,P|297:75|250:54,2,100,2|8|2,0:0|0:0|0:0,0:0:0:0:
232,152,68691,1,8,0:0:0:0:
137,188,69019,6,0,P|166:228|213:249,1,100,2|8,0:0|0:0,0:0:0:0:
308,223,69675,2,0,L|408:223,1,100,2|8,0:0|0:0,0:0:0:0:
408,323,70331,2,0,L|308:323,1,100,2|8,0:0|0:0,0:0:0:0:
219,370,70986,1,2,0:0:0:0:
222,269,71314,1,8,0:0:0:0:
133,316,71642,6,0,P|120:269|139:211,1,100,2|8,0:0|0:0,0:0:0:0:
217,166,72298,2,0,P|182:131|135:119,2,100,2|8|2,0:0|0:0|0:0,0:0:0:0:
222,269,73281,1,8,0:0:0:0:
133,316,73609,2,0,P|120:269|139:211,1,100,2|8,0:0|0:0,0:0:0:0:
217,166,74265,6,0,L|332:166,1,100,6|8,0:0|0:0,0:0:0:0:
403,217,74921,2,0,P|416:159|401:114,1,100,2|8,0:0|0:0,0:0:0:0:
323,68,75576,1,2,0:0:0:0:
317,166,75904,1,6,0:0:0:0:
235,111,76232,2,0,B|186:94|186:94|122:101,1,100,8|2,0:0|0:0,0:0:0:0:
80,181,76888,6,0,L|78:21,2,150,6|8|8,0:0|0:0|0:0,0:0:0:0:
161,239,78199,2,0,P|96:280|9:255,2,150,6|8|8,0:0|0:0|0:0,0:0:0:0:
171,140,79511,6,0,P|239:175|260:263,2,150,6|8|8,0:0|0:0|0:0,0:0:0:0:
80,181,80822,2,0,L|78:64,1,100,6|0,0:0|0:0,0:0:0:0:
165,31,81478,2,0,P|217:44|271:23,1,100,0|8,0:0|0:0,0:0:0:0:
284,128,82134,6,0,P|331:114|379:127,1,100,6|8,0:0|0:0,0:0:0:0:
330,213,82790,1,2,0:0:0:0:
428,213,83117,1,8,0:0:0:0:
372,299,83445,2,0,P|324:312|276:299,1,100,2|8,0:0|0:0,0:0:0:0:
228,209,84101,2,0,L|120:210,1,100,8|8,0:0|0:0,0:0:0:0:
69,128,84757,6,0,B|111:93|111:93|228:94,2,150,0|8|2,0:0|0:0|0:0,0:0:0:0:
12,210,86068,2,0,P|63:227|112:217,1,100,0|2,0:0|0:0,0:0:0:0:
177,290,86724,2,0,L|346:296,1,150,0|8,0:0|0:0,0:0:0:0:
