osu file format v14

[General]
AudioFilename: audio.mp3
AudioLeadIn: 0
PreviewTime: 44921
Countdown: 0
SampleSet: Soft
StackLeniency: 0.5
Mode: 0
LetterboxInBreaks: 0
WidescreenStoryboard: 0

[Editor]
Bookmarks: 823,3445,13937
DistanceSpacing: 1
BeatDivisor: 4
GridSize: 32
TimelineZoom: 1.5

[Metadata]
Title:Silhouette
TitleUnicode:シルエット
Artist:KANA-BOON
ArtistUnicode:KANA-BOON
Creator:Xinying
Version:Hard
Source:NARUTO-ナルト-疾風伝
Tags:Ki/oon Records Shippuden Nine Tails Opening 16 TV Size Kage Reckful Sodapoppin Japan Twitch Stream Season 2 Finale
BeatmapID:1447403
BeatmapSetID:683408

[Difficulty]
HPDrainRate:5
CircleSize:4
OverallDifficulty:6
ApproachRate:8
SliderMultiplier:1.6
SliderTickRate:1

[Events]
//Background and Video events
0,0,"Silhouette.png",0,0
//Break Periods
//Storyboard Layer 0 (Background)
//Storyboard Layer 1 (Fail)
//Storyboard Layer 2 (Pass)
//Storyboard Layer 3 (Foreground)
//Storyboard Sound Samples

[TimingPoints]
823,327.868113723346,4,2,1,70,1,0
823,-100,4,2,1,70,0,0
2790,-200,4,2,1,70,0,0
3118,-200,4,2,1,5,0,0
3445,-100,4,2,1,75,0,0
13937,-113.636363636364,4,2,1,60,0,0
24429,-113.636363636364,4,2,1,70,0,0
34921,-113.636363636364,4,2,1,60,0,0
40167,-113.636363636364,4,2,1,70,0,0
42790,-100,4,2,1,70,0,0
45085,-200,4,1,1,70,0,0
45331,-200,4,2,1,5,0,0
45413,-100,4,2,1,80,0,1
55576,-100,4,2,1,80,0,0
55904,-100,4,2,1,80,0,1
76888,-113.636363636364,4,2,1,75,0,0
82134,-100,4,2,1,80,0,1
87380,-100,4,2,1,5,0,0

[Colours]
Combo1 : 151,203,255
Combo2 : 245,240,141
Combo3 : 255,185,220
Combo4 : 0,128,255

[HitObjects]
106,75,495,5,8,3:0:0:0:
106,75,823,6,0,L|99:170,1,80,2|2,0:0|0:0,0:0:0:0:
178,168,1150,2,0,L|183:247,1,80,8|0,0:0|0:0,0:0:0:0:
139,315,1478,2,0,P|186:329|233:310,1,80,2|2,0:0|0:0,0:0:0:0:
263,258,1806,2,0,P|301:251|339:264,1,80,8|2,0:0|0:0,0:0:0:0:
294,332,2134,6,0,L|350:360,3,40,8|8|8|8,0:0|0:0|0:0|0:0,0:0:0:0:
369,342,2462,2,0,L|404:324,3,40,8|8|8|8,0:0|0:0|0:0|0:0,0:0:0:0:
444,332,2790,1,2,0:0:0:0:
344,28,3445,6,0,P|295:37|263:25,1,80,6|0,0:0|0:0,0:0:0:0:
198,68,3773,2,0,L|118:68,1,80,8|0,0:0|0:0,0:0:0:0:
118,148,4101,2,0,L|198:148,2,80,2|0|8,0:0|0:0|0:0,0:0:0:0:
38,68,4593,1,0,0:0:0:0:
38,148,4757,6,0,L|38:228,1,80,2|0,0:0|0:0,0:0:0:0:
44,308,5085,2,0,P|85:293|114:244,1,80,8|0,0:0|0:0,0:0:0:0:
134,190,5413,2,0,P|159:160|197:147,1,80,2|0,0:0|0:0,0:0:0:0:
203,227,5741,2,0,L|203:307,1,80,8|0,0:0|0:0,0:0:0:0:
309,307,6068,6,0,L|309:227,1,80,2|0,0:0|0:0,0:0:0:0:
357,163,6396,1,8,0:0:0:0:
405,99,6560,2,0,P|359:82|316:94,1,80,0|2,0:0|0:0,0:0:0:0:
357,163,6888,2,0,P|403:180|446:168,2,80,0|8|0,0:0|0:0|0:0,0:0:0:0:
329,87,7380,6,0,B|293:72|293:72|169:82,1,160,2|8,0:0|0:0,0:0:0:0:
136,154,7872,2,0,P|178:163|218:147,1,80,0|2,0:0|0:0,0:0:0:0:
172,81,8200,2,0,P|130:72|90:88,2,80,0|8|0,0:0|0:0|0:0,0:0:0:0:
136,154,8691,6,0,L|130:325,1,160,2|8,0:0|0:0,0:0:0:0:
193,363,9183,2,0,P|241:345|292:362,1,80,0|2,0:0|0:0,0:0:0:0:
347,361,9511,1,0,0:0:0:0:
396,298,9675,2,0,P|348:280|297:297,1,80,8|0,0:0|0:0,0:0:0:0:
396,298,10003,6,0,P|424:240|408:149,2,160,2|8|2,0:0|0:0|0:0,0:0:0:0:
324,261,10822,1,0,0:0:0:0:
255,302,10986,2,0,L|164:303,1,80,8|0,0:0|0:0,0:0:0:0:
108,257,11314,6,0,P|95:303|106:344,1,80,2|0,0:0|0:0,0:0:0:0:
175,302,11642,2,0,P|188:256|177:215,1,80,8|0,0:0|0:0,0:0:0:0:
108,257,11970,2,0,L|28:257,1,80,2|0,0:0|0:0,0:0:0:0:
28,176,12298,2,0,L|108:176,1,80,8|0,0:0|0:0,0:0:0:0:
154,110,12626,6,0,B|217:110|217:110|253:91|253:91|324:91,1,160,2|8,0:0|0:0,0:0:0:0:
377,48,13118,1,0,0:0:0:0:
381,129,13281,2,0,L|382:188,2,40,2|2|8,0:0|0:0|0:0,0:0:0:0:
449,85,13609,2,0,P|464:136|450:172,1,80,8|8,0:0|0:0,0:0:0:0:
456,200,13855,1,8,0:0:0:0:
456,200,13937,6,0,P|449:238|464:275,1,70.4000021484376,6|0,0:0|0:0,0:0:0:0:
475,343,14265,2,0,L|405:353,1,70.4000021484376,8|0,0:0|0:0,0:0:0:0:
338,314,14593,2,0,L|268:303,1,70.4000021484376,2|2,0:0|0:0,0:0:0:0:
201,264,14921,2,0,P|188:310|203:347,1,70.4000021484376,8|0,0:0|0:0,0:0:0:0:
90,375,15249,6,0,P|103:329|88:292,1,70.4000021484376,2|0,0:0|0:0,0:0:0:0:
30,268,15577,2,0,P|24:233|37:201,1,70.4000021484376,8|0,0:0|0:0,0:0:0:0:
75,133,15904,1,2,0:0:0:0:
114,199,16068,1,2,0:0:0:0:
152,133,16232,2,0,P|144:94|113:65,1,70.4000021484376,8|0,0:0|0:0,0:0:0:0:
8,126,16560,6,0,P|40:138|75:133,1,70.4000021484376,2|0,0:0|0:0,0:0:0:0:
152,133,16888,2,0,P|186:127|218:139,1,70.4000021484376,8|0,0:0|0:0,0:0:0:0:
288,173,17216,1,2,0:0:0:0:
321,103,17380,1,2,0:0:0:0:
358,206,17544,2,0,L|430:233,1,70.4000021484376,8|0,0:0|0:0,0:0:0:0:
456,160,17872,6,0,L|391:136,1,70.4000021484376,2|0,0:0|0:0,0:0:0:0:
321,103,18200,2,0,P|278:95|235:115,1,70.4000021484376,8|0,0:0|0:0,0:0:0:0:
220,172,18527,2,0,P|253:180|288:173,1,70.4000021484376,2|2,0:0|0:0,0:0:0:0:
358,206,18855,2,0,L|348:303,1,70.4000021484376,8|0,0:0|0:0,0:0:0:0:
295,330,19183,6,0,P|350:354|416:313,2,140.800004296875,2|8|2,0:0|0:0|0:0,0:0:0:0:
236,278,20003,1,2,0:0:0:0:
179,330,20167,2,0,L|91:330,1,70.4000021484376,8|0,0:0|0:0,0:0:0:0:
41,208,20495,6,0,B|73:232|73:232|190:232,2,140.800004296875,2|8|2,0:0|0:0|0:0,0:0:0:0:
24,132,21314,1,2,0:0:0:0:
66,67,21478,2,0,L|155:67,1,70.4000021484376,8|0,0:0|0:0,0:0:0:0:
256,32,21806,6,0,P|302:53|382:22,1,140.800004296875,2|8,0:0|0:0,0:0:0:0:
458,35,22298,1,0,0:0:0:0:
423,104,22462,2,0,L|411:184,1,70.4000021484376,2|2,0:0|0:0,0:0:0:0:
475,219,22790,2,0,L|487:299,1,70.4000021484376,8|0,0:0|0:0,0:0:0:0:
442,353,23118,6,0,B|411:338|411:338|290:347,1,140.800004296875,2|8,0:0|0:0,0:0:0:0:
233,316,23609,1,0,0:0:0:0:
293,269,23773,2,0,P|261:242|211:243,1,70.4000021484376,2|2,0:0|0:0,0:0:0:0:
164,273,24101,2,0,P|153:239|161:205,1,70.4000021484376,8|2,0:0|0:0,0:0:0:0:
214,149,24429,6,0,P|161:127|90:171,2,140.800004296875,6|8|2,0:0|0:0|0:0,0:0:0:0:
291,141,25249,1,2,0:0:0:0:
368,133,25413,2,0,L|464:121,1,70.4000021484376,8|0,0:0|0:0,0:0:0:0:
323,71,25740,6,0,L|250:61,1,70.4000021484376,2|0,0:0|0:0,0:0:0:0:
184,97,26068,2,0,P|173:61|186:17,1,70.4000021484376,8|0,0:0|0:0,0:0:0:0:
253,61,26396,2,0,P|264:97|251:141,1,70.4000021484376,2|2,0:0|0:0,0:0:0:0:
181,175,26724,1,8,0:0:0:0:
184,97,26888,1,0,0:0:0:0:
254,206,27052,6,0,P|227:239|177:256,1,70.4000021484376,2|0,0:0|0:0,0:0:0:0:
126,235,27380,2,0,P|126:269|139:302,1,70.4000021484376,8|0,0:0|0:0,0:0:0:0:
204,346,27708,2,0,L|280:346,1,70.4000021484376,2|2,0:0|0:0,0:0:0:0:
335,297,28036,2,0,L|405:297,1,70.4000021484376,8|0,0:0|0:0,0:0:0:0:
473,260,28363,6,0,P|483:304|466:345,1,70.4000021484376,2|0,0:0|0:0,0:0:0:0:
405,297,28691,2,0,P|395:253|412:212,1,70.4000021484376,8|0,0:0|0:0,0:0:0:0:
464,183,29019,1,2,0:0:0:0:
473,260,29183,1,2,0:0:0:0:
392,152,29347,2,0,L|395:79,1,70.4000021484376,8|0,0:0|0:0,0:0:0:0:
325,35,29675,6,0,B|392:58|392:58|460:39,2,140.800004296875,2|8|2,0:0|0:0|0:0,0:0:0:0:
248,25,30495,1,2,0:0:0:0:
197,82,30658,2,0,P|157:88|108:69,1,70.4000021484376,8|0,0:0|0:0,0:0:0:0:
77,22,30986,6,0,P|94:59|67:152,1,140.800004296875,2|8,0:0|0:0,0:0:0:0:
25,216,31478,1,0,0:0:0:0:
61,284,31642,2,0,L|134:272,1,70.4000021484376,2|2,0:0|0:0,0:0:0:0:
207,365,31970,2,0,L|137:353,1,70.4000021484376,8|0,0:0|0:0,0:0:0:0:
215,284,32298,6,0,L|353:261,1,140.800004296875,2|8,0:0|0:0,0:0:0:0:
423,295,32790,1,0,0:0:0:0:
475,238,32954,2,0,P|487:199|481:169,1,70.4000021484376,2|2,0:0|0:0,0:0:0:0:
413,124,33281,2,0,P|402:157|407:192,1,70.4000021484376,8|0,0:0|0:0,0:0:0:0:
486,88,33609,6,0,P|463:61|430:48,1,70.4000021484376,2|0,0:0|0:0,0:0:0:0:
357,84,33937,2,0,P|380:111|413:124,1,70.4000021484376,8|0,0:0|0:0,0:0:0:0:
475,238,34265,1,8,0:0:0:0:
453,313,34429,1,8,0:0:0:0:
400,216,34593,2,0,L|316:166,1,70.4000021484376,2|2,0:0|0:0,0:0:0:0:
303,269,34921,6,0,L|163:273,1,140.800004296875,6|2,0:0|0:0,0:0:0:0:
98,228,35413,2,0,P|86:299|145:350,1,140.800004296875,8|2,0:0|0:0,0:0:0:0:
206,358,35904,2,0,L|276:356,1,70.4000021484376,8|2,0:0|0:0,0:0:0:0:
303,269,36232,6,0,L|443:265,1,140.800004296875,6|2,0:0|0:0,0:0:0:0:
453,187,36724,2,0,L|313:191,1,140.800004296875,8|2,0:0|0:0,0:0:0:0:
323,113,37216,2,0,L|393:111,1,70.4000021484376,8|2,0:0|0:0,0:0:0:0:
333,34,37544,6,0,L|193:38,1,140.800004296875,6|2,0:0|0:0,0:0:0:0:
204,115,38036,2,0,L|64:111,1,140.800004296875,8|2,0:0|0:0,0:0:0:0:
32,181,38527,1,8,0:0:0:0:
32,181,38855,6,0,B|13:228|13:228|40:332,1,140.800004296875,6|2,0:0|0:0,0:0:0:0:
107,345,39347,1,8,0:0:0:0:
149,280,39511,2,0,P|193:269|230:283,1,70.4000021484376,0|2,0:0|0:0,0:0:0:0:
266,335,39839,2,0,P|288:308|295:274,1,70.4000021484376,8|2,0:0|0:0,0:0:0:0:
252,208,40167,6,0,P|326:201|370:253,2,140.800004296875,6|8|2,0:0|0:0|0:0,0:0:0:0:
295,274,40986,1,2,0:0:0:0:
338,340,41150,2,0,L|425:340,1,70.4000021484376,8|0,0:0|0:0,0:0:0:0:
468,290,41478,6,0,L|468:203,1,70.4000021484376,2|0,0:0|0:0,0:0:0:0:
426,153,41806,2,0,P|469:140|509:155,1,70.4000021484376,8|0,0:0|0:0,0:0:0:0:
389,222,42134,1,2,0:0:0:0:
347,156,42298,1,2,0:0:0:0:
310,225,42462,2,0,P|317:258|349:293,1,70.4000021484376,8|0,0:0|0:0,0:0:0:0:
347,156,42790,6,0,P|288:149|231:232,1,160,6|8,0:0|0:0,0:0:0:0:
310,225,43281,1,0,0:0:0:0:
426,153,43445,2,0,L|511:153,2,80,2|2|8,0:0|0:0|0:0,0:0:0:0:
389,222,43937,1,0,0:0:0:0:
384,87,44101,6,0,P|422:75|470:90,1,80,6|0,0:0|0:0,0:0:0:0:
506,153,44429,2,0,L|498:215,3,40,8|8|8|8,0:0|0:0|0:0|0:0,0:0:0:0:
489,235,44757,5,2,0:0:0:0:
389,350,45085,2,0,L|327:354,1,60,2|0,0:0|0:0,0:0:0:0:
329,353,45413,6,0,L|235:341,1,80,6|0,0:0|0:0,0:0:0:0:
169,348,45740,2,0,P|127:360|88:346,1,80,8|0,0:0|0:0,0:0:0:0:
51,277,46068,2,0,P|88:265|127:276,1,80,2|2,0:0|0:0,0:0:0:0:
207,267,46396,2,0,L|207:184,1,80,8|0,0:0|0:0,0:0:0:0:
245,116,46724,6,0,P|205:106|163:119,1,80,2|0,0:0|0:0,0:0:0:0:
111,172,47052,1,8,0:0:0:0:
91,95,47216,1,0,0:0:0:0:
35,150,47380,2,0,P|34:194|66:239,1,80,2|2,0:0|0:0,0:0:0:0:
126,247,47708,2,0,P|128:207|111:172,1,80,8|0,0:0|0:0,0:0:0:0:
67,302,48036,6,0,P|100:323|139:326,1,80,2|0,0:0|0:0,0:0:0:0:
207,284,48363,2,0,L|287:284,1,80,8|0,0:0|0:0,0:0:0:0:
287,364,48691,2,0,L|207:364,1,80,2|2,0:0|0:0,0:0:0:0:
287,284,49019,2,0,L|367:284,1,80,8|0,0:0|0:0,0:0:0:0:
432,330,49347,6,0,P|447:286|440:252,1,80,2|0,0:0|0:0,0:0:0:0:
378,206,49675,1,8,0:0:0:0:
389,129,49839,1,0,0:0:0:0:
451,177,50003,2,0,P|469:137|457:90,1,80,2|2,0:0|0:0,0:0:0:0:
401,54,50331,2,0,P|384:89|389:129,1,80,8|0,0:0|0:0,0:0:0:0:
440,254,50658,6,0,P|397:283|306:237,1,160,2|8,0:0|0:0,0:0:0:0:
166,96,51314,2,0,L|81:96,1,80,2|2,0:0|0:0,0:0:0:0:
69,174,51642,2,0,L|149:174,1,80,8|0,0:0|0:0,0:0:0:0:
9,119,51970,6,0,L|9:286,1,160,2|8,0:0|0:0,0:0:0:0:
198,215,52626,2,0,P|237:209|274:222,1,80,2|2,0:0|0:0,0:0:0:0:
307,295,52954,2,0,P|267:300|230:287,1,80,8|0,0:0|0:0,0:0:0:0:
353,231,53281,6,0,B|403:213|403:213|512:213,1,160,2|8,0:0|0:0,0:0:0:0:
483,137,53773,1,0,0:0:0:0:
455,60,53937,2,0,P|493:55|535:74,1,80,2|2,0:0|0:0,0:0:0:0:
483,137,54265,2,0,P|445:142|403:123,1,80,8|0,0:0|0:0,0:0:0:0:
372,50,54593,6,0,L|279:50,1,80,2|0,0:0|0:0,0:0:0:0:
275,128,54921,2,0,L|354:128,1,80,8|0,0:0|0:0,0:0:0:0:
293,50,55249,2,0,L|199:49,1,80,2|2,0:0|0:0,0:0:0:0:
195,127,55576,2,0,L|274:127,1,80,8|0,0:0|0:0,0:0:0:0:
213,49,55904,6,0,L|119:48,1,80,6|0,0:0|0:0,0:0:0:0:
66,94,56232,2,0,P|51:58|69:0,1,80,12|0,0:0|0:0,0:0:0:0:
133,48,56560,2,0,P|148:84|130:142,1,80,2|2,0:0|0:0,0:0:0:0:
77,173,56888,2,0,P|107:198|147:204,1,80,8|0,0:0|0:0,0:0:0:0:
214,158,57216,6,0,P|229:194|223:234,1,80,2|0,0:0|0:0,0:0:0:0:
167,332,57544,1,8,0:0:0:0:
146,255,57708,1,0,0:0:0:0:
244,311,57872,2,0,L|330:317,1,80,2|2,0:0|0:0,0:0:0:0:
395,281,58199,2,0,P|402:332|376:376,1,80,8|0,0:0|0:0,0:0:0:0:
329,237,58527,6,0,P|322:186|348:142,1,80,2|0,0:0|0:0,0:0:0:0:
400,201,58855,2,0,P|440:169|491:169,1,80,8|0,0:0|0:0,0:0:0:0:
480,51,59183,2,0,P|439:82|388:82,1,80,2|2,0:0|0:0,0:0:0:0:
346,40,59511,2,0,L|250:40,1,80,8|0,0:0|0:0,0:0:0:0:
259,121,59839,6,0,L|339:121,1,80,2|0,0:0|0:0,0:0:0:0:
192,74,60167,1,8,0:0:0:0:
185,156,60331,1,0,0:0:0:0:
118,109,60494,2,0,P|110:69|129:20,1,80,2|2,0:0|0:0,0:0:0:0:
185,156,60822,2,0,P|154:182|102:190,1,80,8|0,0:0|0:0,0:0:0:0:
0,266,61150,6,0,P|40:201|116:192,1,160,2|8,0:0|0:0,0:0:0:0:
157,261,61642,1,0,0:0:0:0:
233,238,61806,2,0,L|313:238,1,80,2|2,0:0|0:0,0:0:0:0:
313,318,62134,2,0,L|233:318,1,80,8|0,0:0|0:0,0:0:0:0:
313,238,62462,6,0,L|473:238,1,160,2|8,0:0|0:0,0:0:0:0:
454,159,62954,1,0,0:0:0:0:
435,80,63117,2,0,P|479:82|516:109,1,80,2|2,0:0|0:0,0:0:0:0:
454,159,63445,2,0,P|410:157|373:130,1,80,8|0,0:0|0:0,0:0:0:0:
435,80,63773,6,0,L|435:258,1,160,2|8,0:0|0:0,0:0:0:0:
383,301,64265,1,0,0:0:0:0:
303,286,64429,2,0,P|265:273|224:283,1,80,2|2,0:0|0:0,0:0:0:0:
185,350,64757,2,0,P|223:363|264:353,1,80,8|0,0:0|0:0,0:0:0:0:
188,209,65085,6,0,P|157:235|145:275,1,80,2|0,0:0|0:0,0:0:0:0:
227,281,65413,2,0,P|257:254|269:214,1,80,8|0,0:0|0:0,0:0:0:0:
188,209,65740,2,0,L|93:209,1,80,2|2,0:0|0:0,0:0:0:0:
29,183,66068,2,0,P|37:165|51:151,3,40,8|8|8|8,0:0|0:0|0:0|0:0,0:0:0:0:
87,134,66396,6,0,P|100:94|89:53,1,80,6|0,0:0|0:0,0:0:0:0:
210,23,66724,2,0,P|197:63|208:104,1,80,12|0,0:0|0:0,0:0:0:0:
276,63,67052,2,0,L|356:64,1,80,2|2,0:0|0:0,0:0:0:0:
423,105,67380,2,0,P|436:65|425:24,1,80,8|0,0:0|0:0,0:0:0:0:
340,140,67708,6,0,P|327:180|338:221,1,80,2|0,0:0|0:0,0:0:0:0:
442,254,68035,1,8,0:0:0:0:
407,182,68199,1,0,0:0:0:0:
370,288,68363,2,0,P|414:328|455:332,1,80,2|2,0:0|0:0,0:0:0:0:
335,216,68691,2,0,P|295:260|291:301,1,80,8|0,0:0|0:0,0:0:0:0:
407,182,69019,6,0,P|363:142|322:138,1,80,2|0,0:0|0:0,0:0:0:0:
272,171,69347,2,0,P|298:201|335:216,1,80,8|0,0:0|0:0,0:0:0:0:
350,57,69675,2,0,P|311:64|280:88,1,80,2|2,0:0|0:0,0:0:0:0:
203,123,70003,1,8,0:0:0:0:
272,171,70167,1,0,0:0:0:0:
211,40,70331,6,0,P|165:50|139:71,1,80,2|0,0:0|0:0,0:0:0:0:
30,109,70658,2,0,P|69:115|101:139,1,80,8|0,0:0|0:0,0:0:0:0:
195,206,70986,2,0,P|149:216|123:237,1,80,2|2,0:0|0:0,0:0:0:0:
14,275,71314,2,0,P|53:281|85:305,1,80,8|0,0:0|0:0,0:0:0:0:
187,289,71642,6,0,B|241:306|241:306|366:290,1,160,2|8,0:0|0:0,0:0:0:0:
411,249,72134,1,0,0:0:0:0:
478,205,72298,2,0,B|500:248|481:284,1,80,2|2,0:0|0:0,0:0:0:0:
411,249,72626,2,0,B|389:206|408:170,1,80,8|0,0:0|0:0,0:0:0:0:
470,126,72953,6,0,P|415:144|315:89,1,160,2|8,0:0|0:0,0:0:0:0:
266,49,73445,1,0,0:0:0:0:
187,73,73609,2,0,L|107:73,1,80,2|2,0:0|0:0,0:0:0:0:
107,153,73937,2,0,L|187:153,1,80,8|0,0:0|0:0,0:0:0:0:
27,153,74265,6,0,L|27:336,1,160,6|8,0:0|0:0,0:0:0:0:
94,357,74757,1,0,0:0:0:0:
142,292,74921,2,0,P|181:281|228:297,1,80,2|2,0:0|0:0,0:0:0:0:
263,357,75249,2,0,P|290:328|299:290,1,80,8|0,0:0|0:0,0:0:0:0:
336,223,75576,6,0,P|308:251|299:289,1,80,2|8,0:0|0:0,0:0:0:0:
380,289,75904,2,0,P|418:298|457:288,1,80,6|0,0:0|0:0,0:0:0:0:
451,146,76232,1,8,0:0:0:0:
416,218,76396,1,8,0:0:0:0:
371,151,76560,2,0,P|377:113|402:81,1,80,2|2,0:0|0:0,0:0:0:0:
336,223,76888,6,0,B|298:207|298:207|190:219,1,140.800004296875,6|0,0:0|0:0,0:0:0:0:
156,283,77380,2,0,B|194:299|194:299|302:287,1,140.800004296875,8|2,0:0|0:0,0:0:0:0:
336,223,77872,2,0,P|363:253|368:302,1,70.4000021484376,8|2,0:0|0:0,0:0:0:0:
259,219,78199,6,0,L|272:61,1,140.800004296875,6|0,0:0|0:0,0:0:0:0:
195,35,78691,2,0,L|183:175,1,140.800004296875,8|2,0:0|0:0,0:0:0:0:
259,219,79183,2,0,L|265:139,1,70.4000021484376,8|2,0:0|0:0,0:0:0:0:
195,35,79511,6,0,B|145:48|145:48|40:33,1,140.800004296875,6|0,0:0|0:0,0:0:0:0:
6,144,80003,2,0,B|56:131|56:131|145:144,1,140.800004296875,8|2,0:0|0:0,0:0:0:0:
134,213,80494,2,0,L|145:144,1,70.4000021484376,8|2,0:0|0:0,0:0:0:0:
122,295,80822,6,0,L|191:305,1,70.4000021484376,6|0,0:0|0:0,0:0:0:0:
253,353,81150,2,0,L|322:342,1,70.4000021484376,0|8,0:0|0:0,0:0:0:0:
386,253,81478,1,0,0:0:0:0:
399,330,81642,1,2,0:0:0:0:
309,265,81806,2,0,P|311:224|337:190,1,70.4000021484376,8|2,0:0|0:0,0:0:0:0:
396,137,82134,6,0,B|338:157|338:157|226:134,1,160,6|8,0:0|0:0,0:0:0:0:
169,172,82626,1,0,0:0:0:0:
96,206,82790,2,0,P|121:238|169:254,1,80,2|2,0:0|0:0,0:0:0:0:
169,172,83117,2,0,P|144:140|96:124,1,80,8|0,0:0|0:0,0:0:0:0:
96,206,83445,6,0,L|102:300,1,80,2|0,0:0|0:0,0:0:0:0:
150,349,83773,2,0,P|107:366|69:360,1,80,8|0,0:0|0:0,0:0:0:0:
180,275,84101,2,0,P|223:258|261:264,1,80,8|0,0:0|0:0,0:0:0:0:
321,307,84429,2,0,L|319:358,3,40,8|8|8|8,0:0|0:0|0:0|0:0,0:0:0:0:
357,359,84757,6,0,L|453:365,1,80,0|12,0:0|0:0,0:0:0:0:
441,283,85085,1,2,0:0:0:0:
445,202,85249,2,0,P|487:216|516:255,1,80,8|2,0:0|0:0,0:0:0:0:
364,198,85576,2,0,P|378:156|417:127,2,80,2|2|12,0:0|0:0|0:0,0:0:0:0:
360,279,86068,6,0,P|318:265|289:226,1,80,0|2,0:0|0:0,0:0:0:0:
293,157,86396,1,2,0:0:0:0:
364,198,86560,1,2,0:0:0:0:
365,117,86724,2,0,P|336:86|290:74,1,80,0|8,0:0|0:0,0:0:0:0:
221,197,87052,1,8,0:0:0:0:
293,157,87216,1,8,0:0:0:0:
