osu file format v14

[General]
AudioFilename: naruto 16.mp3
AudioLeadIn: 0
PreviewTime: 44753
Countdown: 0
SampleSet: Soft
StackLeniency: 0.7
Mode: 0
LetterboxInBreaks: 0
WidescreenStoryboard: 1

[Editor]
DistanceSpacing: 1
BeatDivisor: 4
GridSize: 4
TimelineZoom: 3.299999

[Metadata]
Title:Silhouette (TV size)
TitleUnicode:シルエット (TV size)
Artist:KANA-BOON
ArtistUnicode:KANA-BOON
Creator:-Miyuki-
Version:Insane
Source:Naruto Shippuden
Tags:ninja OP last 16
BeatmapID:1241882
BeatmapSetID:319687

[Difficulty]
HPDrainRate:6
CircleSize:4
OverallDifficulty:9
ApproachRate:9
SliderMultiplier:1.8
SliderTickRate:1

[Events]
//Background and Video events
0,0,"naruto.jpg",0,0
//Break Periods
//Storyboard Layer 0 (Background)
//Storyboard Layer 1 (Fail)
//Storyboard Layer 2 (Pass)
//Storyboard Layer 3 (Foreground)
//Storyboard Layer 4 (Overlay)
//Storyboard Sound Samples

[TimingPoints]
443,327.868852459016,4,2,1,70,1,0
2082,-100,4,2,1,70,0,0
2738,-100,4,1,1,80,0,0
3393,-100,4,2,1,70,0,0
13885,-100,4,2,1,55,0,0
35197,-133.333333333333,4,2,1,55,0,0
44049,-100,4,1,1,65,0,0
44705,-200,4,2,1,35,0,0
44705,-200,4,2,1,65,0,0
45361,-100,4,2,1,70,0,1
75524,-100,4,1,1,65,0,1
76836,-100,4,2,1,60,0,0

[Colours]
Combo1 : 0,0,255
Combo2 : 255,0,0
Combo3 : 0,255,0

[HitObjects]
296,224,443,5,0,0:0:0:0:
296,224,770,6,0,P|376:236|408:224,2,89.9999972534181
260,48,1262,1,0,0:0:0:0:
172,136,1426,2,0,P|129:173|11:200,1,180
32,328,1918,1,0,0:0:0:0:
153,329,2082,5,0,0:0:0:0:
182,326,2164,1,0,0:0:0:0:
207,317,2246,1,0,0:0:0:0:
227,303,2328,1,0,0:0:0:0:
242,283,2410,1,0,0:0:0:0:
252,260,2492,1,0,0:0:0:0:
257,236,2574,1,0,0:0:0:0:
261,216,2656,1,0,0:0:0:0:
268,188,2738,6,0,P|282:124|369:52,1,180
476,208,3393,2,0,P|428:292|332:316,1,180,4|2,0:0|0:0,0:0:0:0:
216,312,3885,1,0,0:0:0:0:
104,72,4049,2,0,P|92:115|92:160,1,90
184,348,4377,2,0,P|139:317|120:284,1,90
296,176,4705,2,0,P|170:167|112:164,1,180,2|2,0:0|0:0,0:0:0:0:
200,36,5197,1,0,0:0:0:0:
352,48,5361,2,0,P|413:64|437:87,2,90
344,148,5852,5,0,0:0:0:0:
460,164,6016,6,0,P|440:240|348:268,1,180,2|0,0:0|0:0,0:0:0:0:
252,144,6508,2,0,B|168:184|192:264|232:296,1,180
336,332,7000,2,0,L|340:216,1,89.9999972534181,2|0,0:0|0:0,0:0:0:0:
148,168,7328,1,2,0:0:0:0:
312,28,7492,1,0,0:0:0:0:
376,268,7656,1,2,0:0:0:0:
300,152,7820,2,0,P|380:140|484:184,1,179.999994506836
360,328,8311,2,0,P|328:280|328:232,1,89.9999972534181,2|0,0:0|0:0,0:0:0:0:
176,212,8639,6,0,P|178:291|73:358,1,180
108,240,9131,2,0,P|122:154|205:145,1,180
192,232,9623,2,0,L|192:336,1,90
292,236,9951,1,0,0:0:0:0:
216,364,10115,1,0,0:0:0:0:
396,264,10279,1,0,0:0:0:0:
360,368,10442,1,0,0:0:0:0:
480,256,10606,2,0,P|448:328|428:340,1,90
120,320,10934,2,0,P|160:352|172:352,3,45
140,304,11262,2,0,P|147:216|217:165,1,180,2|0,0:0|0:0,0:0:0:0:
436,184,11754,2,0,B|437:178|437:294|305:266,1,180
320,156,12246,2,0,P|284:128|241:115,1,90,2|0,0:0|0:0,0:0:0:0:
48,120,12574,2,0,P|60:162|89:196,1,90
332,252,12902,2,0,P|312:308|264:352,1,90
132,328,13230,5,2,0:0:0:0:
148,308,13311,1,2,0:0:0:0:
160,288,13393,1,2,0:0:0:0:
168,264,13475,1,2,0:0:0:0:
172,240,13557,1,2,0:0:0:0:
176,216,13639,1,2,0:0:0:0:
172,192,13721,1,2,0:0:0:0:
164,164,13803,1,2,0:0:0:0:
152,136,13885,2,0,L|272:136,1,90
248,288,14213,6,0,P|196:332|80:332,1,179.999994506836,0|2,0:0|0:0,0:0:0:0:
0,264,14705,1,0,0:0:0:0:
60,120,14869,2,0,P|108:152|124:188,1,90
220,300,15197,2,0,L|220:208,1,90
200,115,15524,2,0,P|161:138|138:176,1,90
108,324,15852,1,2,0:0:0:0:
220,192,16016,1,0,0:0:0:0:
216,328,16180,1,2,0:0:0:0:
96,200,16344,5,0,0:0:0:0:
96,200,16508,2,0,L|96:88,1,90
284,40,16836,1,2,0:0:0:0:
380,140,17000,1,0,0:0:0:0:
380,140,17164,2,0,L|380:244,1,90
380,348,17492,1,2,0:0:0:0:
268,232,17656,1,0,0:0:0:0:
268,232,17820,2,0,P|228:144|144:128,1,180
52,144,18311,1,0,0:0:0:0:
176,224,18475,2,0,L|176:328,1,90
100,192,18803,2,0,P|174:146|252:192,2,180
180,276,19623,2,0,L|180:376,1,90
356,376,19951,1,0,0:0:0:0:
340,296,20115,2,0,P|276:352|268:396,1,90
444,372,20442,2,0,P|492:320|500:276,1,90
488,160,20770,2,0,L|384:160,1,90
280,160,21098,5,2,0:0:0:0:
512,240,21262,1,0,0:0:0:0:
444,88,21426,1,2,0:0:0:0:
352,296,21590,1,2,0:0:0:0:
352,296,21754,2,0,L|248:296,1,90
68,164,22082,2,0,P|116:116|144:108,1,90
188,192,22410,2,0,P|151:255|42:279,1,180,2|0,0:0|0:0,0:0:0:0:
88,192,22902,1,0,0:0:0:0:
256,280,23065,6,0,P|312:296|376:280,1,90,2|0,0:0|0:0,0:0:0:0:
228,92,23393,2,0,P|183:86|138:82,1,90,2|0,0:0|0:0,0:0:0:0:
124,120,23721,2,0,P|132:176|124:232,1,90
320,40,24049,2,0,P|332:81|364:124,1,90
464,200,24377,1,0,0:0:0:0:
424,296,24541,2,0,P|372:224|408:132,1,180
464,32,25033,2,0,L|374:32,1,90
140,124,25361,2,0,L|240:124,1,90
400,256,25688,2,0,L|304:256,1,90
88,348,26016,2,0,L|188:348,1,90
304,240,26344,5,0,0:0:0:0:
456,48,26508,1,0,0:0:0:0:
268,60,26672,1,2,0:0:0:0:
480,232,26836,1,0,0:0:0:0:
328,232,27000,2,0,P|286:232|238:232,1,90,2|0,0:0|0:0,0:0:0:0:
52,132,27328,2,0,P|94:132|142:132,1,90
220,180,27656,1,2,0:0:0:0:
112,316,27820,1,0,0:0:0:0:
35,264,27983,6,0,P|118:234|192:280,1,180,0|2,0:0|0:0,0:0:0:0:
256,360,28475,1,0,0:0:0:0:
392,208,28639,2,0,L|392:312,1,90
276,146,28967,2,0,L|276:56,1,90
112,212,29295,2,0,P|156:208|208:180,1,90,2|0,0:0|0:0,0:0:0:0:
324,24,29623,2,0,P|263:39|236:64,1,90,2|0,0:0|0:0,0:0:0:0:
212,200,29951,1,2,0:0:0:0:
308,100,30115,1,0,0:0:0:0:
156,144,30279,6,0,P|132:212|144:260,1,90,2|0,0:0|0:0,0:0:0:0:
216,60,30606,1,0,0:0:0:0:
312,232,30770,1,0,0:0:0:0:
236,172,30934,2,0,P|288:156|336:160,1,90
408,40,31262,2,0,L|292:40,1,89.9999972534181
104,176,31590,2,0,L|208:176,1,89.9999972534181,2|0,0:0|0:0,0:0:0:0:
288,272,31918,2,0,P|280:336|256:372,1,89.9999972534181,2|0,0:0|0:0,0:0:0:0:
104,244,32246,2,0,P|100:168|116:140,1,90,2|0,0:0|0:0,0:0:0:0:
292,132,32574,2,0,P|292:76|268:40,1,90
132,40,32902,2,0,P|64:32|36:16,1,89.9999972534181,2|0,0:0|0:0,0:0:0:0:
132,40,33229,1,0,0:0:0:0:
196,252,33557,1,2,0:0:0:0:
196,252,33721,1,0,0:0:0:0:
296,280,33885,2,0,P|336:304|360:376,1,90
108,384,34213,1,6,0:0:0:0:
128,192,34377,1,2,0:0:0:0:
272,240,34541,1,6,0:0:0:0:
324,36,34705,1,2,0:0:0:0:
344,148,34869,6,0,P|244:120|188:64,1,180
92,124,35361,1,0,0:0:0:0:
92,124,35524,2,0,L|92:212,1,67.5000025749208
316,248,35852,1,0,0:0:0:0:
316,248,36180,2,0,P|272:188|248:120,1,135.000005149842
384,108,36672,2,0,L|380:36,1,67.5000025749208
384,108,37000,1,0,0:0:0:0:
72,216,37164,1,0,0:0:0:0:
72,216,37492,6,0,P|44:132|72:64,1,135.000005149842
168,136,37983,1,0,0:0:0:0:
168,136,38147,2,0,L|260:136,1,67.5000025749208
316,300,38475,1,0,0:0:0:0:
316,300,38803,2,0,P|372:324|472:304,1,135.000005149842
392,216,39295,1,0,0:0:0:0:
352,32,39459,1,2,0:0:0:0:
472,112,39623,1,0,0:0:0:0:
248,184,39787,5,2,0:0:0:0:
248,184,40115,2,0,P|272:220|300:232,1,67.5000025749208
416,228,40442,2,0,P|404:196|376:164,1,67.5000025749208
288,216,40770,2,0,L|288:280,2,33.7500012874604
352,132,41098,1,2,0:0:0:0:
352,132,41262,1,0,0:0:0:0:
288,280,41426,6,0,P|248:333|186:357,1,135.000005149842,0|2,0:0|0:0,0:0:0:0:
300,80,41918,1,0,0:0:0:0:
348,200,42082,2,0,P|384:253|456:276,1,135.000005149842
440,160,42574,1,0,0:0:0:0:
228,232,42738,2,0,P|238:214|260:184,3,33.7500012874604,2|0|0|0,0:0|0:0|0:0|0:0,0:0:0:0:
224,176,43065,2,0,P|256:164|284:152,3,33.7500012874604,2|0|0|0,0:0|0:0|0:0|0:0,0:0:0:0:
252,132,43393,2,0,P|274:126|300:116,3,33.7500012874604,2|0|0|0,0:0|0:0|0:0|0:0,0:0:0:0:
120,40,43721,2,0,P|134:65|152:92,3,33.7500012874604,2|0|0|0,0:0|0:0|0:0|0:0,0:0:0:0:
156,108,44049,1,0,0:0:0:0:
160,140,44131,1,0,0:0:0:0:
160,176,44213,1,0,0:0:0:0:
156,208,44295,1,0,0:0:0:0:
148,236,44377,1,0,0:0:0:0:
144,268,44459,1,0,0:0:0:0:
152,300,44541,1,0,0:0:0:0:
172,328,44623,1,0,0:0:0:0:
200,348,44705,1,0,0:0:0:0:
224,261,45033,5,0,0:0:0:0:
224,261,45361,2,0,P|296:180|368:180,1,180
324,260,45852,1,0,0:0:0:0:
436,80,46016,2,0,L|347:98,1,90
108,208,46344,2,0,L|212:232,1,90,2|0,0:0|0:0,0:0:0:0:
368,260,46672,1,2,0:0:0:0:
368,260,46836,1,0,0:0:0:0:
304,192,47000,2,0,P|280:260|292:284,1,90
340,344,47328,1,2,0:0:0:0:
340,344,47492,1,0,0:0:0:0:
212,216,47656,2,0,P|234:219|254:228,3,45
112,100,47983,2,0,P|54:124|72:244,1,180,2|0,0:0|0:0,0:0:0:0:
140,280,48475,1,0,0:0:0:0:
140,280,48639,2,0,L|140:172,1,90
68,44,48967,1,2,0:0:0:0:
300,216,49131,5,0,0:0:0:0:
184,24,49295,1,2,0:0:0:0:
116,232,49459,1,0,0:0:0:0:
312,48,49623,1,2,0:0:0:0:
220,232,49787,2,0,L|220:136,1,90
224,36,50115,1,0,0:0:0:0:
224,36,50279,1,0,0:0:0:0:
352,136,50442,2,0,L|444:200,1,90
256,204,50770,2,0,L|176:148,1,90
188,32,51098,1,0,0:0:0:0:
136,208,51262,1,0,0:0:0:0:
76,36,51426,1,2,0:0:0:0:
80,152,51590,2,0,L|80:256,1,90
100,332,51918,2,0,P|143:319|175:288,1,90
248,172,52246,2,0,L|364:176,1,90
492,328,52574,2,0,L|384:324,1,90
308,252,52902,2,0,L|404:252,1,90
372,96,53229,2,0,B|332:64|332:64|284:64,1,90
300,144,53557,1,0,0:0:0:0:
140,72,53885,2,0,P|116:116|112:156,1,90,6|0,0:0|0:0,0:0:0:0:
128,328,54213,2,0,L|164:244,1,90,2|0,0:0|0:0,0:0:0:0:
196,160,54541,5,6,0:0:0:0:
216,120,54623,1,2,0:0:0:0:
252,96,54705,1,2,0:0:0:0:
296,96,54787,1,2,0:0:0:0:
332,120,54869,1,2,0:0:0:0:
348,164,54951,1,2,0:0:0:0:
336,204,55033,1,2,0:0:0:0:
308,228,55115,1,2,0:0:0:0:
276,260,55197,1,6,0:0:0:0:
276,304,55279,1,2,0:0:0:0:
292,344,55361,1,2,0:0:0:0:
332,360,55442,1,2,0:0:0:0:
376,360,55524,2,0,L|444:404,3,45,4|0|0|0,0:0|0:0|0:0|0:0,0:0:0:0:
392,344,55852,2,0,L|388:160,1,180
260,64,56344,2,0,L|260:154,1,90
120,240,56672,1,0,0:0:0:0:
56,176,56836,2,0,P|143:157|212:212,1,180,2|2,0:0|0:0,0:0:0:0:
248,292,57328,1,0,0:0:0:0:
388,132,57492,1,2,0:0:0:0:
436,304,57656,1,0,0:0:0:0:
379,357,57820,2,0,P|358:319|368:276,1,90
444,240,58147,2,0,L|504:212,3,50,2|0|0|0,0:0|0:0|0:0|0:0,0:0:0:0:
508,204,58475,2,0,P|512:100|452:36,1,180,2|0,0:0|0:0,0:0:0:0:
376,140,58967,1,0,0:0:0:0:
368,264,59131,2,0,L|368:384,1,90,2|0,0:0|0:0,0:0:0:0:
228,216,59459,2,0,L|228:116,1,90
228,32,59787,5,2,0:0:0:0:
112,204,59951,1,0,0:0:0:0:
304,116,60115,1,2,0:0:0:0:
304,248,60279,2,0,L|304:338,1,90
304,338,60770,1,6,0:0:0:0:
128,212,61098,2,0,L|128:120,1,90
304,204,61426,2,0,P|296:264|272:288,1,90
184,340,61754,1,2,0:0:0:0:
208,208,61918,1,0,0:0:0:0:
60,332,62082,1,2,0:0:0:0:
124,160,62246,1,0,0:0:0:0:
435,350,62410,1,2,0:0:0:0:
459,218,62574,1,0,0:0:0:0:
311,342,62738,1,2,0:0:0:0:
375,170,62902,1,0,0:0:0:0:
236,288,63065,1,0,0:0:0:0:
164,72,63229,1,0,0:0:0:0:
368,288,63393,1,2,0:0:0:0:
232,40,63557,1,0,0:0:0:0:
292,292,63721,1,2,0:0:0:0:
308,40,63885,1,0,0:0:0:0:
364,204,64049,1,2,0:0:0:0:
364,204,64377,6,2,P|303:284|212:288,1,180
264,196,64869,1,0,0:0:0:0:
332,88,65033,2,0,L|288:60,3,45,2|0|0|0,0:0|0:0|0:0|0:0,0:0:0:0:
380,204,65361,2,0,L|360:264,3,45,2|0|0|0,0:0|0:0|0:0|0:0,0:0:0:0:
332,276,65688,5,6,0:0:0:0:
288,280,65770,1,2,0:0:0:0:
252,256,65852,1,2,0:0:0:0:
244,216,65934,1,2,0:0:0:0:
260,176,66016,1,6,0:0:0:0:
268,132,66098,1,2,0:0:0:0:
248,92,66180,1,2,0:0:0:0:
212,68,66262,1,2,0:0:0:0:
168,64,66344,2,0,P|100:80|16:168,1,180
84,244,66836,1,0,0:0:0:0:
84,44,67000,2,0,L|84:140,1,90
156,180,67328,2,0,P|232:240|216:320,1,180
148,264,67820,5,0,0:0:0:0:
180,88,67983,1,2,0:0:0:0:
180,88,68147,1,0,0:0:0:0:
304,24,68311,2,0,L|404:24,1,90
464,216,68639,2,0,P|488:256|492:288,3,45
472,288,68967,2,0,P|416:292|364:284,1,90,2|0,0:0|0:0,0:0:0:0:
104,152,69295,2,0,P|100:96|108:44,1,90,2|0,0:0|0:0,0:0:0:0:
276,248,69623,6,0,P|284:312|276:348,1,90,2|0,0:0|0:0,0:0:0:0:
176,92,69951,2,0,P|224:68|280:44,1,90,2|0,0:0|0:0,0:0:0:0:
180,328,70279,2,0,L|98:365,1,90,4|0,0:0|0:0,0:0:0:0:
20,268,70606,2,0,L|20:172,1,90
204,64,70934,5,6,0:0:0:0:
20,24,71098,1,0,0:0:0:0:
120,132,71262,2,0,L|120:236,1,90
120,336,71590,1,6,0:0:0:0:
245,206,71754,1,0,0:0:0:0:
60,136,71918,1,0,0:0:0:0:
192,292,72082,2,0,P|228:320|284:320,1,90
328,108,72410,2,0,P|268:88|224:88,1,90
292,204,72738,1,0,0:0:0:0:
224,0,72902,1,0,0:0:0:0:
152,92,73065,2,0,P|112:56|100:20,1,90
60,184,73393,2,0,L|60:280,1,90
188,228,73721,1,0,0:0:0:0:
60,352,73885,1,2,0:0:0:0:
252,280,74049,2,0,P|268:224|264:184,1,90
384,104,74377,2,0,L|294:104,1,90
392,256,74705,1,0,0:0:0:0:
412,176,74869,6,0,P|474:265|412:340,1,180
260,100,75361,2,0,P|304:100|368:104,1,90
356,240,75688,1,0,0:0:0:0:
248,136,75852,1,0,0:0:0:0:
80,252,76016,1,0,0:0:0:0:
176,96,76180,2,0,L|176:204,1,90
68,244,76508,2,0,B|100:280|108:284|108:284|160:292,1,90
240,280,76836,6,0,P|196:360|108:360,1,180,4|0,0:0|0:0,0:0:0:0:
296,360,77328,1,0,0:0:0:0:
376,292,77492,2,0,L|480:292,2,90
304,200,77983,1,0,0:0:0:0:
376,152,78147,2,0,P|312:116|208:188,1,180
44,368,78639,1,0,0:0:0:0:
96,280,78803,2,0,L|196:280,2,90
192,200,79295,1,0,0:0:0:0:
100,140,79459,6,0,P|56:71|124:0,1,180
156,80,79951,1,0,0:0:0:0:
180,120,80115,2,0,L|280:144,1,90
368,68,80442,1,0,0:0:0:0:
256,304,80606,1,0,0:0:0:0:
78,110,80770,6,0,P|66:150|59:175,2,45
167,282,81098,2,0,L|179:234|184:214,2,45
384,284,81426,2,0,P|372:332|364:348,2,44.999998626709
428,152,81754,2,0,P|440:104|448:88,2,44.999998626709
264,311,82082,2,0,P|190:273|171:244,1,90
292,140,82410,2,0,L|292:16,1,89.9999972534181,4|0,0:0|0:0,0:0:0:0:
404,246,82738,2,0,L|404:336,1,89.9999972534181
264,234,83065,2,0,L|264:110,1,89.9999972534181,4|0,0:0|0:0,0:0:0:0:
136,58,83393,2,0,L|136:148,1,89.9999972534181
455,163,83721,2,0,P|416:109|379:86,1,90
357,74,83967,5,0,0:0:0:0:
325,65,84049,1,2,0:0:0:0:
289,62,84131,1,2,0:0:0:0:
253,65,84213,1,2,0:0:0:0:
219,77,84295,1,6,0:0:0:0:
188,98,84377,1,2,0:0:0:0:
166,127,84459,1,2,0:0:0:0:
152,160,84541,1,2,0:0:0:0:
147,195,84623,1,6,0:0:0:0:
256,192,84705,12,0,87164,0:0:0:0:
