osu file format v14

[General]
AudioFilename: naruto 16.mp3
AudioLeadIn: 0
PreviewTime: 44753
Countdown: 0
SampleSet: Soft
StackLeniency: 0.7
Mode: 0
LetterboxInBreaks: 0
WidescreenStoryboard: 1

[Editor]
DistanceSpacing: 1
BeatDivisor: 4
GridSize: 32
TimelineZoom: 3.299999

[Metadata]
Title:Silhouette (TV size)
TitleUnicode:シルエット (TV size)
Artist:KANA-BOON
ArtistUnicode:KANA-BOON
Creator:-Miyuki-
Version:Extra
Source:Naruto Shippuden
Tags:ninja OP last 16
BeatmapID:737193
BeatmapSetID:319687

[Difficulty]
HPDrainRate:6
CircleSize:4
OverallDifficulty:8
ApproachRate:9
SliderMultiplier:2
SliderTickRate:1

[Events]
//Background and Video events
0,0,"naruto.jpg",0,0
//Break Periods
//Storyboard Layer 0 (Background)
//Storyboard Layer 1 (Fail)
//Storyboard Layer 2 (Pass)
//Storyboard Layer 3 (Foreground)
//Storyboard Layer 4 (Overlay)
//Storyboard Sound Samples

[TimingPoints]
770,327.868852459016,4,2,1,70,1,0
45361,-100,4,2,1,70,0,1
75524,-100,4,1,1,65,0,1
87327,-100,4,1,1,65,0,0

[Colours]
Combo1 : 0,0,255
Combo2 : 255,0,0
Combo3 : 0,255,0

[HitObjects]
381,95,443,5,0,0:0:0:0:
376,71,770,6,0,P|415:44|498:56,1,100
450,140,1098,1,0,0:0:0:0:
223,137,1262,2,0,L|213:338,1,200
398,188,1754,6,0,P|412:135|398:82,1,100
369,54,1999,1,0,0:0:0:0:
322,35,2081,1,0,0:0:0:0:
272,33,2163,1,0,0:0:0:0:
224,56,2245,1,0,0:0:0:0:
200,96,2327,1,0,0:0:0:0:
192,144,2410,2,0,L|186:194,3,50
276,320,2738,1,0,0:0:0:0:
130,75,3392,6,0,B|287:61|287:61|241:101,1,200
160,160,3884,1,0,0:0:0:0:
32,272,4048,2,0,P|5:220|8:177,1,100
176,0,4376,2,0,P|205:44|204:94,1,100
98,277,4704,6,0,P|187:308|248:236,1,200
272,64,5196,1,0,0:0:0:0:
208,336,5360,2,0,P|208:272|224:224,1,100
448,64,5688,2,0,P|412:104|388:148,1,100
288,225,6015,2,0,P|359:289|448:256,1,200
256,96,6507,2,0,P|192:160|192:192,1,100
352,160,6835,1,0,0:0:0:0:
320,352,6999,2,0,P|275:331|248:291,1,100
352,64,7327,2,0,P|253:118|240:198,1,200
348,254,7819,2,0,P|332:350|204:350,1,200
96,256,8310,2,0,L|96:144,1,100
192,48,8638,6,0,B|149:75|97:51|97:51|51:32|-1:58,1,200
88,176,9130,2,0,P|165:204|243:302,1,200
365,379,9622,2,0,P|398:313|392:240,1,150
390,374,9950,6,0,L|492:362,1,100
120,340,10278,2,0,L|20:328,1,100
346,169,10606,2,0,P|361:237|335:290,1,100
135,349,10933,2,0,P|126:300|142:254,1,100
272,144,11261,2,0,B|394:85|394:85|495:87,1,200
424,184,11753,1,0,0:0:0:0:
224,352,11917,2,0,B|225:334|240:301|250:255,1,100
224,160,12245,2,0,P|288:160|320:192,1,100
214,376,12573,6,0,L|447:364,1,200
171,278,13065,1,0,0:0:0:0:
31,375,13229,1,0,0:0:0:0:
32,337,13310,1,0,0:0:0:0:
30,300,13392,1,0,0:0:0:0:
25,262,13474,1,0,0:0:0:0:
16,226,13556,1,0,0:0:0:0:
146,60,13720,2,0,L|134:142,1,50
150,268,13884,6,0,P|218:283|286:177,1,200
69,207,14376,1,0,0:0:0:0:
146,379,14540,2,0,L|158:262,1,100
26,28,14868,2,0,L|36:127,1,100
206,142,15196,6,0,B|283:132|283:132|331:147|331:147|441:131,2,200
349,56,16015,1,0,0:0:0:0:
267,217,16179,2,0,P|291:323|295:376,1,150
283,351,16507,6,0,L|175:343,1,100
13,267,16835,2,0,L|121:259,1,100
217,166,17163,1,0,0:0:0:0:
96,363,17327,1,0,0:0:0:0:
25,122,17491,1,0,0:0:0:0:
226,272,17655,1,0,0:0:0:0:
154,55,17819,6,0,P|272:36|321:120,1,200
224,121,18310,1,0,0:0:0:0:
71,119,18474,2,0,P|51:64|59:9,1,100
304,179,18802,2,0,P|305:228|280:272,1,100
209,210,19130,2,0,B|133:226|99:178|99:178|32:224|32:224|33:224,1,200
160,128,19622,1,0,0:0:0:0:
160,256,19786,2,0,L|160:384,1,100
384,352,20114,2,0,L|384:252,1,100
352,128,20442,6,0,B|197:142|197:142|239:91,1,200
282,26,20933,1,0,0:0:0:0:
96,192,21097,2,0,L|96:320,1,100
320,288,21425,2,0,L|320:188,1,100
502,297,21753,6,0,P|546:239|501:117,1,200
329,337,22245,1,0,0:0:0:0:
377,118,22409,1,0,0:0:0:0:
443,366,22573,1,0,0:0:0:0:
215,295,22737,2,0,L|42:316,1,150
45,335,23065,6,0,P|17:264|21:218,1,100
139,37,23392,2,0,L|126:232,1,150
114,160,23720,1,0,0:0:0:0:
182,375,23884,1,0,0:0:0:0:
252,90,24048,2,0,L|263:200,1,100
49,353,24376,6,0,P|20:297|28:248,1,100
344,168,24704,2,0,P|343:217|317:259,1,100
0,165,25032,2,0,L|104:150,1,100
232,292,25360,1,0,0:0:0:0:
11,253,25524,1,0,0:0:0:0:
172,376,25688,5,0,0:0:0:0:
225,140,25851,1,0,0:0:0:0:
72,63,26015,2,0,L|93:179,1,100
260,311,26343,2,0,L|277:212,1,100
208,84,26671,1,0,0:0:0:0:
2,178,26835,1,0,0:0:0:0:
301,222,26999,6,0,P|320:163|307:108,1,100
112,272,27327,2,0,P|107:321|125:367,1,100
202,142,27655,1,0,0:0:0:0:
301,333,27819,1,0,0:0:0:0:
49,178,27983,1,0,0:0:0:0:
281,31,28147,1,0,0:0:0:0:
118,238,28310,6,0,P|72:264|11:259,1,100
197,100,28638,1,0,0:0:0:0:
167,347,28802,1,0,0:0:0:0:
56,32,28966,2,0,L|68:159,1,100
259,174,29294,2,0,P|293:101|262:32,1,150
241,23,29622,6,0,P|313:8|348:12,1,100
468,237,29950,2,0,P|398:211|371:189,1,100
206,109,30278,1,0,0:0:0:0:
424,83,30442,1,0,0:0:0:0:
122,50,30606,1,0,0:0:0:0:
239,264,30769,1,0,0:0:0:0:
45,352,30933,6,0,P|23:280|42:236,1,100
272,236,31261,2,0,P|277:285|255:329,1,100
0,160,31589,2,0,L|123:146,1,100
320,352,31917,2,0,L|197:338,1,100
171,87,32245,6,0,P|192:156|156:207,1,100
32,128,32573,1,0,0:0:0:0:
96,288,32737,1,0,0:0:0:0:
170,68,32901,2,0,L|291:74,1,100
381,308,33229,2,0,L|281:312,1,100
105,132,33556,6,0,P|79:71|91:17,1,100
349,105,33884,2,0,P|349:154|315:193,1,100
128,304,34212,1,0,0:0:0:0:
216,24,34376,1,0,0:0:0:0:
288,360,34540,1,0,0:0:0:0:
64,136,34704,1,0,0:0:0:0:
272,128,34868,6,0,L|253:344,1,200
459,246,35360,2,0,B|508:225|508:225|484:172|411:171|373:208,1,200
362,327,35851,2,0,P|310:379|223:351,1,150
228,335,36179,6,0,P|174:286|57:334,1,200
260,243,36671,2,0,B|275:107|275:107|249:31,1,200
236,232,37163,2,0,L|430:222,1,150
376,246,37491,6,0,B|410:269|417:297|407:346|407:346|434:309|472:303|492:308,1,200
485,103,37983,2,0,P|431:84|475:156,1,200
345,29,38474,2,0,P|312:98|322:179,1,150
396,328,38802,5,0,0:0:0:0:
392,112,38966,1,0,0:0:0:0:
212,248,39130,1,0,0:0:0:0:
456,220,39294,1,0,0:0:0:0:
272,120,39458,1,0,0:0:0:0:
284,320,39622,1,0,0:0:0:0:
284,320,39786,1,0,0:0:0:0:
284,320,40114,6,0,L|248:216,1,100
40,136,40442,2,0,L|72:231,1,100
240,78,40769,2,0,P|181:45|113:72,1,100
175,279,41097,2,0,L|328:263,1,150
341,237,41425,6,0,P|374:299|371:350,1,100
218,183,41753,2,0,P|198:108|244:42,1,150
224,82,42081,1,0,0:0:0:0:
143,284,42245,1,0,0:0:0:0:
379,162,42409,1,0,0:0:0:0:
390,174,42737,6,0,L|281:166,1,100
32,320,43065,2,0,L|132:313,1,100
416,256,43392,2,0,P|439:206|431:153,1,100
352,192,43720,1,0,0:0:0:0:
192,96,43884,1,0,0:0:0:0:
288,32,44048,6,0,L|279:131,1,100
205,343,44376,2,0,L|197:244,1,100
32,96,44704,2,0,B|95:129|158:100|178:43|178:43|223:101|194:182|135:188,1,350
231,332,45360,6,0,P|274:335|345:364,1,100
480,128,45688,2,0,P|422:129|371:176,1,100
192,352,46015,1,0,0:0:0:0:
448,224,46179,1,0,0:0:0:0:
256,224,46343,2,0,P|256:288|288:352,1,100
384,160,46671,2,0,P|352:96|320:64,1,100
160,128,46999,1,0,0:0:0:0:
224,320,47163,1,0,0:0:0:0:
96,64,47327,2,0,P|148:42|208:53,1,100
320,96,47655,1,0,0:0:0:0:
160,256,47819,1,0,0:0:0:0:
160,64,47983,1,0,0:0:0:0:
288,320,48147,1,0,0:0:0:0:
96,320,48310,2,0,P|98:270|116:224,1,100
352,192,48638,2,0,P|371:134|352:64,1,100
96,0,48965,2,0,P|62:60|79:131,1,100
211,214,49294,6,0,L|435:201,1,200
112,304,49786,1,0,0:0:0:0:
248,48,49950,1,0,0:0:0:0:
288,352,50114,1,0,0:0:0:0:
48,176,50278,2,0,L|35:68,1,100
336,96,50606,6,0,P|289:175|173:155,1,200
232,64,51097,1,0,0:0:0:0:
136,248,51261,2,0,P|130:297|146:344,1,100
484,93,51589,1,0,0:0:0:0:
421,337,51753,1,0,0:0:0:0:
296,176,51917,6,0,L|66:163,1,200
23,280,52409,1,0,0:0:0:0:
202,367,52573,2,0,P|194:280|183:258,1,100
64,80,52901,2,0,P|49:127|51:177,1,100
264,120,53229,2,0,B|340:111|367:200|367:200|463:200,1,200
224,240,53720,1,0,0:0:0:0:
432,96,53884,1,0,0:0:0:0:
432,344,54048,1,0,0:0:0:0:
168,226,54212,2,0,L|36:218,1,100
310,370,54540,6,0,L|409:363,1,100
217,146,54868,2,0,P|191:231|200:275,1,100
476,309,55196,1,0,0:0:0:0:
365,110,55360,1,0,0:0:0:0:
215,342,55524,2,0,B|177:328|146:345|146:345|115:364|46:337,1,150
56,355,55851,6,0,P|26:295|36:240,1,100
219,66,56179,2,0,P|216:115|190:157,1,100
2,145,56507,1,0,0:0:0:0:
192,327,56671,1,0,0:0:0:0:
135,40,56835,1,0,0:0:0:0:
12,294,56999,1,0,0:0:0:0:
304,48,57163,6,0,L|434:34,1,100
112,160,57491,2,0,L|16:192,1,100
96,320,57819,1,0,0:0:0:0:
96,320,57983,1,0,0:0:0:0:
192,192,58147,1,0,0:0:0:0:
112,64,58310,2,0,P|64:88|48:144,1,100
88,232,58638,1,0,0:0:0:0:
88,232,58802,1,0,0:0:0:0:
272,272,58966,1,0,0:0:0:0:
272,272,59130,2,0,P|272:321|243:362,1,100
20,232,59458,2,0,P|16:168|30:138,1,100
96,56,59786,5,0,0:0:0:0:
197,343,59950,1,0,0:0:0:0:
240,32,60114,1,0,0:0:0:0:
24,304,60278,1,0,0:0:0:0:
328,192,60442,2,0,L|507:181,1,150
489,231,60769,2,0,P|460:303|483:394,1,150
424,352,61097,2,0,P|313:298|230:353,1,200
328,384,61589,1,0,0:0:0:0:
288,272,61753,2,0,P|261:229|216:208,1,100
160,320,62081,1,0,0:0:0:0:
384,208,62245,1,0,0:0:0:0:
250,20,62409,6,0,L|240:120,1,100
232,224,62737,1,0,0:0:0:0:
64,144,62901,1,0,0:0:0:0:
112,352,63065,2,0,P|116:302|118:252,1,100
112,0,63392,1,0,0:0:0:0:
400,136,63556,1,0,0:0:0:0:
160,320,63720,6,0,L|136:122,1,200
224,192,64212,1,0,0:0:0:0:
54,69,64376,2,0,P|14:126|21:180,1,100
161,47,64704,1,0,0:0:0:0:
38,274,64868,1,0,0:0:0:0:
265,251,65032,6,0,L|372:265,1,100
512,62,65360,2,0,L|405:76,1,100
447,301,65688,1,0,0:0:0:0:
329,124,65851,1,0,0:0:0:0:
209,276,66015,1,0,0:0:0:0:
184,278,66096,1,0,0:0:0:0:
159,283,66178,1,0,0:0:0:0:
135,290,66260,1,0,0:0:0:0:
111,298,66343,6,0,P|87:227|104:165,1,100
254,42,66671,2,0,P|252:91|231:136,1,100
59,108,66999,1,0,0:0:0:0:
268,234,67163,1,0,0:0:0:0:
43,363,67327,2,0,L|17:265,1,100
342,186,67655,6,0,P|355:249|333:295,1,100
251,122,67983,1,0,0:0:0:0:
461,210,68147,1,0,0:0:0:0:
352,320,68310,2,0,P|320:256|320:224,1,100
416,32,68638,2,0,L|352:128,1,100
96,202,68966,6,0,P|159:123|272:172,1,200
90,305,69458,1,0,0:0:0:0:
7,55,69622,2,0,P|20:122|22:186,1,100
174,361,69950,2,0,P|178:311|189:262,1,100
361,89,70278,6,0,P|296:164|191:132,2,200
269,78,71097,1,0,0:0:0:0:
475,120,71261,2,0,P|451:206|444:247,1,100
320,352,71589,6,0,L|307:228,1,100
361,147,71917,1,0,0:0:0:0:
224,288,72081,1,0,0:0:0:0:
128,160,72245,2,0,P|180:124|227:125,1,100
368,280,72573,2,0,P|319:273|280:242,1,100
384,192,72901,5,0,0:0:0:0:
384,192,73229,2,0,L|256:192,1,100
96,192,73556,1,0,0:0:0:0:
96,192,73720,1,0,0:0:0:0:
177,22,73884,2,0,P|241:86|273:86,1,100
128,128,74212,5,0,0:0:0:0:
416,144,74376,1,0,0:0:0:0:
256,0,74540,1,0,0:0:0:0:
336,224,74704,1,0,0:0:0:0:
160,96,74868,2,0,P|155:40|166:0,1,100
296,288,75196,2,0,P|282:352|248:400,1,100
436,139,75524,5,0,0:0:0:0:
256,297,75688,2,0,L|262:361,2,50
108,100,76015,2,0,L|116:41,1,50
201,111,76179,1,0,0:0:0:0:
203,135,76260,1,0,0:0:0:0:
205,160,76342,1,0,0:0:0:0:
208,185,76424,1,0,0:0:0:0:
210,210,76506,1,0,0:0:0:0:
104,359,76835,6,0,P|65:291|144:203,1,200
288,352,77327,2,0,L|86:345,1,200
224,160,77819,2,0,P|236:215|222:269,1,100
120,154,78147,6,0,B|127:-3|127:-3|158:43,1,200
231,232,78638,2,0,B|158:243|158:243|117:238|117:238|32:248,1,200
296,368,79130,2,0,L|314:228,1,100
490,128,79458,6,0,P|430:212|330:153,1,200
259,22,79950,2,0,B|277:77|257:116|257:116|231:168|249:226,1,200
384,352,80442,1,0,0:0:0:0:
408,91,80606,1,0,0:0:0:0:
249,234,80769,6,0,L|353:219,1,100
488,342,81097,2,0,L|384:327,1,100
96,192,81425,1,0,0:0:0:0:
192,352,81589,1,0,0:0:0:0:
384,256,81753,2,0,B|384:192|384:192|352:96,1,150
352,64,82081,6,0,P|408:31|453:34,1,100
320,320,82409,2,0,P|270:315|230:287,1,100
160,192,82737,1,0,0:0:0:0:
320,224,82901,1,0,0:0:0:0:
224,320,83065,2,0,P|96:320|64:288,1,150
0,192,83392,2,0,L|32:96,1,100
64,64,83638,1,0,0:0:0:0:
109,42,83720,1,0,0:0:0:0:
158,39,83802,1,0,0:0:0:0:
206,49,83884,1,0,0:0:0:0:
244,81,83966,1,0,0:0:0:0:
285,108,84048,1,0,0:0:0:0:
334,118,84130,1,0,0:0:0:0:
384,117,84212,1,0,0:0:0:0:
432,105,84294,1,0,0:0:0:0:
480,64,84376,2,0,L|480:192,1,100
320,352,84704,5,0,0:0:0:0:
96,192,84868,1,0,0:0:0:0:
320,96,85032,1,0,0:0:0:0:
256,256,85196,2,0,L|232:150,1,100
320,48,85524,1,0,0:0:0:0:
104,352,85688,5,0,0:0:0:0:
400,192,85851,1,0,0:0:0:0:
48,48,86015,1,0,0:0:0:0:
336,352,86179,1,0,0:0:0:0:
390,42,86343,1,0,0:0:0:0:
160,331,86507,1,0,0:0:0:0:
497,188,86671,5,0,0:0:0:0:
125,64,86835,1,0,0:0:0:0:
31,333,86999,1,0,0:0:0:0:
412,140,87163,1,0,0:0:0:0:
