osu file format v14

[General]
AudioFilename: audio.mp3
AudioLeadIn: 0
PreviewTime: -1
Countdown: 1
SampleSet: Soft
StackLeniency: 0.7
Mode: 3
LetterboxInBreaks: 0
SpecialStyle: 0
WidescreenStoryboard: 0

[Editor]
DistanceSpacing: 0.8
BeatDivisor: 4
GridSize: 8
TimelineZoom: 3.199999

[Metadata]
Title:Silhouette (TV Size)
TitleUnicode:シルエット (TV Size)
Artist:KANA-BOON
ArtistUnicode:KANA-BOON
Creator:Vapor-
Version:Vibro Running
Source:
Tags:naruto shippuuden opening 16
BeatmapID:1272110
BeatmapSetID:602258

[Difficulty]
HPDrainRate:8
CircleSize:4
OverallDifficulty:8
ApproachRate:5
SliderMultiplier:1.4
SliderTickRate:1

[Events]
//Background and Video events
0,0,"shippuudenbg.jpg",0,0
//Break Periods
//Storyboard Layer 0 (Background)
//Storyboard Layer 1 (Fail)
//Storyboard Layer 2 (Pass)
//Storyboard Layer 3 (Foreground)
//Storyboard Sound Samples

[TimingPoints]
637,327.868852459016,4,2,0,20,1,0
2932,-200,4,2,0,20,0,0
3587,-100,4,2,0,20,0,1
14079,-100,4,2,0,20,0,0
44899,-200,4,2,0,20,0,0
45555,-100,4,2,0,20,0,1
77030,-100,4,2,0,20,0,0

[HitObjects]
64,192,637,5,0,0:0:0:0:
192,192,637,1,0,0:0:0:0:
320,192,637,1,0,0:0:0:0:
448,192,637,1,0,0:0:0:0:
64,192,964,1,0,0:0:0:0:
192,192,964,1,0,0:0:0:0:
320,192,1128,1,0,0:0:0:0:
64,192,1292,1,0,0:0:0:0:
192,192,1292,1,0,0:0:0:0:
448,192,1292,1,0,0:0:0:0:
320,192,1456,1,0,0:0:0:0:
64,192,1620,1,0,0:0:0:0:
448,192,1620,1,0,0:0:0:0:
192,192,1784,1,0,0:0:0:0:
64,192,1948,1,0,0:0:0:0:
320,192,1948,1,0,0:0:0:0:
448,192,1948,1,0,0:0:0:0:
192,192,2112,1,0,0:0:0:0:
320,192,2276,1,0,0:0:0:0:
448,192,2276,1,0,0:0:0:0:
192,192,2358,1,0,0:0:0:0:
64,192,2358,1,0,0:0:0:0:
320,192,2440,1,0,0:0:0:0:
448,192,2440,1,0,0:0:0:0:
192,192,2522,1,0,0:0:0:0:
64,192,2522,1,0,0:0:0:0:
320,192,2604,1,0,0:0:0:0:
448,192,2604,1,0,0:0:0:0:
64,192,2686,1,0,0:0:0:0:
192,192,2686,1,0,0:0:0:0:
320,192,2768,1,0,0:0:0:0:
448,192,2768,1,0,0:0:0:0:
192,192,2850,1,0,0:0:0:0:
64,192,2850,1,0,0:0:0:0:
320,192,2932,1,0,0:0:0:0:
448,192,2932,1,0,0:0:0:0:
320,192,3587,1,0,0:0:0:0:
64,192,3587,1,0,0:0:0:0:
320,192,3669,1,0,0:0:0:0:
320,192,3751,1,0,0:0:0:0:
320,192,3833,1,0,0:0:0:0:
320,192,3915,1,0,0:0:0:0:
192,192,3915,1,0,0:0:0:0:
448,192,3915,1,0,0:0:0:0:
320,192,3997,1,0,0:0:0:0:
64,192,4079,1,0,0:0:0:0:
64,192,4161,1,0,0:0:0:0:
64,192,4243,1,0,0:0:0:0:
448,192,4243,1,0,0:0:0:0:
64,192,4325,1,0,0:0:0:0:
64,192,4407,1,0,0:0:0:0:
64,192,4489,1,0,0:0:0:0:
192,192,4571,1,0,0:0:0:0:
320,192,4571,1,0,0:0:0:0:
448,192,4571,1,0,0:0:0:0:
192,192,4653,1,0,0:0:0:0:
192,192,4735,1,0,0:0:0:0:
192,192,4817,1,0,0:0:0:0:
448,192,4899,1,0,0:0:0:0:
64,192,4899,1,0,0:0:0:0:
448,192,4981,1,0,0:0:0:0:
448,192,5063,1,0,0:0:0:0:
448,192,5145,1,0,0:0:0:0:
448,192,5227,1,0,0:0:0:0:
320,192,5227,1,0,0:0:0:0:
64,192,5227,1,0,0:0:0:0:
448,192,5309,1,0,0:0:0:0:
64,192,5391,1,0,0:0:0:0:
64,192,5473,1,0,0:0:0:0:
64,192,5555,1,0,0:0:0:0:
320,192,5555,1,0,0:0:0:0:
64,192,5636,1,0,0:0:0:0:
64,192,5718,1,0,0:0:0:0:
64,192,5800,1,0,0:0:0:0:
192,192,5882,1,0,0:0:0:0:
320,192,5882,1,0,0:0:0:0:
448,192,5882,1,0,0:0:0:0:
192,192,5964,1,0,0:0:0:0:
192,192,6046,1,0,0:0:0:0:
192,192,6128,1,0,0:0:0:0:
320,192,6210,1,0,0:0:0:0:
448,192,6210,1,0,0:0:0:0:
320,192,6292,1,0,0:0:0:0:
320,192,6374,1,0,0:0:0:0:
320,192,6456,1,0,0:0:0:0:
320,192,6538,1,0,0:0:0:0:
64,192,6538,1,0,0:0:0:0:
192,192,6538,1,0,0:0:0:0:
320,192,6620,1,0,0:0:0:0:
448,192,6702,1,0,0:0:0:0:
448,192,6784,1,0,0:0:0:0:
448,192,6866,1,0,0:0:0:0:
192,192,6866,1,0,0:0:0:0:
448,192,6948,1,0,0:0:0:0:
448,192,7030,1,0,0:0:0:0:
448,192,7112,1,0,0:0:0:0:
320,192,7194,1,0,0:0:0:0:
64,192,7194,1,0,0:0:0:0:
192,192,7194,1,0,0:0:0:0:
320,192,7276,1,0,0:0:0:0:
192,192,7358,1,0,0:0:0:0:
192,192,7440,1,0,0:0:0:0:
64,192,7522,1,0,0:0:0:0:
448,192,7522,1,0,0:0:0:0:
64,192,7604,1,0,0:0:0:0:
64,192,7686,1,0,0:0:0:0:
64,192,7768,1,0,0:0:0:0:
64,192,7850,1,0,0:0:0:0:
192,192,7850,1,0,0:0:0:0:
320,192,7850,1,0,0:0:0:0:
64,192,7932,1,0,0:0:0:0:
448,192,8014,1,0,0:0:0:0:
320,192,8014,1,0,0:0:0:0:
320,192,8096,1,0,0:0:0:0:
448,192,8096,1,0,0:0:0:0:
320,192,8177,1,0,0:0:0:0:
448,192,8177,1,0,0:0:0:0:
64,192,8177,1,0,0:0:0:0:
320,192,8259,1,0,0:0:0:0:
448,192,8259,1,0,0:0:0:0:
192,192,8341,1,0,0:0:0:0:
448,192,8341,1,0,0:0:0:0:
192,192,8423,1,0,0:0:0:0:
448,192,8423,1,0,0:0:0:0:
320,192,8505,1,0,0:0:0:0:
192,192,8505,1,0,0:0:0:0:
64,192,8505,1,0,0:0:0:0:
192,192,8587,1,0,0:0:0:0:
320,192,8587,1,0,0:0:0:0:
192,192,8669,1,0,0:0:0:0:
320,192,8669,1,0,0:0:0:0:
192,192,8751,1,0,0:0:0:0:
320,192,8751,1,0,0:0:0:0:
64,192,8833,1,0,0:0:0:0:
192,192,8833,1,0,0:0:0:0:
448,192,8833,1,0,0:0:0:0:
64,192,8915,1,0,0:0:0:0:
192,192,8915,1,0,0:0:0:0:
64,192,8997,1,0,0:0:0:0:
192,192,8997,1,0,0:0:0:0:
64,192,9079,1,0,0:0:0:0:
192,192,9079,1,0,0:0:0:0:
64,192,9161,1,0,0:0:0:0:
192,192,9161,1,0,0:0:0:0:
320,192,9161,1,0,0:0:0:0:
64,192,9243,1,0,0:0:0:0:
192,192,9243,1,0,0:0:0:0:
320,192,9325,1,0,0:0:0:0:
448,192,9325,1,0,0:0:0:0:
320,192,9407,1,0,0:0:0:0:
448,192,9407,1,0,0:0:0:0:
320,192,9489,1,0,0:0:0:0:
448,192,9489,1,0,0:0:0:0:
64,192,9489,1,0,0:0:0:0:
320,192,9571,1,0,0:0:0:0:
448,192,9571,1,0,0:0:0:0:
192,192,9653,1,0,0:0:0:0:
448,192,9653,1,0,0:0:0:0:
192,192,9735,1,0,0:0:0:0:
448,192,9735,1,0,0:0:0:0:
192,192,9817,1,0,0:0:0:0:
320,192,9817,1,0,0:0:0:0:
64,192,9817,1,0,0:0:0:0:
192,192,9899,1,0,0:0:0:0:
320,192,9899,1,0,0:0:0:0:
192,192,9981,1,0,0:0:0:0:
320,192,9981,1,0,0:0:0:0:
192,192,10063,1,0,0:0:0:0:
320,192,10063,1,0,0:0:0:0:
192,192,10145,1,0,0:0:0:0:
64,192,10145,1,0,0:0:0:0:
448,192,10145,1,0,0:0:0:0:
64,192,10227,1,0,0:0:0:0:
192,192,10227,1,0,0:0:0:0:
64,192,10309,1,0,0:0:0:0:
192,192,10309,1,0,0:0:0:0:
64,192,10391,1,0,0:0:0:0:
192,192,10391,1,0,0:0:0:0:
64,192,10473,1,0,0:0:0:0:
192,192,10473,1,0,0:0:0:0:
320,192,10473,1,0,0:0:0:0:
64,192,10555,1,0,0:0:0:0:
192,192,10555,1,0,0:0:0:0:
64,192,10636,1,0,0:0:0:0:
192,192,10636,1,0,0:0:0:0:
64,192,10718,1,0,0:0:0:0:
192,192,10718,1,0,0:0:0:0:
64,192,10800,1,0,0:0:0:0:
192,192,10800,1,0,0:0:0:0:
448,192,10800,1,0,0:0:0:0:
64,192,10882,1,0,0:0:0:0:
192,192,10882,1,0,0:0:0:0:
64,192,10964,1,0,0:0:0:0:
192,192,10964,1,0,0:0:0:0:
64,192,11046,1,0,0:0:0:0:
192,192,11046,1,0,0:0:0:0:
64,192,11128,1,0,0:0:0:0:
192,192,11128,1,0,0:0:0:0:
320,192,11128,1,0,0:0:0:0:
64,192,11210,1,0,0:0:0:0:
192,192,11210,1,0,0:0:0:0:
64,192,11292,1,0,0:0:0:0:
192,192,11292,1,0,0:0:0:0:
64,192,11374,1,0,0:0:0:0:
192,192,11374,1,0,0:0:0:0:
320,192,11456,1,0,0:0:0:0:
448,192,11456,1,0,0:0:0:0:
64,192,11456,1,0,0:0:0:0:
320,192,11538,1,0,0:0:0:0:
448,192,11538,1,0,0:0:0:0:
320,192,11620,1,0,0:0:0:0:
448,192,11620,1,0,0:0:0:0:
320,192,11702,1,0,0:0:0:0:
448,192,11702,1,0,0:0:0:0:
320,192,11784,1,0,0:0:0:0:
448,192,11784,1,0,0:0:0:0:
192,192,11784,1,0,0:0:0:0:
320,192,11866,1,0,0:0:0:0:
448,192,11866,1,0,0:0:0:0:
192,192,11948,1,0,0:0:0:0:
320,192,11948,1,0,0:0:0:0:
192,192,12030,1,0,0:0:0:0:
320,192,12030,1,0,0:0:0:0:
192,192,12112,1,0,0:0:0:0:
320,192,12112,1,0,0:0:0:0:
64,192,12112,1,0,0:0:0:0:
192,192,12194,1,0,0:0:0:0:
320,192,12194,1,0,0:0:0:0:
192,192,12276,1,0,0:0:0:0:
320,192,12276,1,0,0:0:0:0:
192,192,12358,1,0,0:0:0:0:
320,192,12358,1,0,0:0:0:0:
64,192,12440,1,0,0:0:0:0:
320,192,12440,1,0,0:0:0:0:
448,192,12440,1,0,0:0:0:0:
64,192,12522,1,0,0:0:0:0:
320,192,12522,1,0,0:0:0:0:
64,192,12604,1,0,0:0:0:0:
320,192,12604,1,0,0:0:0:0:
64,192,12686,1,0,0:0:0:0:
320,192,12686,1,0,0:0:0:0:
448,192,12768,1,0,0:0:0:0:
192,192,12768,1,0,0:0:0:0:
64,192,12768,1,0,0:0:0:0:
192,192,12850,1,0,0:0:0:0:
448,192,12850,1,0,0:0:0:0:
192,192,12932,1,0,0:0:0:0:
448,192,12932,1,0,0:0:0:0:
192,192,13014,1,0,0:0:0:0:
448,192,13014,1,0,0:0:0:0:
192,192,13096,1,0,0:0:0:0:
448,192,13096,1,0,0:0:0:0:
320,192,13096,1,0,0:0:0:0:
192,192,13177,1,0,0:0:0:0:
448,192,13177,1,0,0:0:0:0:
448,192,13259,1,0,0:0:0:0:
320,192,13259,1,0,0:0:0:0:
320,192,13341,1,0,0:0:0:0:
448,192,13341,1,0,0:0:0:0:
320,192,13423,1,0,0:0:0:0:
448,192,13423,1,0,0:0:0:0:
192,192,13505,1,0,0:0:0:0:
64,192,13505,1,0,0:0:0:0:
320,192,13587,1,0,0:0:0:0:
448,192,13587,1,0,0:0:0:0:
192,192,13669,1,0,0:0:0:0:
64,192,13669,1,0,0:0:0:0:
320,192,13751,1,0,0:0:0:0:
448,192,13751,1,0,0:0:0:0:
192,192,13833,1,0,0:0:0:0:
64,192,13915,1,0,0:0:0:0:
448,192,13915,1,0,0:0:0:0:
320,192,13997,1,0,0:0:0:0:
192,192,13997,1,0,0:0:0:0:
64,192,14079,1,0,0:0:0:0:
448,192,14079,1,0,0:0:0:0:
192,192,14407,1,0,0:0:0:0:
320,192,14407,1,0,0:0:0:0:
448,192,14407,1,0,0:0:0:0:
64,192,14735,1,0,0:0:0:0:
320,192,14735,1,0,0:0:0:0:
64,192,14899,1,0,0:0:0:0:
320,192,14899,1,0,0:0:0:0:
64,192,15063,1,0,0:0:0:0:
192,192,15063,1,0,0:0:0:0:
448,192,15063,1,0,0:0:0:0:
320,192,15391,1,0,0:0:0:0:
448,192,15391,1,0,0:0:0:0:
64,192,15718,1,0,0:0:0:0:
192,192,15718,1,0,0:0:0:0:
320,192,15718,1,0,0:0:0:0:
192,192,16046,1,0,0:0:0:0:
448,192,16046,1,0,0:0:0:0:
448,192,16210,1,0,0:0:0:0:
192,192,16210,1,0,0:0:0:0:
64,192,16374,1,0,0:0:0:0:
320,192,16374,1,0,0:0:0:0:
448,192,16374,1,0,0:0:0:0:
64,192,16702,1,0,0:0:0:0:
448,192,16702,1,0,0:0:0:0:
192,192,17030,1,0,0:0:0:0:
448,192,17030,1,0,0:0:0:0:
320,192,17030,1,0,0:0:0:0:
64,192,17358,1,0,0:0:0:0:
192,192,17358,1,0,0:0:0:0:
64,192,17522,1,0,0:0:0:0:
192,192,17522,1,0,0:0:0:0:
64,192,17686,1,0,0:0:0:0:
320,192,17686,1,0,0:0:0:0:
448,192,17686,1,0,0:0:0:0:
192,192,18014,1,0,0:0:0:0:
320,192,18014,1,0,0:0:0:0:
64,192,18341,1,0,0:0:0:0:
320,192,18341,1,0,0:0:0:0:
448,192,18341,1,0,0:0:0:0:
448,192,18669,1,0,0:0:0:0:
64,192,18669,1,0,0:0:0:0:
448,192,18833,1,0,0:0:0:0:
64,192,18833,1,0,0:0:0:0:
320,192,18997,1,0,0:0:0:0:
448,192,18997,1,0,0:0:0:0:
192,192,18997,1,0,0:0:0:0:
64,192,19325,1,0,0:0:0:0:
192,192,19325,1,0,0:0:0:0:
64,192,19653,1,0,0:0:0:0:
320,192,19653,1,0,0:0:0:0:
448,192,19653,1,0,0:0:0:0:
320,192,19981,1,0,0:0:0:0:
448,192,19981,1,0,0:0:0:0:
448,192,20145,1,0,0:0:0:0:
320,192,20145,1,0,0:0:0:0:
448,192,20309,1,0,0:0:0:0:
192,192,20309,1,0,0:0:0:0:
64,192,20309,1,0,0:0:0:0:
448,192,20636,1,0,0:0:0:0:
192,192,20636,1,0,0:0:0:0:
192,192,20964,1,0,0:0:0:0:
64,192,20964,1,0,0:0:0:0:
320,192,20964,1,0,0:0:0:0:
64,192,21292,1,0,0:0:0:0:
320,192,21292,1,0,0:0:0:0:
64,192,21456,1,0,0:0:0:0:
320,192,21456,1,0,0:0:0:0:
192,192,21620,1,0,0:0:0:0:
320,192,21620,1,0,0:0:0:0:
448,192,21620,1,0,0:0:0:0:
192,192,21948,1,0,0:0:0:0:
448,192,21948,1,0,0:0:0:0:
64,192,22276,1,0,0:0:0:0:
192,192,22276,1,0,0:0:0:0:
448,192,22276,1,0,0:0:0:0:
192,192,22604,1,0,0:0:0:0:
320,192,22604,1,0,0:0:0:0:
192,192,22768,1,0,0:0:0:0:
320,192,22768,1,0,0:0:0:0:
64,192,22932,1,0,0:0:0:0:
320,192,22932,1,0,0:0:0:0:
448,192,22932,1,0,0:0:0:0:
192,192,23259,1,0,0:0:0:0:
448,192,23259,1,0,0:0:0:0:
64,192,23587,1,0,0:0:0:0:
320,192,23587,1,0,0:0:0:0:
448,192,23587,1,0,0:0:0:0:
64,192,23915,1,0,0:0:0:0:
320,192,23915,1,0,0:0:0:0:
64,192,24079,1,0,0:0:0:0:
320,192,24079,1,0,0:0:0:0:
192,192,24243,1,0,0:0:0:0:
64,192,24243,1,0,0:0:0:0:
448,192,24243,1,0,0:0:0:0:
64,192,24571,1,0,0:0:0:0:
192,192,24571,1,0,0:0:0:0:
320,192,24735,1,0,0:0:0:0:
192,192,24899,1,0,0:0:0:0:
64,192,24899,1,0,0:0:0:0:
448,192,24899,1,0,0:0:0:0:
64,192,25063,1,0,0:0:0:0:
320,192,25227,1,0,0:0:0:0:
448,192,25227,1,0,0:0:0:0:
320,192,25391,1,0,0:0:0:0:
448,192,25391,1,0,0:0:0:0:
320,192,25555,1,0,0:0:0:0:
192,192,25555,1,0,0:0:0:0:
64,192,25555,1,0,0:0:0:0:
448,192,25718,1,0,0:0:0:0:
64,192,25882,1,0,0:0:0:0:
320,192,25882,1,0,0:0:0:0:
192,192,26046,1,0,0:0:0:0:
192,192,26210,1,0,0:0:0:0:
448,192,26210,1,0,0:0:0:0:
64,192,26210,1,0,0:0:0:0:
320,192,26374,1,0,0:0:0:0:
64,192,26538,1,0,0:0:0:0:
192,192,26538,1,0,0:0:0:0:
64,192,26702,1,0,0:0:0:0:
192,192,26702,1,0,0:0:0:0:
192,192,26866,1,0,0:0:0:0:
320,192,26866,1,0,0:0:0:0:
448,192,26866,1,0,0:0:0:0:
64,192,27030,1,0,0:0:0:0:
192,192,27194,1,0,0:0:0:0:
320,192,27194,1,0,0:0:0:0:
320,192,27358,1,0,0:0:0:0:
64,192,27522,1,0,0:0:0:0:
192,192,27522,1,0,0:0:0:0:
320,192,27522,1,0,0:0:0:0:
448,192,27686,1,0,0:0:0:0:
64,192,27850,1,0,0:0:0:0:
320,192,27850,1,0,0:0:0:0:
64,192,28014,1,0,0:0:0:0:
320,192,28014,1,0,0:0:0:0:
64,192,28177,1,0,0:0:0:0:
448,192,28177,1,0,0:0:0:0:
320,192,28177,1,0,0:0:0:0:
192,192,28341,1,0,0:0:0:0:
64,192,28505,1,0,0:0:0:0:
448,192,28505,1,0,0:0:0:0:
320,192,28669,1,0,0:0:0:0:
192,192,28833,1,0,0:0:0:0:
64,192,28833,1,0,0:0:0:0:
448,192,28833,1,0,0:0:0:0:
448,192,28997,1,0,0:0:0:0:
192,192,29161,1,0,0:0:0:0:
448,192,29161,1,0,0:0:0:0:
192,192,29325,1,0,0:0:0:0:
448,192,29325,1,0,0:0:0:0:
448,192,29489,1,0,0:0:0:0:
64,192,29489,1,0,0:0:0:0:
192,192,29489,1,0,0:0:0:0:
320,192,29653,1,0,0:0:0:0:
64,192,29817,1,0,0:0:0:0:
192,192,29817,1,0,0:0:0:0:
320,192,29981,1,0,0:0:0:0:
192,192,30145,1,0,0:0:0:0:
64,192,30145,1,0,0:0:0:0:
448,192,30145,1,0,0:0:0:0:
448,192,30309,1,0,0:0:0:0:
192,192,30473,1,0,0:0:0:0:
320,192,30473,1,0,0:0:0:0:
192,192,30636,1,0,0:0:0:0:
320,192,30636,1,0,0:0:0:0:
64,192,30800,1,0,0:0:0:0:
320,192,30800,1,0,0:0:0:0:
448,192,30800,1,0,0:0:0:0:
64,192,30964,1,0,0:0:0:0:
192,192,31128,1,0,0:0:0:0:
448,192,31128,1,0,0:0:0:0:
320,192,31292,1,0,0:0:0:0:
192,192,31456,1,0,0:0:0:0:
448,192,31456,1,0,0:0:0:0:
320,192,31456,1,0,0:0:0:0:
64,192,31620,1,0,0:0:0:0:
192,192,31784,1,0,0:0:0:0:
320,192,31784,1,0,0:0:0:0:
192,192,31948,1,0,0:0:0:0:
320,192,31948,1,0,0:0:0:0:
192,192,32112,1,0,0:0:0:0:
448,192,32112,1,0,0:0:0:0:
64,192,32112,1,0,0:0:0:0:
320,192,32276,1,0,0:0:0:0:
64,192,32440,1,0,0:0:0:0:
448,192,32440,1,0,0:0:0:0:
192,192,32604,1,0,0:0:0:0:
64,192,32768,1,0,0:0:0:0:
448,192,32768,1,0,0:0:0:0:
320,192,32768,1,0,0:0:0:0:
448,192,32932,1,0,0:0:0:0:
192,192,33096,1,0,0:0:0:0:
64,192,33096,1,0,0:0:0:0:
64,192,33259,1,0,0:0:0:0:
192,192,33259,1,0,0:0:0:0:
448,192,33423,1,0,0:0:0:0:
320,192,33423,1,0,0:0:0:0:
192,192,33423,1,0,0:0:0:0:
64,192,33587,1,0,0:0:0:0:
192,192,33751,1,0,0:0:0:0:
448,192,33751,1,0,0:0:0:0:
192,192,33915,1,0,0:0:0:0:
448,192,33915,1,0,0:0:0:0:
64,192,34079,1,0,0:0:0:0:
320,192,34079,1,0,0:0:0:0:
448,192,34079,1,0,0:0:0:0:
192,192,34243,1,0,0:0:0:0:
448,192,34407,1,0,0:0:0:0:
320,192,34407,1,0,0:0:0:0:
64,192,34407,1,0,0:0:0:0:
64,192,34571,1,0,0:0:0:0:
320,192,34571,1,0,0:0:0:0:
448,192,34571,1,0,0:0:0:0:
192,192,34735,1,0,0:0:0:0:
320,192,34735,1,0,0:0:0:0:
64,192,34899,1,0,0:0:0:0:
192,192,34899,1,0,0:0:0:0:
320,192,35063,1,0,0:0:0:0:
448,192,35063,128,0,36292:0:0:0:0:
192,192,35391,1,0,0:0:0:0:
320,192,35555,1,0,0:0:0:0:
64,192,35555,1,0,0:0:0:0:
64,192,35882,1,0,0:0:0:0:
192,192,36046,1,0,0:0:0:0:
320,192,36046,1,0,0:0:0:0:
448,192,36374,128,0,37686:0:0:0:0:
64,192,36374,1,0,0:0:0:0:
320,192,36702,1,0,0:0:0:0:
64,192,36866,1,0,0:0:0:0:
192,192,36866,1,0,0:0:0:0:
192,192,37194,1,0,0:0:0:0:
64,192,37358,1,0,0:0:0:0:
320,192,37399,1,0,0:0:0:0:
320,192,37686,128,0,38997:0:0:0:0:
64,192,37686,1,0,0:0:0:0:
192,192,38014,1,0,0:0:0:0:
64,192,38177,1,0,0:0:0:0:
448,192,38177,1,0,0:0:0:0:
64,192,38505,1,0,0:0:0:0:
448,192,38669,1,0,0:0:0:0:
64,192,38710,1,0,0:0:0:0:
192,192,38997,128,0,40309:0:0:0:0:
64,192,38997,1,0,0:0:0:0:
448,192,39325,1,0,0:0:0:0:
320,192,39489,1,0,0:0:0:0:
64,192,39489,1,0,0:0:0:0:
320,192,39817,1,0,0:0:0:0:
448,192,39981,1,0,0:0:0:0:
64,192,39981,1,0,0:0:0:0:
64,192,40309,128,0,42932:0:0:0:0:
448,192,40309,1,0,0:0:0:0:
192,192,40636,1,0,0:0:0:0:
448,192,40636,1,0,0:0:0:0:
192,192,40964,1,0,0:0:0:0:
192,192,41128,1,0,0:0:0:0:
320,192,41292,1,0,0:0:0:0:
448,192,41292,1,0,0:0:0:0:
320,192,41620,1,0,0:0:0:0:
448,192,41948,1,0,0:0:0:0:
192,192,41948,1,0,0:0:0:0:
448,192,42276,1,0,0:0:0:0:
448,192,42440,1,0,0:0:0:0:
320,192,42604,1,0,0:0:0:0:
192,192,42604,1,0,0:0:0:0:
192,192,42932,128,0,44243:0:0:0:0:
448,192,42932,1,0,0:0:0:0:
64,192,43259,1,0,0:0:0:0:
448,192,43259,1,0,0:0:0:0:
320,192,43587,1,0,0:0:0:0:
320,192,43751,1,0,0:0:0:0:
448,192,43915,1,0,0:0:0:0:
64,192,43915,1,0,0:0:0:0:
448,192,44243,1,0,0:0:0:0:
64,192,44243,1,0,0:0:0:0:
192,192,44407,1,0,0:0:0:0:
320,192,44571,1,0,0:0:0:0:
448,192,44571,1,0,0:0:0:0:
192,192,44653,1,0,0:0:0:0:
64,192,44653,1,0,0:0:0:0:
320,192,44735,1,0,0:0:0:0:
448,192,44735,1,0,0:0:0:0:
64,192,44817,1,0,0:0:0:0:
192,192,44817,1,0,0:0:0:0:
320,192,44899,1,0,0:0:0:0:
448,192,44899,1,0,0:0:0:0:
192,192,45555,1,0,0:0:0:0:
448,192,45555,1,0,0:0:0:0:
192,192,45636,1,0,0:0:0:0:
192,192,45718,1,0,0:0:0:0:
192,192,45800,1,0,0:0:0:0:
64,192,45882,1,0,0:0:0:0:
320,192,45882,1,0,0:0:0:0:
448,192,45882,1,0,0:0:0:0:
64,192,45964,1,0,0:0:0:0:
64,192,46046,1,0,0:0:0:0:
64,192,46128,1,0,0:0:0:0:
192,192,46210,1,0,0:0:0:0:
320,192,46210,1,0,0:0:0:0:
192,192,46292,1,0,0:0:0:0:
192,192,46374,1,0,0:0:0:0:
192,192,46456,1,0,0:0:0:0:
448,192,46538,1,0,0:0:0:0:
64,192,46538,1,0,0:0:0:0:
320,192,46538,1,0,0:0:0:0:
448,192,46620,1,0,0:0:0:0:
448,192,46702,1,0,0:0:0:0:
448,192,46784,1,0,0:0:0:0:
448,192,46866,1,0,0:0:0:0:
320,192,46866,1,0,0:0:0:0:
448,192,46948,1,0,0:0:0:0:
448,192,47030,1,0,0:0:0:0:
448,192,47112,1,0,0:0:0:0:
320,192,47194,1,0,0:0:0:0:
64,192,47194,1,0,0:0:0:0:
192,192,47194,1,0,0:0:0:0:
320,192,47276,1,0,0:0:0:0:
192,192,47358,1,0,0:0:0:0:
192,192,47440,1,0,0:0:0:0:
320,192,47522,1,0,0:0:0:0:
448,192,47522,1,0,0:0:0:0:
320,192,47604,1,0,0:0:0:0:
320,192,47686,1,0,0:0:0:0:
64,192,47686,1,0,0:0:0:0:
320,192,47768,1,0,0:0:0:0:
320,192,47850,1,0,0:0:0:0:
192,192,47850,1,0,0:0:0:0:
64,192,47850,1,0,0:0:0:0:
448,192,48014,1,0,0:0:0:0:
320,192,48177,1,0,0:0:0:0:
64,192,48177,1,0,0:0:0:0:
320,192,48259,1,0,0:0:0:0:
320,192,48341,1,0,0:0:0:0:
320,192,48423,1,0,0:0:0:0:
64,192,48505,1,0,0:0:0:0:
192,192,48505,1,0,0:0:0:0:
448,192,48505,1,0,0:0:0:0:
64,192,48587,1,0,0:0:0:0:
64,192,48669,1,0,0:0:0:0:
64,192,48751,1,0,0:0:0:0:
192,192,48833,1,0,0:0:0:0:
448,192,48833,1,0,0:0:0:0:
192,192,48915,1,0,0:0:0:0:
192,192,48997,1,0,0:0:0:0:
64,192,48997,1,0,0:0:0:0:
192,192,49079,1,0,0:0:0:0:
320,192,49161,1,0,0:0:0:0:
448,192,49161,1,0,0:0:0:0:
64,192,49161,1,0,0:0:0:0:
320,192,49243,1,0,0:0:0:0:
320,192,49325,1,0,0:0:0:0:
320,192,49407,1,0,0:0:0:0:
448,192,49489,1,0,0:0:0:0:
64,192,49489,1,0,0:0:0:0:
448,192,49571,1,0,0:0:0:0:
448,192,49653,1,0,0:0:0:0:
448,192,49735,1,0,0:0:0:0:
320,192,49817,1,0,0:0:0:0:
192,192,49817,1,0,0:0:0:0:
64,192,49817,1,0,0:0:0:0:
320,192,49899,1,0,0:0:0:0:
192,192,49981,1,0,0:0:0:0:
192,192,50063,1,0,0:0:0:0:
320,192,50145,1,0,0:0:0:0:
448,192,50145,1,0,0:0:0:0:
320,192,50227,1,0,0:0:0:0:
320,192,50309,1,0,0:0:0:0:
320,192,50391,1,0,0:0:0:0:
192,192,50473,1,0,0:0:0:0:
448,192,50473,1,0,0:0:0:0:
64,192,50473,1,0,0:0:0:0:
192,192,50555,1,0,0:0:0:0:
192,192,50636,1,0,0:0:0:0:
192,192,50718,1,0,0:0:0:0:
64,192,50800,1,0,0:0:0:0:
448,192,50800,1,0,0:0:0:0:
64,192,50882,1,0,0:0:0:0:
64,192,50964,1,0,0:0:0:0:
64,192,51046,1,0,0:0:0:0:
64,192,51128,1,0,0:0:0:0:
192,192,51128,1,0,0:0:0:0:
320,192,51128,1,0,0:0:0:0:
320,192,51292,1,0,0:0:0:0:
448,192,51456,1,0,0:0:0:0:
192,192,51456,1,0,0:0:0:0:
448,192,51538,1,0,0:0:0:0:
448,192,51620,1,0,0:0:0:0:
64,192,51620,1,0,0:0:0:0:
448,192,51702,1,0,0:0:0:0:
320,192,51784,1,0,0:0:0:0:
192,192,51784,1,0,0:0:0:0:
64,192,51784,1,0,0:0:0:0:
320,192,51866,1,0,0:0:0:0:
320,192,51948,1,0,0:0:0:0:
320,192,52030,1,0,0:0:0:0:
192,192,52112,1,0,0:0:0:0:
448,192,52112,1,0,0:0:0:0:
192,192,52194,1,0,0:0:0:0:
192,192,52276,1,0,0:0:0:0:
192,192,52358,1,0,0:0:0:0:
192,192,52440,1,0,0:0:0:0:
320,192,52440,1,0,0:0:0:0:
448,192,52440,1,0,0:0:0:0:
64,192,52604,1,0,0:0:0:0:
448,192,52768,1,0,0:0:0:0:
320,192,52768,1,0,0:0:0:0:
448,192,52850,1,0,0:0:0:0:
448,192,52932,1,0,0:0:0:0:
192,192,52932,1,0,0:0:0:0:
448,192,53014,1,0,0:0:0:0:
320,192,53096,1,0,0:0:0:0:
192,192,53096,1,0,0:0:0:0:
64,192,53096,1,0,0:0:0:0:
320,192,53177,1,0,0:0:0:0:
320,192,53259,1,0,0:0:0:0:
320,192,53341,1,0,0:0:0:0:
192,192,53423,1,0,0:0:0:0:
448,192,53423,1,0,0:0:0:0:
192,192,53505,1,0,0:0:0:0:
192,192,53587,1,0,0:0:0:0:
192,192,53669,1,0,0:0:0:0:
192,192,53751,1,0,0:0:0:0:
320,192,53751,1,0,0:0:0:0:
64,192,53751,1,0,0:0:0:0:
448,192,53915,1,0,0:0:0:0:
320,192,54079,1,0,0:0:0:0:
64,192,54079,1,0,0:0:0:0:
320,192,54161,1,0,0:0:0:0:
320,192,54243,1,0,0:0:0:0:
192,192,54243,1,0,0:0:0:0:
320,192,54325,1,0,0:0:0:0:
320,192,54407,1,0,0:0:0:0:
448,192,54407,1,0,0:0:0:0:
64,192,54407,1,0,0:0:0:0:
320,192,54489,1,0,0:0:0:0:
320,192,54571,1,0,0:0:0:0:
320,192,54653,1,0,0:0:0:0:
64,192,54735,1,0,0:0:0:0:
192,192,54735,1,0,0:0:0:0:
64,192,54817,1,0,0:0:0:0:
64,192,54899,1,0,0:0:0:0:
64,192,54981,1,0,0:0:0:0:
192,192,55063,1,0,0:0:0:0:
320,192,55063,1,0,0:0:0:0:
448,192,55063,1,0,0:0:0:0:
192,192,55145,1,0,0:0:0:0:
192,192,55227,1,0,0:0:0:0:
192,192,55309,1,0,0:0:0:0:
320,192,55391,1,0,0:0:0:0:
448,192,55391,1,0,0:0:0:0:
320,192,55473,1,0,0:0:0:0:
320,192,55555,1,0,0:0:0:0:
64,192,55555,1,0,0:0:0:0:
320,192,55636,1,0,0:0:0:0:
448,192,55718,1,0,0:0:0:0:
192,192,55718,1,0,0:0:0:0:
64,192,55718,1,0,0:0:0:0:
448,192,55800,1,0,0:0:0:0:
448,192,55882,1,0,0:0:0:0:
448,192,55964,1,0,0:0:0:0:
192,192,56046,1,0,0:0:0:0:
320,192,56046,1,0,0:0:0:0:
192,192,56128,1,0,0:0:0:0:
192,192,56210,1,0,0:0:0:0:
192,192,56292,1,0,0:0:0:0:
64,192,56374,1,0,0:0:0:0:
320,192,56374,1,0,0:0:0:0:
448,192,56374,1,0,0:0:0:0:
64,192,56456,1,0,0:0:0:0:
64,192,56538,1,0,0:0:0:0:
64,192,56620,1,0,0:0:0:0:
192,192,56702,1,0,0:0:0:0:
320,192,56702,1,0,0:0:0:0:
192,192,56784,1,0,0:0:0:0:
192,192,56866,1,0,0:0:0:0:
192,192,56948,1,0,0:0:0:0:
64,192,57030,1,0,0:0:0:0:
448,192,57030,1,0,0:0:0:0:
320,192,57030,1,0,0:0:0:0:
448,192,57112,1,0,0:0:0:0:
448,192,57194,1,0,0:0:0:0:
192,192,57276,1,0,0:0:0:0:
448,192,57358,1,0,0:0:0:0:
64,192,57358,1,0,0:0:0:0:
448,192,57440,1,0,0:0:0:0:
448,192,57522,1,0,0:0:0:0:
448,192,57604,1,0,0:0:0:0:
320,192,57686,1,0,0:0:0:0:
192,192,57686,1,0,0:0:0:0:
64,192,57686,1,0,0:0:0:0:
320,192,57768,1,0,0:0:0:0:
192,192,57850,1,0,0:0:0:0:
192,192,57932,1,0,0:0:0:0:
320,192,58014,1,0,0:0:0:0:
448,192,58014,1,0,0:0:0:0:
320,192,58096,1,0,0:0:0:0:
320,192,58177,1,0,0:0:0:0:
320,192,58259,1,0,0:0:0:0:
320,192,58341,1,0,0:0:0:0:
64,192,58341,1,0,0:0:0:0:
192,192,58341,1,0,0:0:0:0:
192,192,58505,1,0,0:0:0:0:
192,192,58669,1,0,0:0:0:0:
448,192,58669,1,0,0:0:0:0:
448,192,58751,1,0,0:0:0:0:
448,192,58833,1,0,0:0:0:0:
320,192,58915,1,0,0:0:0:0:
64,192,58997,1,0,0:0:0:0:
192,192,58997,1,0,0:0:0:0:
448,192,58997,1,0,0:0:0:0:
64,192,59079,1,0,0:0:0:0:
64,192,59161,1,0,0:0:0:0:
64,192,59243,1,0,0:0:0:0:
192,192,59325,1,0,0:0:0:0:
448,192,59325,1,0,0:0:0:0:
192,192,59407,1,0,0:0:0:0:
192,192,59489,1,0,0:0:0:0:
192,192,59571,1,0,0:0:0:0:
320,192,59653,1,0,0:0:0:0:
64,192,59653,1,0,0:0:0:0:
448,192,59653,1,0,0:0:0:0:
320,192,59735,1,0,0:0:0:0:
320,192,59817,1,0,0:0:0:0:
320,192,59899,1,0,0:0:0:0:
448,192,59981,1,0,0:0:0:0:
64,192,59981,1,0,0:0:0:0:
448,192,60063,1,0,0:0:0:0:
448,192,60145,1,0,0:0:0:0:
448,192,60227,1,0,0:0:0:0:
320,192,60309,1,0,0:0:0:0:
64,192,60309,1,0,0:0:0:0:
448,192,60309,1,0,0:0:0:0:
192,192,60391,1,0,0:0:0:0:
320,192,60473,1,0,0:0:0:0:
192,192,60555,1,0,0:0:0:0:
320,192,60636,1,0,0:0:0:0:
448,192,60636,1,0,0:0:0:0:
320,192,60718,1,0,0:0:0:0:
320,192,60800,1,0,0:0:0:0:
320,192,60882,1,0,0:0:0:0:
192,192,60964,1,0,0:0:0:0:
64,192,60964,1,0,0:0:0:0:
448,192,60964,1,0,0:0:0:0:
192,192,61046,1,0,0:0:0:0:
192,192,61128,1,0,0:0:0:0:
192,192,61210,1,0,0:0:0:0:
64,192,61292,1,0,0:0:0:0:
320,192,61292,1,0,0:0:0:0:
64,192,61374,1,0,0:0:0:0:
64,192,61456,1,0,0:0:0:0:
64,192,61538,1,0,0:0:0:0:
64,192,61620,1,0,0:0:0:0:
320,192,61620,1,0,0:0:0:0:
448,192,61620,1,0,0:0:0:0:
192,192,61784,1,0,0:0:0:0:
448,192,61948,1,0,0:0:0:0:
320,192,61948,1,0,0:0:0:0:
448,192,62030,1,0,0:0:0:0:
448,192,62112,1,0,0:0:0:0:
448,192,62194,1,0,0:0:0:0:
320,192,62276,1,0,0:0:0:0:
64,192,62276,1,0,0:0:0:0:
192,192,62276,1,0,0:0:0:0:
320,192,62358,1,0,0:0:0:0:
320,192,62440,1,0,0:0:0:0:
320,192,62522,1,0,0:0:0:0:
192,192,62604,1,0,0:0:0:0:
448,192,62604,1,0,0:0:0:0:
192,192,62686,1,0,0:0:0:0:
192,192,62768,1,0,0:0:0:0:
192,192,62850,1,0,0:0:0:0:
192,192,62932,1,0,0:0:0:0:
64,192,62932,1,0,0:0:0:0:
448,192,62932,1,0,0:0:0:0:
448,192,63259,1,0,0:0:0:0:
320,192,63259,1,0,0:0:0:0:
448,192,63341,1,0,0:0:0:0:
448,192,63423,1,0,0:0:0:0:
448,192,63505,1,0,0:0:0:0:
320,192,63587,1,0,0:0:0:0:
64,192,63587,1,0,0:0:0:0:
192,192,63587,1,0,0:0:0:0:
320,192,63669,1,0,0:0:0:0:
320,192,63751,1,0,0:0:0:0:
320,192,63833,1,0,0:0:0:0:
192,192,63915,1,0,0:0:0:0:
448,192,63915,1,0,0:0:0:0:
192,192,63997,1,0,0:0:0:0:
192,192,64079,1,0,0:0:0:0:
192,192,64161,1,0,0:0:0:0:
192,192,64243,1,0,0:0:0:0:
64,192,64243,1,0,0:0:0:0:
448,192,64243,1,0,0:0:0:0:
192,192,64571,1,0,0:0:0:0:
448,192,64571,1,0,0:0:0:0:
192,192,64653,1,0,0:0:0:0:
192,192,64735,1,0,0:0:0:0:
192,192,64817,1,0,0:0:0:0:
192,192,64899,1,0,0:0:0:0:
320,192,64899,1,0,0:0:0:0:
64,192,64899,1,0,0:0:0:0:
192,192,64981,1,0,0:0:0:0:
192,192,65063,1,0,0:0:0:0:
192,192,65145,1,0,0:0:0:0:
64,192,65227,1,0,0:0:0:0:
448,192,65227,1,0,0:0:0:0:
64,192,65309,1,0,0:0:0:0:
64,192,65391,1,0,0:0:0:0:
64,192,65473,1,0,0:0:0:0:
448,192,65555,1,0,0:0:0:0:
192,192,65555,1,0,0:0:0:0:
320,192,65555,1,0,0:0:0:0:
448,192,65636,1,0,0:0:0:0:
448,192,65718,1,0,0:0:0:0:
448,192,65800,1,0,0:0:0:0:
192,192,65882,1,0,0:0:0:0:
64,192,65882,1,0,0:0:0:0:
192,192,65964,1,0,0:0:0:0:
192,192,66046,1,0,0:0:0:0:
192,192,66128,1,0,0:0:0:0:
320,192,66210,1,0,0:0:0:0:
448,192,66210,1,0,0:0:0:0:
192,192,66292,1,0,0:0:0:0:
64,192,66292,1,0,0:0:0:0:
320,192,66374,1,0,0:0:0:0:
448,192,66374,1,0,0:0:0:0:
192,192,66456,1,0,0:0:0:0:
64,192,66456,1,0,0:0:0:0:
320,192,66538,1,0,0:0:0:0:
448,192,66538,1,0,0:0:0:0:
320,192,66620,1,0,0:0:0:0:
320,192,66702,1,0,0:0:0:0:
320,192,66784,1,0,0:0:0:0:
64,192,66866,1,0,0:0:0:0:
448,192,66866,1,0,0:0:0:0:
192,192,66866,1,0,0:0:0:0:
64,192,66948,1,0,0:0:0:0:
64,192,67030,1,0,0:0:0:0:
64,192,67112,1,0,0:0:0:0:
192,192,67194,1,0,0:0:0:0:
320,192,67194,1,0,0:0:0:0:
192,192,67276,1,0,0:0:0:0:
192,192,67358,1,0,0:0:0:0:
192,192,67440,1,0,0:0:0:0:
448,192,67522,1,0,0:0:0:0:
64,192,67522,1,0,0:0:0:0:
320,192,67522,1,0,0:0:0:0:
448,192,67604,1,0,0:0:0:0:
448,192,67686,1,0,0:0:0:0:
320,192,67768,1,0,0:0:0:0:
448,192,67850,1,0,0:0:0:0:
192,192,67850,1,0,0:0:0:0:
448,192,67932,1,0,0:0:0:0:
448,192,68014,1,0,0:0:0:0:
448,192,68096,1,0,0:0:0:0:
320,192,68177,1,0,0:0:0:0:
64,192,68177,1,0,0:0:0:0:
192,192,68177,1,0,0:0:0:0:
320,192,68259,1,0,0:0:0:0:
192,192,68341,1,0,0:0:0:0:
192,192,68423,1,0,0:0:0:0:
320,192,68505,1,0,0:0:0:0:
448,192,68505,1,0,0:0:0:0:
320,192,68587,1,0,0:0:0:0:
320,192,68669,1,0,0:0:0:0:
320,192,68751,1,0,0:0:0:0:
320,192,68833,1,0,0:0:0:0:
192,192,68833,1,0,0:0:0:0:
64,192,68833,1,0,0:0:0:0:
448,192,68997,1,0,0:0:0:0:
320,192,69161,1,0,0:0:0:0:
64,192,69161,1,0,0:0:0:0:
320,192,69243,1,0,0:0:0:0:
320,192,69325,1,0,0:0:0:0:
320,192,69407,1,0,0:0:0:0:
448,192,69489,1,0,0:0:0:0:
192,192,69489,1,0,0:0:0:0:
64,192,69489,1,0,0:0:0:0:
192,192,69571,1,0,0:0:0:0:
192,192,69653,1,0,0:0:0:0:
192,192,69735,1,0,0:0:0:0:
64,192,69817,1,0,0:0:0:0:
320,192,69817,1,0,0:0:0:0:
64,192,69899,1,0,0:0:0:0:
64,192,69981,1,0,0:0:0:0:
64,192,70063,1,0,0:0:0:0:
192,192,70145,1,0,0:0:0:0:
320,192,70145,1,0,0:0:0:0:
448,192,70145,1,0,0:0:0:0:
192,192,70227,1,0,0:0:0:0:
192,192,70309,1,0,0:0:0:0:
192,192,70391,1,0,0:0:0:0:
320,192,70473,1,0,0:0:0:0:
64,192,70473,1,0,0:0:0:0:
320,192,70555,1,0,0:0:0:0:
320,192,70636,1,0,0:0:0:0:
320,192,70718,1,0,0:0:0:0:
448,192,70800,1,0,0:0:0:0:
64,192,70800,1,0,0:0:0:0:
192,192,70800,1,0,0:0:0:0:
448,192,70882,1,0,0:0:0:0:
448,192,70964,1,0,0:0:0:0:
448,192,71046,1,0,0:0:0:0:
320,192,71128,1,0,0:0:0:0:
192,192,71128,1,0,0:0:0:0:
320,192,71210,1,0,0:0:0:0:
320,192,71292,1,0,0:0:0:0:
320,192,71374,1,0,0:0:0:0:
192,192,71456,1,0,0:0:0:0:
448,192,71456,1,0,0:0:0:0:
64,192,71456,1,0,0:0:0:0:
192,192,71538,1,0,0:0:0:0:
192,192,71620,1,0,0:0:0:0:
192,192,71702,1,0,0:0:0:0:
64,192,71784,1,0,0:0:0:0:
448,192,71784,1,0,0:0:0:0:
64,192,71866,1,0,0:0:0:0:
64,192,71948,1,0,0:0:0:0:
64,192,72030,1,0,0:0:0:0:
64,192,72112,1,0,0:0:0:0:
320,192,72112,1,0,0:0:0:0:
448,192,72112,1,0,0:0:0:0:
192,192,72276,1,0,0:0:0:0:
448,192,72440,1,0,0:0:0:0:
320,192,72440,1,0,0:0:0:0:
448,192,72522,1,0,0:0:0:0:
448,192,72604,1,0,0:0:0:0:
448,192,72686,1,0,0:0:0:0:
320,192,72768,1,0,0:0:0:0:
64,192,72768,1,0,0:0:0:0:
192,192,72768,1,0,0:0:0:0:
320,192,72850,1,0,0:0:0:0:
320,192,72932,1,0,0:0:0:0:
320,192,73014,1,0,0:0:0:0:
192,192,73096,1,0,0:0:0:0:
448,192,73096,1,0,0:0:0:0:
192,192,73177,1,0,0:0:0:0:
192,192,73259,1,0,0:0:0:0:
192,192,73341,1,0,0:0:0:0:
192,192,73423,1,0,0:0:0:0:
448,192,73423,1,0,0:0:0:0:
320,192,73423,1,0,0:0:0:0:
448,192,73751,1,0,0:0:0:0:
64,192,73751,1,0,0:0:0:0:
448,192,73833,1,0,0:0:0:0:
448,192,73915,1,0,0:0:0:0:
448,192,73997,1,0,0:0:0:0:
320,192,74079,1,0,0:0:0:0:
192,192,74079,1,0,0:0:0:0:
64,192,74079,1,0,0:0:0:0:
320,192,74161,1,0,0:0:0:0:
320,192,74243,1,0,0:0:0:0:
320,192,74325,1,0,0:0:0:0:
192,192,74407,1,0,0:0:0:0:
64,192,74407,1,0,0:0:0:0:
192,192,74489,1,0,0:0:0:0:
192,192,74571,1,0,0:0:0:0:
192,192,74653,1,0,0:0:0:0:
448,192,74735,1,0,0:0:0:0:
192,192,74735,1,0,0:0:0:0:
64,192,74735,1,0,0:0:0:0:
320,192,74899,1,0,0:0:0:0:
192,192,75063,1,0,0:0:0:0:
448,192,75063,1,0,0:0:0:0:
192,192,75145,1,0,0:0:0:0:
192,192,75227,1,0,0:0:0:0:
192,192,75309,1,0,0:0:0:0:
192,192,75391,1,0,0:0:0:0:
64,192,75391,1,0,0:0:0:0:
320,192,75391,1,0,0:0:0:0:
192,192,75473,1,0,0:0:0:0:
192,192,75555,1,0,0:0:0:0:
192,192,75636,1,0,0:0:0:0:
64,192,75718,1,0,0:0:0:0:
320,192,75718,1,0,0:0:0:0:
64,192,75800,1,0,0:0:0:0:
64,192,75882,1,0,0:0:0:0:
448,192,75882,1,0,0:0:0:0:
64,192,75964,1,0,0:0:0:0:
192,192,76046,1,0,0:0:0:0:
448,192,76046,1,0,0:0:0:0:
192,192,76128,1,0,0:0:0:0:
192,192,76210,1,0,0:0:0:0:
64,192,76210,1,0,0:0:0:0:
192,192,76292,1,0,0:0:0:0:
320,192,76374,1,0,0:0:0:0:
448,192,76374,1,0,0:0:0:0:
320,192,76456,1,0,0:0:0:0:
448,192,76456,1,0,0:0:0:0:
64,192,76538,1,0,0:0:0:0:
192,192,76538,1,0,0:0:0:0:
192,192,76620,1,0,0:0:0:0:
64,192,76620,1,0,0:0:0:0:
448,192,76702,1,0,0:0:0:0:
320,192,76702,1,0,0:0:0:0:
192,192,76784,1,0,0:0:0:0:
64,192,76866,1,0,0:0:0:0:
448,192,76866,1,0,0:0:0:0:
192,192,76948,1,0,0:0:0:0:
64,192,77030,1,0,0:0:0:0:
320,192,77030,1,0,0:0:0:0:
448,192,77030,128,0,78341:0:0:0:0:
320,192,77522,1,0,0:0:0:0:
64,192,77563,1,0,0:0:0:0:
192,192,77850,1,0,0:0:0:0:
64,192,78014,1,0,0:0:0:0:
320,192,78014,1,0,0:0:0:0:
64,192,78341,128,0,79653:0:0:0:0:
192,192,78341,1,0,0:0:0:0:
448,192,78833,1,0,0:0:0:0:
320,192,78833,1,0,0:0:0:0:
320,192,79161,1,0,0:0:0:0:
192,192,79325,1,0,0:0:0:0:
448,192,79325,1,0,0:0:0:0:
192,192,79653,128,0,80964:0:0:0:0:
448,192,79653,1,0,0:0:0:0:
448,192,80145,1,0,0:0:0:0:
64,192,80145,1,0,0:0:0:0:
320,192,80473,1,0,0:0:0:0:
448,192,80636,1,0,0:0:0:0:
64,192,80636,1,0,0:0:0:0:
320,192,80964,128,0,82276:0:0:0:0:
64,192,80964,1,0,0:0:0:0:
64,192,81456,1,0,0:0:0:0:
448,192,81456,1,0,0:0:0:0:
448,192,81784,1,0,0:0:0:0:
64,192,81948,1,0,0:0:0:0:
192,192,81948,1,0,0:0:0:0:
448,192,81948,1,0,0:0:0:0:
64,192,82276,1,0,0:0:0:0:
192,192,82276,1,0,0:0:0:0:
64,192,82440,1,0,0:0:0:0:
64,192,82604,1,0,0:0:0:0:
320,192,82604,1,0,0:0:0:0:
448,192,82604,1,0,0:0:0:0:
192,192,82768,1,0,0:0:0:0:
192,192,82932,1,0,0:0:0:0:
448,192,82932,1,0,0:0:0:0:
192,192,83096,1,0,0:0:0:0:
320,192,83096,1,0,0:0:0:0:
192,192,83259,1,0,0:0:0:0:
448,192,83259,1,0,0:0:0:0:
64,192,83259,1,0,0:0:0:0:
320,192,83423,1,0,0:0:0:0:
320,192,83587,1,0,0:0:0:0:
192,192,83587,1,0,0:0:0:0:
320,192,83751,1,0,0:0:0:0:
448,192,83751,1,0,0:0:0:0:
320,192,83915,1,0,0:0:0:0:
64,192,83915,1,0,0:0:0:0:
192,192,83915,1,0,0:0:0:0:
448,192,84079,1,0,0:0:0:0:
448,192,84243,1,0,0:0:0:0:
320,192,84243,1,0,0:0:0:0:
64,192,84325,1,0,0:0:0:0:
192,192,84325,1,0,0:0:0:0:
448,192,84407,1,0,0:0:0:0:
448,192,84571,1,0,0:0:0:0:
64,192,84571,1,0,0:0:0:0:
320,192,84653,1,0,0:0:0:0:
192,192,84653,1,0,0:0:0:0:
448,192,84735,1,0,0:0:0:0:
64,192,84735,1,0,0:0:0:0:
320,192,84817,1,0,0:0:0:0:
192,192,84817,1,0,0:0:0:0:
64,192,84899,1,0,0:0:0:0:
448,192,84899,1,0,0:0:0:0:
64,192,85063,1,0,0:0:0:0:
192,192,85063,1,0,0:0:0:0:
320,192,85063,1,0,0:0:0:0:
448,192,85063,1,0,0:0:0:0:
64,192,85227,1,0,0:0:0:0:
320,192,85227,1,0,0:0:0:0:
64,192,85391,1,0,0:0:0:0:
192,192,85391,1,0,0:0:0:0:
320,192,85391,1,0,0:0:0:0:
448,192,85391,1,0,0:0:0:0:
320,192,85555,1,0,0:0:0:0:
192,192,85555,1,0,0:0:0:0:
448,192,85718,1,0,0:0:0:0:
320,192,85718,1,0,0:0:0:0:
64,192,85718,1,0,0:0:0:0:
192,192,85718,1,0,0:0:0:0:
192,192,85882,1,0,0:0:0:0:
448,192,85882,1,0,0:0:0:0:
64,192,86046,1,0,0:0:0:0:
192,192,86046,1,0,0:0:0:0:
320,192,86046,1,0,0:0:0:0:
448,192,86046,1,0,0:0:0:0:
192,192,86210,1,0,0:0:0:0:
64,192,86210,1,0,0:0:0:0:
64,192,86374,1,0,0:0:0:0:
192,192,86374,1,0,0:0:0:0:
448,192,86374,1,0,0:0:0:0:
320,192,86374,1,0,0:0:0:0:
64,192,86538,1,0,0:0:0:0:
192,192,86538,1,0,0:0:0:0:
320,192,86538,1,0,0:0:0:0:
448,192,86538,1,0,0:0:0:0:
448,192,86702,1,0,0:0:0:0:
320,192,86702,1,0,0:0:0:0:
192,192,86702,1,0,0:0:0:0:
64,192,86702,1,0,0:0:0:0:
320,192,86866,1,0,0:0:0:0:
448,192,86866,1,0,0:0:0:0:
64,192,87030,1,0,0:0:0:0:
320,192,87030,1,0,0:0:0:0:
448,192,87030,1,0,0:0:0:0:
192,192,87030,1,0,0:0:0:0:
64,192,87112,1,0,0:0:0:0:
192,192,87112,1,0,0:0:0:0:
320,192,87112,1,0,0:0:0:0:
448,192,87112,1,0,0:0:0:0:
448,192,87194,1,0,0:0:0:0:
320,192,87194,1,0,0:0:0:0:
192,192,87194,1,0,0:0:0:0:
64,192,87194,1,0,0:0:0:0:
64,192,87358,128,0,87686:0:0:0:0:
192,192,87358,128,0,87686:0:0:0:0:
320,192,87358,128,0,87686:0:0:0:0:
448,192,87358,128,0,87686:0:0:0:0:
