osu file format v14

[General]
AudioFilename: audio.mp3
AudioLeadIn: 0
PreviewTime: 45368
Countdown: 0
SampleSet: Soft
StackLeniency: 0.7
Mode: 0
LetterboxInBreaks: 0
WidescreenStoryboard: 1

[Editor]
Bookmarks: 819,3441,13933,34917,45409,76884,84753,87212
DistanceSpacing: 0.8
BeatDivisor: 4
GridSize: 8
TimelineZoom: 1

[Metadata]
Title:Silhouette (TV Size)
TitleUnicode:シルエット (TV Size)
Artist:KANA-BOON
ArtistUnicode:KANA-BOON
Creator:Sonnyc
Version:Normal
Source:NARUTO-ナルト-疾風伝
Tags:symmetry japanese anime rock Taniguchi Hayato Koga Yuma Iida Takahiro Koizumi Ki/oon Records Shippuden Nine Tails opening 16 shiruetto
BeatmapID:3125027
BeatmapSetID:1524517

[Difficulty]
HPDrainRate:3
CircleSize:3
OverallDifficulty:4
ApproachRate:5
SliderMultiplier:1.3
SliderTickRate:2

[Events]
//Background and Video events
0,0,"bg.png",0,0
Video,-200,"video.mp4"
//Break Periods
//Storyboard Layer 0 (Background)
//Storyboard Layer 1 (Fail)
//Storyboard Layer 2 (Pass)
//Storyboard Layer 3 (Foreground)
//Storyboard Layer 4 (Overlay)
//Storyboard Sound Samples

[TimingPoints]
819,327.868852459016,4,2,1,70,1,0
819,-100,4,2,1,70,0,0
13933,-100,4,2,1,50,0,0
24425,-100,4,2,1,60,0,0
45409,-100,4,2,1,80,0,1
76884,-100,4,2,1,80,0,0

[Colours]
Combo1 : 255,128,64
Combo2 : 0,255,128
Combo3 : 128,128,255
Combo4 : 255,0,128

[HitObjects]
184,176,819,53,2,0:0:0:0:
208,80,1146,1,8,0:0:0:0:
304,80,1474,1,0,1:0:0:0:
328,176,1802,1,8,0:0:0:0:
256,240,2130,2,8,L|256:376,2,130
336,56,3441,38,0,P|296:18|176:56,2,195,4|0|8,1:2|1:0|0:0,0:0:0:0:
353,152,4753,2,0,L|158:152,2,195,2|0|8,1:2|1:0|0:0,0:0:0:0:
336,248,6064,2,0,P|296:286|176:248,2,195,2|2|8,1:2|1:2|0:0,0:0:0:0:
353,152,7376,1,0,1:0:0:0:
160,56,7868,6,0,B|173:203|173:203|151:225|151:225|160:372,1,325,2|0,0:2|1:0,0:0:0:0:
352,372,9179,2,0,B|361:225|361:225|339:203|339:203|352:56,1,325,2|0,0:2|1:0,0:0:0:0:
176,248,11310,22,0,B|256:304|256:304|336:248,2,195,2|2|8,1:2|0:0|0:0,0:0:0:0:
176,144,12622,2,0,B|256:88|256:88|336:144,2,195,2|2|8,1:2|0:0|0:0,0:0:0:0:
88,96,13933,38,0,P|16:176|88:288,1,260,4|0,1:2|1:1,0:1:0:0:
176,240,14917,1,8,0:1:0:0:
176,240,16228,1,8,0:0:0:0:
240,320,16556,2,0,L|512:320,2,260,0|0|0,1:0|1:0|1:0,0:0:0:0:
144,368,18196,5,8,0:0:0:0:
144,264,18523,1,0,1:0:0:0:
144,64,19179,1,0,1:0:0:0:
336,160,19835,6,0,P|368:120|456:128,2,130,0|8|0,1:0|0:0|1:0,0:0:0:0:
176,160,21146,2,0,P|133:115|70:119,2,130,0|8|0,1:0|0:0|1:0,0:0:0:0:
136,336,22458,6,0,P|288:376|376:336,1,260,0|0,1:0|1:0,0:0:0:0:
352,240,23441,1,12,0:0:0:0:
160,240,24097,1,12,0:0:0:0:
72,288,24425,6,0,P|0:208|72:96,1,260,6|0,1:2|1:1,0:1:0:0:
160,144,25409,1,8,0:1:0:0:
256,96,25737,2,0,L|256:256,2,130,0|8|0,1:0|0:0|1:0,0:0:0:0:
352,144,26720,1,8,0:1:0:0:
439,95,27048,2,0,P|513:191|440:288,2,260,0|0|0,1:2|1:1|1:1,0:1:0:0:
352,40,28687,5,8,0:0:0:0:
352,144,29014,1,0,1:0:0:0:
352,344,29670,1,0,1:0:0:0:
168,248,30327,6,0,P|136:208|48:216,2,130,2|8|0,1:0|0:0|1:0,0:0:0:0:
345,247,31638,2,0,P|388:202|451:206,2,130,2|8|0,1:0|0:0|1:0,0:0:0:0:
376,48,32950,6,0,P|224:8|136:48,1,260,0|0,1:0|1:0,0:0:0:0:
204,128,33933,1,8,0:0:0:0:
308,128,34261,1,0,1:0:0:0:
256,328,34917,5,4,1:2:0:0:
424,128,36228,1,4,1:2:0:0:
88,128,37540,1,4,1:2:0:0:
256,328,38851,1,4,1:2:0:0:
312,160,40163,6,0,P|302:33|200:160,1,390,4|8,1:2|0:0,0:0:0:0:
256,248,41474,2,0,L|256:392,2,130,0|8|0,1:0|0:0|1:0,0:0:0:0:
464,264,42786,6,0,P|456:144|352:48,1,260,4|0,1:2|1:0,0:0:0:0:
152,50,44097,2,0,P|59:137|48:264,1,260,2|0,1:2|0:0,0:0:0:0:
224,216,45409,22,0,P|224:146|267:94,1,130,4|8,1:2|0:0,0:0:0:0:
362,99,46064,2,0,P|398:152|397:215,1,130,0|8,1:2|0:0,0:0:0:0:
423,319,46720,2,0,P|275:370|197:319,1,260,2|0,1:2|1:2,0:0:0:0:
82,157,48032,6,0,L|82:27,1,130,2|8,1:2|0:0,0:0:0:0:
186,27,48687,2,0,L|186:157,1,130,0|8,1:2|0:0,0:0:0:0:
134,252,49343,2,0,L|403:252,2,260,2|2|0,1:2|1:2|1:0,0:0:0:0:
184,40,51310,5,2,1:0:0:0:
74,67,51638,1,8,0:0:0:0:
156,145,51966,1,0,1:0:0:0:
328,40,52622,1,2,1:0:0:0:
438,67,52950,1,8,0:0:0:0:
356,145,53278,1,0,1:0:0:0:
420,295,53933,6,0,P|281:382|91:295,1,390,2|8,1:2|0:0,0:0:0:0:
4,235,55245,1,0,1:0:0:0:
152,88,55900,6,0,P|160:148|212:200,1,130,4|8,1:2|0:0,0:0:0:0:
305,197,56556,2,0,P|350:150|359:88,1,130,0|8,1:2|0:0,0:0:0:0:
256,105,57212,2,0,L|256:365,1,260,2|0,1:2|1:2,0:0:0:0:
448,288,58523,6,0,L|448:158,1,130,2|8,1:2|0:0,0:0:0:0:
351,92,59179,2,0,L|351:378,1,260,0|2,1:0|1:2,0:0:0:0:
256,287,60163,2,0,L|256:157,2,130,8|0|8,0:2|1:0|0:0,0:0:0:0:
161,352,61146,1,0,1:0:0:0:
0,188,61802,5,2,1:0:0:0:
111,171,62130,1,8,0:0:0:0:
221,154,62458,1,0,1:0:0:0:
290,325,63114,1,2,1:0:0:0:
400,308,63442,1,8,0:0:0:0:
511,291,63770,1,0,1:0:0:0:
411,120,64425,6,0,P|290:25|100:120,1,390,2|10,1:2|0:1,0:0:0:0:
24,192,65737,1,0,1:0:0:0:
195,330,66392,6,0,P|281:347|316:330,1,130,2|12,1:2|0:0,0:0:0:0:
368,239,67048,2,0,P|339:155|307:134,1,130,0|8,1:2|0:0,0:0:0:0:
202,134,67704,2,0,P|154:175|142:238,2,130,2|8|0,1:2|0:0|1:0,0:0:0:0:
368,10,69015,6,0,L|351:269,1,260,2|0,1:2|1:0,0:0:0:0:
256,321,69999,1,8,0:0:0:0:
160,269,70327,2,0,L|143:10,2,260,2|2|0,1:2|1:2|1:0,0:0:0:0:
351,192,72294,5,2,1:0:0:0:
352,80,72622,1,8,0:0:0:0:
256,32,72950,1,0,1:0:0:0:
160,192,73605,1,2,1:0:0:0:
160,304,73933,1,8,0:0:0:0:
256,352,74261,1,0,1:0:0:0:
351,192,74917,6,0,P|221:62|160:192,1,390,2|8,1:2|0:0,0:0:0:0:
256,157,76228,1,0,1:0:0:0:
256,365,76884,5,4,1:2:0:0:
91,166,78196,1,4,1:2:0:0:
420,166,79507,1,4,1:2:0:0:
256,365,80819,1,4,1:2:0:0:
429,328,82130,6,0,P|429:103|299:16,1,390,4|8,1:2|0:0,0:0:0:0:
202,17,83441,2,0,P|62:140|82:328,1,390,2|8,1:2|0:0,0:0:0:0:
184,360,84753,1,2,1:2:0:0:
256,192,84917,12,12,87212,0:0:0:0:
