osu file format v14

[General]
AudioFilename: audio.mp3
AudioLeadIn: 0
PreviewTime: 45368
Countdown: 0
SampleSet: Soft
StackLeniency: 0.7
Mode: 0
LetterboxInBreaks: 0
WidescreenStoryboard: 1

[Editor]
Bookmarks: 819,3441,13933,34917,45409,76884,84753,87212
DistanceSpacing: 0.8
BeatDivisor: 4
GridSize: 8
TimelineZoom: 1

[Metadata]
Title:Silhouette (TV Size)
TitleUnicode:シルエット (TV Size)
Artist:KANA-BOON
ArtistUnicode:KANA-BOON
Creator:Sonnyc
Version:Insane
Source:NARUTO-ナルト-疾風伝
Tags:symmetry japanese anime rock Taniguchi Hayato Koga Yuma Iida Takahiro Koizumi Ki/oon Records Shippuden Nine Tails opening 16 shiruetto
BeatmapID:3125026
BeatmapSetID:1524517

[Difficulty]
HPDrainRate:5
CircleSize:4
OverallDifficulty:7.5
ApproachRate:8.5
SliderMultiplier:1.6
SliderTickRate:2

[Events]
//Background and Video events
0,0,"bg.png",0,0
Video,-200,"video.mp4"
//Break Periods
//Storyboard Layer 0 (Background)
//Storyboard Layer 1 (Fail)
//Storyboard Layer 2 (Pass)
//Storyboard Layer 3 (Foreground)
//Storyboard Layer 4 (Overlay)
//Storyboard Sound Samples

[TimingPoints]
819,327.868852459016,4,2,1,70,1,0
819,-76.9230769230769,4,2,1,70,0,0
13933,-76.9230769230769,4,2,1,50,0,0
24425,-76.9230769230769,4,2,1,60,0,0
35245,-100,4,2,1,60,0,0
39507,-83.3333333333333,4,2,1,60,0,0
45081,-142.857142857143,4,2,1,30,0,0
45409,-66.6666666666667,4,2,1,80,0,1
76884,-83.3333333333333,4,2,1,80,0,0
84753,-66.6666666666667,4,2,1,80,0,0

[Colours]
Combo1 : 255,128,64
Combo2 : 0,255,128
Combo3 : 128,128,255
Combo4 : 255,0,128

[HitObjects]
256,304,491,37,8,0:3:0:0:
213,82,819,5,2,0:0:0:0:
256,213,982,1,0,0:0:0:0:
298,82,1146,1,8,0:0:0:0:
188,163,1310,2,0,L|74:174,1,103.999995239258,2|0,0:0|0:0,0:0:0:0:
256,213,1638,1,2,0:0:0:0:
325,163,1802,2,0,L|437:174,1,103.999995239258,8|0,0:0|0:0,0:0:0:0:
256,213,2130,1,8,0:0:0:0:
256,229,2211,1,8,0:0:0:0:
256,245,2294,1,8,0:0:0:0:
256,261,2375,1,8,0:0:0:0:
256,277,2458,2,8,L|256:349,4,51.999997619629,8|8|8|8|10,0:0|0:0|0:0|0:0|0:0,0:0:0:0:
208,16,3441,38,0,B|136:32|136:160|208:176,1,207.999990478516,4|8,1:2|0:0,0:0:0:0:
304,176,3933,2,0,B|376:160|376:32|304:16,1,207.999990478516,0|0,1:2|1:0,0:0:0:0:
256,96,4425,1,8,0:0:0:0:
368,353,4753,38,0,B|368:264|368:264|368:192|304:176,1,207.999990478516,2|8,1:2|0:0,0:0:0:0:
208,176,5245,2,0,B|144:192|144:264|144:264|144:353,1,207.999990478516,0|0,1:2|1:0,0:0:0:0:
256,248,5737,1,8,0:0:0:0:
79,73,6064,6,0,B|115:110|167:91|167:91|197:26|275:33,1,207.999990478516,2|8,1:2|0:0,0:0:0:0:
432,73,6556,2,0,B|395:110|343:91|343:91|313:26|235:33,1,207.999990478516,2|0,1:2|1:0,0:0:0:0:
256,128,7048,2,0,L|256:258,1,103.999995239258,10|0,0:0|0:0,0:0:0:0:
173,278,7376,2,0,B|185:322|256:354|326:322|339:278,1,207.999990478516,0|8,1:2|0:0,0:0:0:0:
428,334,7868,6,0,B|421:218|421:218|444:194|444:194|434:31,1,311.999985717774,2|8,1:2|0:0,0:0:0:0:
160,69,8687,2,0,B|154:163|154:163|176:189|176:189|172:276,1,207.999990478516,0|8,1:2|0:0,0:0:0:0:
84,334,9179,2,0,B|91:218|91:218|68:194|68:194|78:30,1,311.999985717774,2|8,1:2|0:0,0:0:0:0:
352,69,9999,2,0,B|357:163|357:163|336:189|336:189|340:276,1,207.999990478516,0|8,1:2|0:0,0:0:0:0:
160,69,10655,2,0,B|154:163|154:163|176:189|176:189|172:276,1,207.999990478516,0|8,1:2|0:0,0:0:0:0:
344,376,11310,22,0,B|256:320|256:320|168:376,1,207.999990478516,2|8,1:2|0:0,0:0:0:0:
124,300,11802,2,0,B|256:216|256:216|388:300,1,311.999985717774,2|8,1:2|0:0,0:0:0:0:
208,144,12622,2,0,B|256:-4|256:-4|304:144,1,311.999985717774,2|2,1:2|1:2,0:0:0:0:
256,224,13278,22,8,L|256:276,4,51.999997619629
304,144,13769,5,8,0:0:0:0:
304,144,13851,1,8,0:0:0:0:
304,144,13933,2,0,P|394:115|432:202,2,207.999990478516,4|8|0,1:2|0:0|1:0,0:0:0:0:
464,304,14917,2,0,L|48:304,1,415.999980957032,8|8,0:0|0:0,0:0:0:0:
256,216,16228,1,8,0:0:0:0:
176,80,16556,1,0,1:0:0:0:
256,128,16720,1,0,0:0:0:0:
336,80,16884,1,8,0:0:0:0:
256,32,17048,1,0,0:0:0:0:
176,80,17212,2,0,P|293:128|336:80,1,207.999990478516,0|8,1:0|0:0,0:0:0:0:
256,32,17704,1,0,0:0:0:0:
328,216,18196,6,0,L|320:320,1,103.999995239258,8|0,0:0|0:0,0:0:0:0:
256,376,18523,1,0,1:0:0:0:
184,216,18851,2,0,L|192:320,1,103.999995239258,8|0,0:0|0:0,0:0:0:0:
256,376,19179,1,0,1:0:0:0:
387,278,19835,5,0,1:0:0:0:
256,253,20163,1,8,0:0:0:0:
344,153,20491,2,0,L|331:369,1,207.999990478516,0|8,1:0|0:0,0:0:0:0:
126,278,21146,1,0,1:0:0:0:
256,253,21474,1,8,0:0:0:0:
169,153,21802,2,0,L|182:369,1,207.999990478516,0|8,1:0|0:0,0:0:0:0:
343,153,22458,6,0,P|266:5|169:153,1,415.999980957032,0|0,1:0|1:0,0:0:0:0:
320,288,23441,1,12,0:0:0:0:
256,105,23769,1,0,1:0:0:0:
192,288,24097,1,12,0:0:0:0:
384,162,24425,6,0,P|347:75|257:104,1,207.999990478516,6|8,1:2|0:0,0:0:0:0:
220,192,24917,1,2,0:0:0:0:
129,164,25081,2,0,P|165:76|256:104,1,207.999990478516,0|8,1:2|0:0,0:0:0:0:
320,328,25737,2,0,L|432:336,2,103.999995239258,0|2|8,1:0|0:0|0:0,0:0:0:0:
256,264,26228,1,2,0:0:0:0:
192,328,26392,2,0,L|80:336,1,103.999995239258,0|2,1:0|0:0,0:0:0:0:
176,216,26720,1,8,0:0:0:0:
256,264,26884,1,2,0:0:0:0:
336,216,27048,2,0,P|219:168|176:216,1,207.999990478516,0|8,1:0|0:0,0:0:0:0:
256,264,27540,1,2,0:0:0:0:
176,312,27704,2,0,P|293:360|336:312,1,207.999990478516,0|8,1:0|0:0,0:0:0:0:
256,264,28196,1,2,0:0:0:0:
344,48,28687,6,0,L|336:152,1,103.999995239258,8|0,0:0|0:0,0:0:0:0:
256,104,29015,2,0,L|256:-8,1,103.999995239258,0|0,1:0|0:0,0:0:0:0:
168,48,29343,2,0,L|176:152,1,103.999995239258,8|0,0:0|0:0,0:0:0:0:
256,104,29671,1,0,1:0:0:0:
256,104,29999,1,8,0:0:0:0:
125,267,30327,5,0,1:0:0:0:
224,285,30491,1,0,0:0:0:0:
158,361,30655,2,0,L|170:152,2,207.999990478516,8|0|10,0:0|1:1|0:1,0:0:0:0:
387,267,31638,1,0,1:0:0:0:
288,285,31802,1,0,0:0:0:0:
354,361,31966,2,0,L|342:152,2,207.999990478516,8|0|10,0:0|1:1|0:1,0:0:0:0:
169,153,32950,6,0,P|246:5|343:153,1,415.999980957032,0|0,1:0|1:0,0:0:0:0:
192,320,33933,1,8,0:0:0:0:
256,105,34261,1,8,0:0:0:0:
256,200,34425,1,8,0:0:0:0:
256,105,34589,1,8,0:0:0:0:
320,320,34917,1,4,1:2:0:0:
465,166,35245,5,0,1:0:0:0:
465,166,35409,1,8,0:0:0:0:
465,166,35737,2,2,B|465:199|432:224|394:220|394:220|256:200,1,240,0|4,1:2|1:2,0:0:0:0:
47,166,36556,1,0,1:0:0:0:
47,166,36720,1,8,0:0:0:0:
47,166,37048,2,2,B|47:199|80:224|118:220|118:220|256:200,1,240,0|4,1:2|1:2,0:0:0:0:
465,166,37868,1,0,1:0:0:0:
465,166,38032,2,2,B|465:199|432:224|394:220|394:220|256:200,1,240,8|0,0:2|1:2,0:0:0:0:
256,8,38851,1,4,1:2:0:0:
200,224,39507,6,0,L|216:336,1,95.9999970703126,2|0,0:0|0:0,0:0:0:0:
298,319,39835,2,0,L|312:224,1,95.9999970703126,8|0,0:0|0:0,0:0:0:0:
392,256,40163,2,0,P|416:160|296:24,1,287.999991210938,4|0,1:2|0:0,0:0:0:0:
209,25,40818,2,0,P|105:118|120:256,1,287.999991210938,2|0,1:2|0:0,0:0:0:0:
214,319,41474,2,0,L|200:224,1,95.9999970703126,2|0,1:2|0:0,0:0:0:0:
298,319,41802,2,0,L|312:224,1,95.9999970703126,8|0,0:0|0:0,0:0:0:0:
296,120,42130,2,0,P|282:181|216:120,1,191.999994140625,0|8,1:0|0:0,0:0:0:0:
16,192,42786,6,0,P|79:317|206:383,1,287.999991210938,4|0,1:2|0:0,0:0:0:0:
305,383,43441,2,0,P|431:318|496:192,1,287.999991210938,2|0,1:2|0:0,0:0:0:0:
448,112,44097,1,4,1:2:0:0:
256,208,44425,1,8,0:0:0:0:
64,112,44753,1,0,1:2:0:0:
256,16,45081,1,2,0:0:0:0:
472,136,45409,22,0,P|504:176|496:256,1,120.000004577637,6|2,1:2|0:3,0:0:0:0:
376,136,45737,2,0,P|344:176|352:256,1,120.000004577637,8|2,0:0|0:3,0:0:0:0:
512,336,46064,2,0,P|374:283|336:336,1,240.000009155274,0|8,1:0|0:0,1:0:0:0:
212,27,46720,2,0,B|192:97|256:142|256:116|320:161|301:231,1,240.000009155274,2|8,1:2|0:0,1:0:0:0:
256,312,47212,1,2,0:3:0:0:
212,231,47376,2,0,B|192:160|256:115|256:141|320:96|301:26,1,240.000009155274,0|8,1:2|0:0,1:0:0:0:
97,217,48032,6,0,L|112:335,1,120.000004577637,2|2,1:2|0:3,0:0:0:0:
302,359,48359,2,0,L|318:240,1,120.000004577637,8|2,0:2|0:3,0:0:0:0:
194,241,48687,2,0,L|210:359,1,120.000004577637,0|2,1:2|0:3,0:0:0:0:
400,336,49015,2,0,L|416:217,1,120.000004577637,8|2,0:2|0:3,0:0:0:0:
464,16,49343,2,0,B|489:61|457:125|387:125|387:125|304:125,1,240.000009155274,2|8,1:2|0:0,1:0:0:0:
256,48,49835,1,2,0:3:0:0:
203,125,49999,2,0,B|125:125|125:125|55:125|23:61|48:16,2,240.000009155274,2|8|0,1:2|0:0|1:0,1:0:0:0:
256,376,50982,1,8,0:0:0:0:
430,168,51310,5,2,1:2:0:0:
311,197,51474,1,2,0:3:0:0:
399,285,51638,2,0,L|388:33,2,240.000009155274,10|0|10,0:0|1:0|0:1,1:0:0:0:
82,168,52622,1,2,1:2:0:0:
201,197,52786,1,2,0:3:0:0:
113,285,52950,2,0,L|124:33,2,240.000009155274,10|0|10,0:0|1:0|0:1,1:0:0:0:
392,136,53933,6,0,B|360:40|256:0|152:40|120:136,1,360.000013732911,2|2,1:2|0:3,1:0:0:0:
304,312,54589,2,0,B|327:295|327:295|334:204,1,120.000004577637,0|2,1:2|0:3,0:0:0:0:
208,312,54917,2,0,B|184:295|184:295|177:204,1,120.000004577637,8|2,0:2|0:3,0:0:0:0:
208,32,55245,1,0,1:0:0:0:
256,152,55409,1,0,1:0:0:0:
304,32,55573,1,8,0:0:0:0:
112,328,55900,6,0,P|53:331|5:296,1,120.000004577637,6|2,1:2|0:3,0:0:0:0:
112,168,56228,2,0,P|53:165|5:200,1,120.000004577637,8|2,0:2|0:3,0:0:0:0:
199,159,56556,2,0,P|267:246|199:335,1,240.000009155274,0|8,1:0|0:0,1:0:0:0:
133,24,57212,2,0,B|267:59|267:59|303:69|324:106|312:138,1,240.000009155274,2|8,1:2|0:0,1:0:0:0:
256,218,57704,1,2,0:3:0:0:
200,138,57868,2,0,B|189:106|210:69|246:59|246:59|380:24,1,240.000009155274,0|8,1:2|0:0,1:0:0:0:
472,328,58523,6,0,L|352:312,1,120.000004577637,2|2,1:2|0:3,0:0:0:0:
304,224,58851,2,0,L|336:104,1,120.000004577637,8|2,0:0|0:3,0:0:0:0:
177,108,59179,2,0,L|207:223,1,120.000004577637,0|2,1:0|0:3,0:0:0:0:
159,312,59507,2,0,L|40:327,1,120.000004577637,8|2,0:2|0:3,0:0:0:0:
256,376,59835,1,2,1:2:0:0:
256,0,60163,1,10,0:2:0:0:
256,96,60327,1,2,0:3:0:0:
172,138,60491,2,0,B|172:195|256:246|339:195|339:138,2,240.000009155274,0|8|0,1:0|0:0|1:0,1:0:0:0:
256,376,61474,1,8,0:0:0:0:
40,160,61802,5,2,1:2:0:0:
66,30,61966,1,2,0:3:0:0:
194,55,62130,2,0,L|205:307,2,240.000009155274,10|0|10,0:0|1:0|0:1,1:0:0:0:
472,160,63114,1,2,1:2:0:0:
446,30,63278,1,2,0:3:0:0:
318,55,63441,2,0,L|307:307,2,240.000009155274,10|0|10,0:0|1:0|0:1,1:0:0:0:
116,257,64425,6,0,B|180:216|249:274|256:321|256:321|261:274|331:216|395:257,1,360.000013732911,2|2,1:2|0:3,1:0:0:0:
200,133,65081,2,0,B|109:140|109:140|92:163,1,120.000004577637,0|2,1:2|0:3,0:0:0:0:
312,133,65409,2,0,B|403:140|403:140|420:163,1,120.000004577637,10|2,0:1|0:3,0:0:0:0:
256,53,65737,1,0,1:0:0:0:
310,336,66064,5,8,0:0:0:0:
310,336,66147,1,8,0:0:0:0:
310,336,66228,1,8,0:0:0:0:
310,336,66309,1,8,0:0:0:0:
310,336,66392,2,0,P|285:352|202:336,1,120.000004577637,2|2,1:2|0:3,0:0:0:0:
136,222,66720,2,0,P|134:192|190:128,1,120.000004577637,12|2,0:2|0:3,0:0:0:0:
322,128,67048,2,0,P|368:163|376:221,1,120.000004577637,0|2,1:2|0:3,0:0:0:0:
150,341,67376,2,0,L|136:222,1,120.000004577637,10|2,0:0|0:3,0:0:0:0:
376,222,67704,2,0,L|361:341,1,120.000004577637,2|2,1:2|0:3,0:0:0:0:
256,168,68032,1,8,0:0:0:0:
256,264,68196,1,2,0:3:0:0:
312,104,68359,2,0,P|232:24|200:104,1,240.000009155274,0|8,1:0|0:0,1:0:0:0:
462,311,69015,6,0,L|344:296,1,120.000004577637,0|2,1:2|0:3,0:0:0:0:
256,248,69343,2,0,L|256:376,1,120.000004577637,8|2,0:0|0:3,0:0:0:0:
49,311,69671,2,0,L|168:296,1,120.000004577637,0|2,1:0|0:3,0:0:0:0:
256,248,69999,1,8,0:0:0:0:
256,248,70163,1,2,0:3:0:0:
176,208,70327,2,0,L|56:223,1,120.000004577637,2|2,1:2|0:3,0:0:0:0:
336,208,70655,2,0,L|455:223,1,120.000004577637,8|2,0:0|0:3,0:0:0:0:
208,120,70982,2,0,L|88:135,1,120.000004577637,2|2,1:2|0:3,0:0:0:0:
304,120,71310,2,0,L|423:135,1,120.000004577637,8|2,0:0|0:3,0:0:0:0:
256,48,71638,1,0,1:0:0:0:
256,48,71966,1,8,0:0:0:0:
432,328,72294,5,2,1:2:0:0:
384,208,72458,1,2,0:3:0:0:
432,328,72622,2,0,L|443:76,2,240.000009155274,10|0|10,0:0|1:0|0:1,1:0:0:0:
80,328,73605,1,2,1:2:0:0:
128,208,73769,1,2,0:3:0:0:
80,328,73933,2,0,L|69:76,2,240.000009155274,10|0|10,0:0|1:0|0:1,1:0:0:0:
392,112,74917,6,0,B|360:16|256:-24|152:16|120:112,1,360.000013732911,2|2,1:2|0:3,1:0:0:0:
256,272,75573,2,0,B|252:217|252:217|259:204|259:204|256:150,1,120.000004577637,0|8,1:0|0:0,0:0:0:0:
256,56,75900,1,8,0:0:0:0:
176,336,76228,1,8,0:0:0:0:
256,153,76392,1,8,0:0:0:0:
336,336,76556,1,8,0:0:0:0:
176,336,76720,1,8,0:0:0:0:
256,153,76884,1,4,0:2:0:0:
424,384,77212,5,8,0:0:0:0:
487,334,77376,2,2,B|498:295|467:255|422:249|422:249|255:229,1,287.999991210938,0|8,1:2|0:0,0:0:0:0:
90,384,78196,1,4,1:2:0:0:
90,384,78523,1,8,0:0:0:0:
27,334,78687,2,2,B|16:295|47:255|92:249|92:249|259:229,1,287.999991210938,0|8,1:2|0:0,0:0:0:0:
424,384,79507,1,4,1:2:0:0:
424,384,79835,1,8,0:0:0:0:
362,334,79999,2,0,B|333:257|256:247|256:247|179:257|150:334,1,287.999991210938,0|8,1:0|0:0,0:0:0:0:
256,56,80818,1,4,1:2:0:0:
298,346,81474,6,0,L|312:251,1,95.9999970703126,0|0,1:2|0:0,0:0:0:0:
200,251,81802,2,0,L|214:346,1,95.9999970703126,8|0,0:0|0:0,0:0:0:0:
392,283,82130,2,0,P|416:187|296:51,1,287.999991210938,4|0,1:2|0:0,0:0:0:0:
209,52,82786,2,0,P|105:145|120:283,1,287.999991210938,0|0,1:2|0:0,0:0:0:0:
298,346,83441,2,0,L|312:251,1,95.9999970703126,2|0,1:2|0:0,0:0:0:0:
200,251,83769,2,0,L|214:346,1,95.9999970703126,8|0,0:0|0:0,0:0:0:0:
312,251,84097,2,0,P|283:194|200:251,1,191.999994140625,0|8,1:2|0:0,0:0:0:0:
203,24,84753,21,2,1:2:0:0:
256,187,84917,1,8,0:0:0:0:
308,24,85081,1,8,0:0:0:0:
171,125,85245,2,0,L|31:140,1,120.000004577637,6|0,0:0|0:0,0:0:0:0:
203,24,85573,1,2,0:0:0:0:
256,187,85737,1,8,0:0:0:0:
308,24,85900,1,12,0:0:0:0:
341,125,86064,1,0,0:0:0:0:
341,125,86228,2,0,L|480:140,1,120.000004577637,2|8,0:0|0:0,0:0:0:0:
308,24,86556,1,8,0:0:0:0:
256,187,86720,1,0,0:0:0:0:
171,125,86884,37,12,0:2:0:0:
256,336,87048,1,12,0:0:0:0:
341,125,87212,1,12,0:0:0:0:
