osu file format v14

[General]
AudioFilename: audio.mp3
AudioLeadIn: 0
PreviewTime: 45368
Countdown: 0
SampleSet: Soft
StackLeniency: 0.5
Mode: 0
LetterboxInBreaks: 0
WidescreenStoryboard: 0

[Editor]
Bookmarks: 819,3441,13933,34917,45409,76884,84753,87212
DistanceSpacing: 0.8
BeatDivisor: 4
GridSize: 8
TimelineZoom: 1

[Metadata]
Title:Silhouette (TV Size)
TitleUnicode:シルエット (TV Size)
Artist:KANA-BOON
ArtistUnicode:KANA-BOON
Creator:Sonnyc
Version:Expert
Source:NARUTO-ナルト-疾風伝
Tags:symmetry japanese anime rock Taniguchi Hayato Koga Yuma Iida Takahiro Koizumi Ki/oon Records Shippuden Nine Tails opening 16 shiruetto
BeatmapID:3119245
BeatmapSetID:1524517

[Difficulty]
HPDrainRate:6
CircleSize:4
OverallDifficulty:9
ApproachRate:9
SliderMultiplier:2
SliderTickRate:2

[Events]
//Background and Video events
0,0,"bg.png",0,0
Video,-200,"video.mp4"
//Break Periods
//Storyboard Layer 0 (Background)
//Storyboard Layer 1 (Fail)
//Storyboard Layer 2 (Pass)
//Storyboard Layer 3 (Foreground)
//Storyboard Layer 4 (Overlay)
//Storyboard Sound Samples

[TimingPoints]
819,327.868852459016,4,2,1,70,1,0
819,-76.9230769230769,4,2,1,70,0,0
13933,-76.9230769230769,4,2,1,50,0,0
24425,-76.9230769230769,4,2,1,60,0,0
35245,-100,4,2,1,60,0,0
39507,-83.3333333333333,4,2,1,60,0,0
44097,-76.9230769230769,4,2,1,60,0,0
44425,-142.857142857143,4,2,1,60,0,0
45081,-142.857142857143,4,2,1,30,0,0
45409,-66.6666666666667,4,2,1,80,0,1
76884,-83.3333333333333,4,2,1,80,0,0
84753,-66.6666666666667,4,2,1,80,0,0

[Colours]
Combo1 : 255,128,64
Combo2 : 0,255,128
Combo3 : 128,128,255
Combo4 : 255,0,128

[HitObjects]
256,320,491,37,8,0:3:0:0:
208,24,819,5,2,0:0:0:0:
256,184,982,1,0,0:0:0:0:
304,24,1146,1,8,0:0:0:0:
176,120,1310,2,0,L|40:136,1,129.999994049073,2|0,0:0|0:0,0:0:0:0:
304,24,1638,1,2,0:0:0:0:
256,184,1802,1,8,0:0:0:0:
208,24,1966,1,0,0:0:0:0:
336,120,2130,1,8,0:0:0:0:
352,121,2212,1,8,0:0:0:0:
368,123,2294,1,8,0:0:0:0:
384,125,2376,1,8,0:0:0:0:
400,127,2458,1,8,0:0:0:0:
416,129,2540,1,8,0:0:0:0:
432,131,2622,1,8,0:0:0:0:
448,133,2704,1,8,0:0:0:0:
465,135,2786,1,10,0:0:0:0:
152,312,3441,38,0,B|168:368|256:408|344:368|360:312,1,259.999988098145,4|8,1:2|0:0,0:0:0:0:
360,216,3933,2,0,B|344:160|256:120|168:160|152:216,1,259.999988098145,0|0,1:2|1:0,0:0:0:0:
256,376,4425,2,0,L|256:246,1,129.999994049073,8|0,0:0|0:0,0:0:0:0:
208,16,4753,38,0,B|136:40|136:112|136:112|136:242,1,259.999988098145,2|8,1:2|0:0,0:0:0:0:
304,15,5245,2,0,B|376:39|376:111|376:111|376:242,1,259.999988098145,0|0,1:2|1:0,0:0:0:0:
256,116,5737,2,0,L|256:246,1,129.999994049073,8|0,0:0|0:0,0:0:0:0:
320,352,6064,6,0,B|376:384|432:344|432:344|448:256|544:240,1,259.999988098145,2|8,1:2|0:0,0:0:0:0:
192,352,6556,2,0,B|136:384|80:344|80:344|64:256|-32:240,1,259.999988098145,2|0,1:2|1:0,0:0:0:0:
256,116,7048,2,0,L|256:246,1,129.999994049073,10|0,0:0|0:0,0:0:0:0:
360,72,7376,2,0,B|344:16|256:-24|168:16|152:72,1,259.999988098145,0|8,1:2|0:0,0:0:0:0:
3,337,7868,6,0,B|120:328|120:328|137:345|137:345|255:337,1,259.999988098145,2|0,1:2|1:0,0:0:0:0:
376,136,8359,2,0,P|405:191|376:247,1,129.999994049073,8|0,0:0|0:0,0:0:0:0:
256,48,8687,2,0,B|138:40|138:40|121:57|121:57|4:48,1,259.999988098145,0|8,1:2|0:0,0:0:0:0:
257,337,9179,2,0,B|375:345|375:345|392:328|392:328|509:337,1,259.999988098145,2|0,1:2|1:0,0:0:0:0:
136,136,9671,2,0,P|107:193|136:248,1,129.999994049073,8|0,0:0|0:0,0:0:0:0:
256,48,9999,2,0,B|374:40|374:40|391:57|391:57|508:48,1,259.999988098145,0|8,1:2|0:0,0:0:0:0:
256,336,10655,2,0,B|374:344|374:344|391:327|391:327|508:336,1,259.999988098145,0|8,1:2|0:0,0:0:0:0:
80,40,11310,22,0,B|127:81|127:81|115:278,1,259.999988098145,2|8,1:2|0:0,0:0:0:0:
432,40,11802,2,0,B|386:81|386:81|398:278,1,259.999988098145,2|0,1:2|1:0,0:0:0:0:
256,248,12294,2,0,L|256:384,1,129.999994049073,8|0,0:0|0:0,0:0:0:0:
200,184,12622,2,0,B|256:-3|256:-3|312:184,1,389.999982147218,2|2,1:2|0:0,0:0:0:0:
223,280,13278,21,8,0:0:0:0:
240,280,13359,1,8,0:0:0:0:
256,280,13441,1,8,0:0:0:0:
272,280,13523,1,8,0:0:0:0:
288,280,13605,1,8,0:2:0:0:
408,192,13769,5,8,0:0:0:0:
408,192,13851,1,8,0:0:0:0:
408,192,13933,2,0,P|406:114|256:104,1,259.999988098145,4|8,1:2|0:0,0:0:0:0:
208,320,14589,1,0,1:0:0:0:
104,192,14917,2,0,P|106:114|256:104,2,259.999988098145,8|0|8,0:2|1:0|0:0,0:0:0:0:
304,320,15900,1,0,1:0:0:0:
304,320,16064,1,0,1:0:0:0:
304,320,16228,1,8,0:0:0:0:
336,88,16556,1,0,1:0:0:0:
256,40,16720,1,0,0:0:0:0:
176,88,16884,1,8,0:0:0:0:
256,136,17048,1,0,0:0:0:0:
335,88,17212,2,0,P|255:3|176:88,1,259.999988098145,0|8,1:0|0:0,0:0:0:0:
256,136,17704,1,0,0:0:0:0:
256,136,17868,1,0,1:0:0:0:
152,328,18196,6,0,L|168:192,1,129.999994049073,8|0,0:0|0:0,0:0:0:0:
256,240,18523,2,0,L|256:376,1,129.999994049073,0|0,1:0|0:0,0:0:0:0:
360,328,18851,2,0,L|344:192,1,129.999994049073,8|0,0:0|0:0,0:0:0:0:
256,136,19179,1,0,1:0:0:0:
256,136,19507,1,8,0:0:0:0:
80,240,19835,5,0,1:0:0:0:
206,264,19999,1,0,1:0:0:0:
122,360,20163,1,8,0:0:0:0:
137,100,20490,2,0,L|122:360,1,259.999988098145,0|8,1:0|0:0,0:0:0:0:
432,240,21146,1,0,1:0:0:0:
306,264,21310,1,0,1:0:0:0:
390,360,21474,1,8,0:0:0:0:
374,100,21802,2,0,L|390:360,1,259.999988098145,0|8,1:0|0:0,0:0:0:0:
48,144,22458,6,0,B|88:24|256:-40|424:24|464:144,1,519.99997619629,0|0,1:2|1:2,0:0:0:0:
184,352,23441,1,12,0:0:0:0:
256,104,23769,1,0,1:0:0:0:
328,352,24097,1,12,0:0:0:0:
104,192,24425,6,0,P|106:114|256:104,1,259.999988098145,6|8,1:2|0:0,0:0:0:0:
336,248,24917,1,2,0:0:0:0:
408,192,25081,2,0,P|406:114|256:104,1,259.999988098145,0|8,1:2|0:0,0:0:0:0:
176,248,25573,1,2,0:0:0:0:
312,344,25737,2,0,L|448:352,2,129.999994049073,0|2|8,1:0|0:0|0:0,0:0:0:0:
256,272,26228,1,2,0:0:0:0:
200,344,26392,2,0,L|64:352,1,129.999994049073,0|2,1:0|0:0,0:0:0:0:
256,272,26720,1,8,0:0:0:0:
256,272,26884,1,2,0:0:0:0:
176,224,27048,1,0,1:0:0:0:
256,176,27212,1,2,0:0:0:0:
336,224,27376,1,8,0:0:0:0:
256,272,27540,1,2,0:0:0:0:
176,224,27704,2,0,P|231:144|336:224,1,259.999988098145,0|8,1:0|0:0,0:0:0:0:
256,272,28196,2,0,L|256:8,1,259.999988098145,2|0,0:0|0:0,0:0:0:0:
152,56,28687,6,0,L|168:192,1,129.999994049073,8|0,0:0|0:0,0:0:0:0:
256,144,29015,2,0,L|256:8,1,129.999994049073,0|0,1:0|0:0,0:0:0:0:
360,56,29343,2,0,L|344:192,1,129.999994049073,8|0,0:0|0:0,0:0:0:0:
256,144,29671,2,0,L|256:8,1,129.999994049073,0|0,1:0|0:0,0:0:0:0:
256,240,29999,1,8,0:0:0:0:
54,160,30327,5,0,1:0:0:0:
180,184,30491,1,2,0:0:0:0:
96,280,30655,1,8,0:0:0:0:
54,160,30818,1,2,0:0:0:0:
96,280,30982,2,0,L|112:16,1,259.999988098145,0|10,1:0|0:1,0:0:0:0:
458,160,31638,1,0,1:0:0:0:
332,184,31802,1,2,0:0:0:0:
416,280,31966,1,8,0:0:0:0:
458,160,32130,1,2,0:0:0:0:
416,280,32294,2,0,L|400:16,1,259.999988098145,0|10,1:0|0:1,0:0:0:0:
96,280,32950,6,0,B|144:368|256:416|368:368|416:280,1,389.999982147218,0|0,1:2|0:2,0:0:0:0:
184,104,33605,2,0,L|192:240,1,129.999994049073,0|0,1:0|0:0,0:0:0:0:
328,104,33933,2,0,L|320:240,1,129.999994049073,8|0,0:0|0:0,0:0:0:0:
256,48,34261,1,8,0:0:0:0:
191,233,34425,1,8,0:0:0:0:
321,233,34589,1,8,0:0:0:0:
256,48,34753,1,8,0:0:0:0:
191,233,34917,1,4,1:2:0:0:
432,88,35245,5,0,1:0:0:0:
356,112,35409,2,0,B|303:137|316:208|316:208|332:302,2,200,8|0|0,0:0|0:0|0:0,0:0:0:0:
432,88,36228,1,4,1:2:0:0:
80,88,36556,1,0,1:0:0:0:
156,112,36720,2,0,B|209:137|196:208|196:208|180:302,2,200,8|0|0,0:0|0:0|0:0,0:0:0:0:
80,88,37540,1,4,1:2:0:0:
432,88,37868,1,0,1:0:0:0:
356,112,38032,2,0,B|303:137|316:208|316:208|332:302,2,200,8|0|0,0:0|0:0|0:0,0:0:0:0:
256,32,38851,1,4,1:2:0:0:
192,224,39507,6,0,L|208:352,1,119.999996337891,2|0,0:0|0:0,0:0:0:0:
305,343,39835,2,0,L|320:224,1,119.999996337891,8|0,0:0|0:0,0:0:0:0:
256,32,40163,2,0,P|110:122|117:293,1,359.999989013672,6|0,1:2|0:0,0:0:0:0:
396,293,40818,2,0,P|403:122|257:32,1,359.999989013672,2|0,1:2|0:0,0:0:0:0:
192,224,41474,2,0,L|208:352,1,119.999996337891,2|0,1:2|0:0,0:0:0:0:
305,343,41802,2,0,L|320:224,1,119.999996337891,8|0,0:0|0:0,0:0:0:0:
216,56,42130,2,0,P|257:143|296:56,1,239.999992675781,0|8,1:2|0:0,0:0:0:0:
48,248,42786,6,0,P|144:336|368:336,1,359.999989013672,6|0,1:2|0:0,0:0:0:0:
464,248,43441,2,0,P|368:336|144:336,1,359.999989013672,2|0,1:2|0:0,0:0:0:0:
200,120,44097,2,0,P|280:96|312:120,1,129.999994049073,2|0,1:2|0:0,0:0:0:0:
256,352,44425,5,8,0:0:0:0:
256,343,44507,1,8,0:0:0:0:
256,336,44589,1,8,0:0:0:0:
256,328,44671,1,8,0:0:0:0:
256,320,44753,2,0,L|256:152,1,139.999995727539,8|2,0:0|0:0,0:0:0:0:
48,40,45409,6,0,L|64:192,1,150.000005722046,6|2,1:2|0:3,0:0:0:0:
344,352,45737,2,0,P|352:272|310:219,1,150.000005722046,8|2,0:0|0:3,0:0:0:0:
200,220,46064,2,0,P|156:279|167:351,1,150.000005722046,2|2,1:2|0:3,0:0:0:0:
448,189,46392,2,0,L|463:39,1,150.000005722046,8|2,0:0|0:3,0:0:0:0:
200,112,46720,2,0,B|176:200|256:256|256:224|336:280|312:368,1,300.000011444092,2|8,1:2|0:0,1:0:0:0:
256,16,47212,1,2,0:3:0:0:
312,112,47376,2,0,B|336:200|256:256|256:224|176:280|200:368,1,300.000011444092,2|8,1:2|0:0,1:2:0:0:
456,32,48032,6,0,L|440:184,1,150.000005722046,2|2,1:2|0:3,0:0:0:0:
56,32,48359,2,0,L|72:184,1,150.000005722046,8|2,0:0|0:3,0:0:0:0:
328,136,48687,2,0,L|312:288,1,150.000005722046,2|2,1:2|0:3,0:0:0:0:
184,136,49015,2,0,L|200:288,1,150.000005722046,8|2,0:0|0:3,0:0:0:0:
512,368,49343,2,0,B|544:312|504:232|416:232|416:232|312:232,1,300.000011444092,2|8,1:2|0:0,1:0:0:0:
256,360,49835,1,2,0:3:0:0:
144,152,49999,2,0,P|144:64|200:16,1,150.000005722046,2|2,1:2|0:3,0:0:0:0:
328,22,50327,2,0,P|374:78|368:151,1,150.000005722046,8|2,0:0|0:3,0:0:0:0:
0,368,50655,2,0,B|-32:312|8:232|96:232|96:232|200:232,1,300.000011444092,0|8,1:2|0:0,1:0:0:0:
480,16,51310,5,2,1:2:0:0:
320,56,51474,1,2,0:3:0:0:
440,176,51638,1,10,0:0:0:0:
480,16,51802,1,2,0:3:0:0:
320,56,51966,2,0,L|334:211,1,150.000005722046,0|2,1:2|0:3,0:0:0:0:
351,369,52294,1,10,1:0:0:0:
32,16,52622,1,2,1:2:0:0:
192,56,52786,1,2,0:3:0:0:
72,176,52950,1,10,0:0:0:0:
32,16,53114,1,2,0:3:0:0:
192,56,53278,2,0,L|178:211,1,150.000005722046,0|2,1:2|0:3,0:0:0:0:
161,369,53605,1,10,1:0:0:0:
432,120,53933,6,0,B|392:8|256:-40|120:8|80:120,1,450.000017166138,2|2,1:2|0:3,1:0:0:0:
329,330,54589,2,0,B|443:321|443:321|466:288,1,150.000005722046,2|2,1:2|0:3,0:0:0:0:
183,330,54917,2,0,B|69:321|69:321|46:288,1,150.000005722046,8|2,0:2|0:3,0:0:0:0:
363,110,55245,1,0,1:2:0:0:
256,384,55409,1,0,1:3:0:0:
149,110,55573,1,8,0:0:0:0:
363,110,55737,1,2,0:3:0:0:
183,330,55900,6,0,P|79:330|47:282,1,150.000005722046,6|2,1:2|0:3,0:0:0:0:
363,110,56228,2,0,L|378:259,1,150.000005722046,8|2,0:0|0:3,0:0:0:0:
132,259,56556,2,0,L|147:109,1,150.000005722046,2|2,1:2|0:3,0:0:0:0:
327,330,56884,2,0,P|431:330|463:282,1,150.000005722046,8|2,0:0|0:3,0:0:0:0:
328,80,57212,2,0,B|349:116|332:166|289:186|289:186|129:260,1,300.000011444092,2|8,1:2|0:0,1:0:0:0:
256,0,57704,1,2,0:3:0:0:
184,80,57868,2,0,B|162:116|179:166|222:186|222:186|382:260,1,300.000011444092,2|8,1:2|0:0,1:0:0:0:
32,32,58523,6,0,L|48:184,1,150.000005722046,2|2,1:2|0:3,0:0:0:0:
480,32,58851,2,0,L|464:184,1,150.000005722046,8|2,0:0|0:3,0:0:0:0:
136,312,59179,2,0,L|152:160,1,150.000005722046,0|2,1:2|0:3,0:0:0:0:
360,162,59507,2,0,L|376:312,1,150.000005722046,8|2,0:2|0:3,0:0:0:0:
256,190,59835,2,0,L|256:40,1,150.000005722046,2|2,1:2|0:3,0:0:0:0:
256,360,60163,1,8,0:0:0:0:
151,162,60327,1,2,0:3:0:0:
361,162,60491,2,0,P|401:210|385:298,1,150.000005722046,2|2,1:2|0:3,0:0:0:0:
122,292,60818,2,0,P|107:220|151:162,1,150.000005722046,8|2,0:0|0:3,0:0:0:0:
360,8,61146,2,0,B|360:80|256:144|152:80|152:8,1,300.000011444092,0|8,1:0|0:0,1:0:0:0:
432,368,61802,5,2,1:2:0:0:
302,342,61966,1,2,0:3:0:0:
327,214,62130,1,8,0:0:0:0:
457,239,62294,1,2,0:3:0:0:
432,368,62458,2,0,L|422:201,1,150.000005722046,0|2,1:2|0:3,0:0:0:0:
411,53,62786,1,10,1:0:0:0:
80,368,63114,1,2,1:2:0:0:
210,342,63278,1,2,0:3:0:0:
185,214,63442,1,8,0:0:0:0:
55,239,63606,1,2,0:3:0:0:
80,368,63769,2,0,L|90:201,1,150.000005722046,0|2,1:2|0:3,0:0:0:0:
101,53,64097,1,10,1:0:0:0:
431,296,64425,6,0,B|351:245|264:318|256:376|256:376|249:318|162:245|82:296,1,450.000017166138,2|2,1:2|0:3,1:0:0:0:
424,56,65081,2,0,B|394:76|394:76|385:190,1,150.000005722046,2|2,1:2|0:3,0:0:0:0:
88,56,65409,2,0,B|117:76|117:76|126:190,1,150.000005722046,10|2,0:1|0:3,0:0:0:0:
256,0,65737,2,0,L|256:168,1,150.000005722046,0|2,1:2|0:3,0:0:0:0:
320,327,66064,5,8,0:0:0:0:
305,275,66146,1,8,0:0:0:0:
256,251,66228,1,8,0:0:0:0:
206,274,66310,1,8,0:0:0:0:
192,328,66392,2,0,P|254:361|320:328,1,150.000005722046,2|2,1:2|0:3,0:0:0:0:
170,68,66720,2,0,P|110:106|106:179,1,150.000005722046,12|2,0:2|0:3,0:0:0:0:
405,179,67048,2,0,P|402:107|341:68,1,150.000005722046,0|2,1:2|0:3,0:0:0:0:
106,179,67376,2,0,L|120:344,1,150.000005722046,8|2,0:0|0:3,0:0:0:0:
393,328,67704,2,0,L|406:179,1,150.000005722046,2|2,1:2|0:3,0:0:0:0:
256,80,68032,1,8,0:0:0:0:
256,368,68196,1,2,0:3:0:0:
184,108,68359,2,0,P|228:8|328:108,1,300.000011444092,0|8,1:2|0:0,1:0:0:0:
0,304,69015,6,0,L|152:288,1,150.000005722046,2|2,1:2|0:3,0:0:0:0:
512,304,69343,2,0,L|360:288,1,150.000005722046,8|2,1:2|0:3,0:0:0:0:
256,88,69671,2,0,L|256:248,1,150.000005722046,0|2,1:2|0:3,0:0:0:0:
256,336,69999,1,8,0:0:0:0:
360,96,70163,1,2,0:3:0:0:
152,288,70327,2,0,L|2:272,1,150.000005722046,2|2,1:2|0:3,0:0:0:0:
312,200,70655,2,0,L|461:184,1,150.000005722046,8|2,0:2|0:3,0:0:0:0:
200,200,70982,2,0,L|50:184,1,150.000005722046,2|2,1:2|0:3,0:0:0:0:
360,288,71310,2,0,L|509:272,1,150.000005722046,8|2,0:2|0:3,0:0:0:0:
152,96,71638,2,0,B|152:24|256:-40|360:24|360:96,1,300.000011444092,0|8,1:0|0:0,1:0:0:0:
0,312,72294,5,2,1:2:0:0:
149,230,72458,1,2,0:3:0:0:
76,384,72622,1,10,0:0:0:0:
45,216,72786,1,2,0:3:0:0:
168,334,72950,2,0,L|158:185,1,150.000005722046,0|2,1:2|0:3,0:0:0:0:
144,16,73278,1,10,1:0:0:0:
512,312,73605,1,2,1:2:0:0:
363,230,73769,1,2,0:3:0:0:
436,384,73933,1,10,0:0:0:0:
467,216,74097,1,2,0:3:0:0:
344,334,74261,2,0,L|354:185,1,150.000005722046,0|2,1:2|0:3,0:0:0:0:
368,16,74589,1,10,1:0:0:0:
80,264,74917,6,0,B|120:376|256:424|392:376|432:264,1,450.000017166138,2|2,1:2|0:3,1:0:0:0:
256,40,75573,1,2,1:2:0:0:
256,296,75737,1,8,0:2:0:0:
256,40,75900,2,0,B|252:108|252:108|260:124|260:124|256:192,1,150.000005722046,8|0,0:0|0:0,0:0:0:0:
152,352,76228,1,8,1:2:0:0:
256,40,76392,1,8,1:2:0:0:
360,352,76556,1,8,0:0:0:0:
152,352,76720,1,8,1:2:0:0:
256,40,76884,1,4,0:0:0:0:
57,295,77212,5,8,0:0:0:0:
57,295,77376,2,0,B|71:225|138:217|138:217|256:203,1,239.999992675781,0|0,1:2|0:0,0:0:0:0:
432,142,77868,2,0,B|312:127,1,119.999996337891,8|0,0:2|0:0,0:0:0:0:
256,52,78196,1,4,1:2:0:0:
455,295,78523,1,8,0:0:0:0:
455,295,78687,2,0,B|441:225|374:217|374:217|256:203,1,239.999992675781,0|0,1:2|0:0,0:0:0:0:
80,142,79179,2,0,B|200:127,1,119.999996337891,8|0,0:2|0:0,0:0:0:0:
256,52,79507,1,4,1:2:0:0:
208,368,79835,1,8,0:0:0:0:
168,288,79999,2,0,B|192:224|256:216|256:216|320:224|344:288,1,239.999992675781,0|0,1:0|0:0,0:0:0:0:
306,368,80491,1,8,0:0:0:0:
256,52,80818,1,4,1:2:0:0:
306,368,81474,6,0,L|321:249,1,119.999996337891,0|0,1:2|0:0,0:0:0:0:
193,249,81802,2,0,L|208:368,1,119.999996337891,8|0,0:0|0:0,0:0:0:0:
396,312,82130,2,0,P|403:140|257:50,1,359.999989013672,6|0,1:2|0:0,0:0:0:0:
117,311,82786,2,0,P|110:139|256:49,1,359.999989013672,0|0,1:2|0:0,0:0:0:0:
321,249,83441,2,0,L|306:368,1,119.999996337891,2|0,1:2|0:0,0:0:0:0:
208,368,83769,2,0,L|193:249,1,119.999996337891,8|0,0:0|0:0,0:0:0:0:
324,82,84097,21,8,0:0:0:0:
338,124,84178,1,8,0:0:0:0:
329,167,84260,1,8,0:0:0:0:
299,200,84342,1,8,0:0:0:0:
256,212,84424,1,8,0:0:0:0:
213,200,84506,1,8,0:0:0:0:
182,168,84588,1,8,0:0:0:0:
173,124,84670,1,8,0:0:0:0:
188,82,84753,1,2,1:2:0:0:
256,297,84917,1,8,0:0:0:0:
323,82,85081,1,8,0:0:0:0:
149,216,85245,2,0,L|0:233,1,150.000005722046,6|0,0:0|0:0,0:0:0:0:
323,82,85573,1,2,0:0:0:0:
256,297,85737,1,8,0:0:0:0:
188,82,85900,1,12,0:0:0:0:
363,216,86064,1,0,0:0:0:0:
363,216,86228,2,0,L|512:233,1,150.000005722046,2|8,0:0|0:0,0:0:0:0:
188,82,86556,1,8,0:0:0:0:
256,297,86720,1,0,0:0:0:0:
376,0,86884,37,12,0:0:0:0:
256,384,87048,1,12,0:0:0:0:
136,0,87212,1,12,0:0:0:0:
