osu file format v14

[General]
AudioFilename: audio.mp3
AudioLeadIn: 0
PreviewTime: 45368
Countdown: 0
SampleSet: Soft
StackLeniency: 0.7
Mode: 0
LetterboxInBreaks: 0
WidescreenStoryboard: 1

[Editor]
Bookmarks: 819,3441,13933,34917,45409,76884,84753,87212
DistanceSpacing: 0.8
BeatDivisor: 1
GridSize: 8
TimelineZoom: 1

[Metadata]
Title:Silhouette (TV Size)
TitleUnicode:シルエット (TV Size)
Artist:KANA-BOON
ArtistUnicode:KANA-BOON
Creator:Sonnyc
Version:Easy
Source:NARUTO-ナルト-疾風伝
Tags:symmetry japanese anime rock Taniguchi Hayato Koga Yuma Iida Takahiro Koizumi Ki/oon Records Shippuden Nine Tails opening 16 shiruetto
BeatmapID:3125025
BeatmapSetID:1524517

[Difficulty]
HPDrainRate:2
CircleSize:2
OverallDifficulty:2
ApproachRate:2
SliderMultiplier:1
SliderTickRate:1

[Events]
//Background and Video events
0,0,"bg.png",0,0
Video,-200,"video.mp4"
//Break Periods
//Storyboard Layer 0 (Background)
//Storyboard Layer 1 (Fail)
//Storyboard Layer 2 (Pass)
//Storyboard Layer 3 (Foreground)
//Storyboard Layer 4 (Overlay)
//Storyboard Sound Samples

[TimingPoints]
819,327.868852459016,4,2,1,70,1,0
819,-100,4,2,1,70,0,0
13933,-100,4,2,1,50,0,0
24425,-100,4,2,1,60,0,0
45409,-100,4,2,1,80,0,1
76884,-100,4,2,1,80,0,0

[Colours]
Combo1 : 255,128,64
Combo2 : 0,255,128
Combo3 : 128,128,255
Combo4 : 255,0,128

[HitObjects]
256,80,819,53,2,0:0:0:0:
356,356,2130,2,8,L|156:356,1,200
96,184,3441,38,0,P|256:80|416:184,3,400,4|2|2|0,1:2|1:2|1:2|1:2,0:0:0:0:
480,304,7868,2,0,B|382:311|382:311|365:333|365:333|228:344,1,250,2|0,0:2|1:0,0:0:0:0:
280,216,9179,2,0,B|182:223|182:223|165:245|165:245|41:255,1,250,2|0,0:2|1:0,0:0:0:0:
192,24,11311,38,0,B|256:213|256:213|320:24,2,400,2|2|4,1:2|1:2|1:2,0:0:0:0:
96,232,16556,38,0,P|304:328|416:232,1,400,0|0,1:0|1:0,0:0:0:0:
336,96,18523,1,0,1:0:0:0:
176,96,19179,1,0,1:0:0:0:
96,344,20491,21,0,1:0:0:0:
416,344,21802,1,0,1:0:0:0:
336,208,22458,2,0,P|280:160|176:208,2,200,0|0|0,1:0|1:0|1:0,0:0:0:0:
432,96,24425,38,0,P|280:16|80:96,1,400,6|0,1:2|1:0,0:0:0:0:
80,288,27048,2,0,P|232:368|432:288,1,400,0|0,1:2|1:0,0:0:0:0:
336,160,29015,1,0,1:0:0:0:
176,160,29671,1,0,1:0:0:0:
256,368,30982,21,0,1:0:0:0:
256,48,32294,1,0,1:0:0:0:
176,184,32949,2,0,P|232:232|336:184,2,200,0|0|0,1:0|1:0|1:0,0:0:0:0:
80,312,34917,5,4,1:2:0:0:
432,312,37540,1,4,1:2:0:0:
200,232,40163,6,0,P|177:50|312:232,1,600,4|0,1:2|1:0,0:0:0:0:
472,176,42786,2,0,P|411:287|40:176,1,600,4|0,1:2|1:0,0:0:0:0:
176,72,45409,38,0,P|255:21|335:72,2,200,6|0|2,1:2|1:0|1:2,0:0:0:0:
208,168,47048,1,8,0:0:0:0:
304,168,47376,1,0,1:0:0:0:
328,368,48032,2,0,L|536:344,2,200,2|0|2,1:2|1:0|1:2,0:0:0:0:
256,304,49671,1,8,0:0:0:0:
184,368,49999,2,0,L|-24:344,1,200,2|0,1:2|1:0,0:0:0:0:
72,176,51310,38,2,B|72:144|72:144|72:72|136:-8|232:-8|232:-8|280:-8|280:-8|376:-8|440:72|440:144|440:144|440:176,1,600,2|2,1:1|1:0,0:1:0:0:
320,328,53933,1,2,1:2:0:0:
256,160,54589,1,0,1:0:0:0:
192,328,55245,1,2,1:2:0:0:
0,292,55900,22,0,L|0:92,2,200,6|0|2,1:2|1:0|1:2,0:0:0:0:
96,240,57540,1,8,0:0:0:0:
96,144,57868,1,0,1:0:0:0:
249,50,58523,2,0,P|347:63|434:112,1,200,2|0,1:2|1:2,0:0:0:0:
384,192,59507,1,8,0:0:0:0:
434,271,59835,2,0,P|357:317|227:331,2,200,2|2|0,1:2|1:2|1:0,0:0:0:0:
416,40,61802,6,2,B|472:192|296:280|216:280|40:192|96:40,1,600,2|2,1:0|1:0,0:1:0:0:
256,16,64425,1,2,1:2:0:0:
256,192,65081,1,0,1:0:0:0:
256,368,65737,1,2,1:2:0:0:
424,280,66392,22,0,P|464:192|424:104,1,200,6|0,1:2|1:0,0:0:0:0:
272,16,67704,2,0,P|175:25|119:104,1,200,2|0,1:2|1:0,0:0:0:0:
119,278,69015,2,0,P|175:357|271:366,2,200,2|0|2,1:2|1:0|0:2,0:0:0:0:
160,192,70655,1,8,0:0:0:0:
119,105,70982,2,0,P|175:25|271:16,1,200,2|0,1:2|1:0,0:0:0:0:
440,192,72294,38,2,B|440:224|440:224|440:296|376:376|280:376|280:376|232:376|232:376|136:376|72:296|72:224|72:224|72:192,1,600,2|2,1:1|1:0,0:1:0:0:
192,40,74917,1,2,1:2:0:0:
256,208,75573,1,0,1:0:0:0:
320,40,76229,1,2,1:2:0:0:
472,144,76884,5,6,1:2:0:0:
40,144,79507,1,6,1:2:0:0:
168,280,82130,6,0,P|256:320|344:280,2,200,6|0|2,1:2|1:0|1:2,0:0:0:0:
168,104,84097,2,0,P|256:64|344:104,1,200,0|2,1:2|1:2,0:0:0:0:
256,192,84917,12,12,87212,0:2:0:0:
