osu file format v14

[General]
AudioFilename: audio.mp3
AudioLeadIn: 0
PreviewTime: 44757
Countdown: 0
SampleSet: Soft
StackLeniency: 0.9
Mode: 0
LetterboxInBreaks: 0
EpilepsyWarning: 1
WidescreenStoryboard: 1

[Editor]
DistanceSpacing: 1
BeatDivisor: 4
GridSize: 32
TimelineZoom: 1.1

[Metadata]
Title:Silhouette (TV Size)
TitleUnicode:シルエット (TV Size)
Artist:KANA-BOON
ArtistUnicode:KANA-BOON
Creator:SirMirai
Version:hakashii's Normal
Source:NARUTO-ナルト-疾風伝
Tags:j-rock jrock rock opening op 16 Anime Japanese shippuden hakashii _FlameL vp2_woon Odaril Shiro Stixy
BeatmapID:2245852
BeatmapSetID:1073101

[Difficulty]
HPDrainRate:4
CircleSize:3
OverallDifficulty:4
ApproachRate:5.5
SliderMultiplier:1.02
SliderTickRate:1

[Events]
//Background and Video events
0,0,"Naruto.png",0,0
Video,0,"Silhouette.mp4"
//Break Periods
//Storyboard Layer 0 (Background)
//Storyboard Layer 1 (Fail)
//Storyboard Layer 2 (Pass)
//Storyboard Layer 3 (Foreground)
//Storyboard Layer 4 (Overlay)
//Storyboard Sound Samples

[TimingPoints]
819,327.868852459016,4,2,1,60,1,0
819,-98.0392156862745,4,2,1,60,0,0
3113,-98.0392156862745,4,2,1,60,0,0
3441,-98.0392156862745,4,2,1,70,0,0
4260,-98.0392156862745,4,2,1,70,0,0
4425,-98.0392156862745,4,2,1,70,0,0
5572,-98.0392156862745,4,2,1,70,0,0
5737,-98.0392156862745,4,2,1,70,0,0
6884,-98.0392156862745,4,2,1,70,0,0
7048,-98.0392156862745,4,2,1,70,0,0
8522,-98.0392156862745,4,2,1,70,0,0
8687,-98.0392156862745,4,2,1,70,0,0
9834,-98.0392156862745,4,2,1,70,0,0
9999,-98.0392156862745,4,2,1,70,0,0
12130,-98.0392156862745,4,2,1,70,0,0
12294,-98.0392156862745,4,2,1,70,0,0
12457,-98.0392156862745,4,2,1,70,0,0
12622,-98.0392156862745,4,2,1,70,0,0
13933,-98.0392156862745,4,2,1,60,0,0
14424,-98.0392156862745,4,2,1,60,0,0
14589,-98.0392156862745,4,2,1,60,0,0
19670,-98.0392156862745,4,2,1,60,0,0
19835,-98.0392156862745,4,2,1,60,0,0
22949,-98.0392156862745,4,2,1,60,0,0
23114,-98.0392156862745,4,2,1,60,0,0
24425,-98.0392156862745,4,2,1,60,0,0
24588,-98.0392156862745,4,2,1,60,0,0
24752,-98.0392156862745,4,2,1,60,0,0
24917,-98.0392156862745,4,2,1,60,0,0
25081,-98.0392156862745,4,2,1,60,0,0
34917,-98.0392156862745,4,2,1,50,0,0
38687,-98.0392156862745,4,2,1,50,0,0
38851,-98.0392156862745,4,2,1,50,0,0
44260,-98.0392156862745,4,2,1,50,0,0
44425,-98.0392156862745,4,2,1,50,0,0
45409,-98.0392156862745,4,2,1,80,0,1
54424,-98.0392156862745,4,2,1,80,0,1
54589,-98.0392156862745,4,2,1,80,0,1
55900,-98.0392156862745,4,2,1,80,0,1
64916,-98.0392156862745,4,2,1,80,0,1
65081,-98.0392156862745,4,2,1,80,0,1
66392,-98.0392156862745,4,2,1,80,0,1
75408,-98.0392156862745,4,2,1,80,0,1
75573,-98.0392156862745,4,2,1,80,0,1
76884,-98.0392156862745,4,2,1,70,0,0
81146,-98.0392156862745,4,2,1,70,0,0
81474,-98.0392156862745,4,2,1,70,0,0
82130,-98.0392156862745,4,2,1,70,0,0
83277,-98.0392156862745,4,2,1,70,0,0
83441,-98.0392156862745,4,2,1,70,0,0
84753,-98.0392156862745,4,2,1,70,0,0
87212,-98.0392156862745,4,2,1,70,0,0

[Colours]
Combo1 : 128,128,192
Combo2 : 0,128,128
Combo3 : 0,128,255
Combo4 : 128,128,128
Combo5 : 255,255,128

[HitObjects]
14,138,491,5,8,0:3:0:0:
66,227,819,2,0,P|61:254|44:293,2,52.0200003175049,2|2|10,1:2|0:0|0:2,0:0:0:0:
99,187,1310,2,0,P|162:169|212:204,1,104.04000063501,2|2,0:0|0:0,0:0:0:0:
224,227,1802,1,10,0:2:0:0:
309,286,2130,2,0,L|298:352,2,52.0200003175049,10|10|8,0:2|0:2|0:2,0:0:0:0:
349,253,2622,1,10,0:2:0:0:
349,253,2786,2,0,P|363:201|390:142,1,104.04000063501,14|0,0:2|0:0,0:0:0:0:
370,51,3441,5,6,1:2:0:0:
266,65,3769,1,8,0:2:0:0:
266,65,3933,2,0,B|234:106|234:106|230:173,1,104.04000063501,2|0,0:0|0:0,0:0:0:0:
267,195,4425,1,10,0:2:0:0:
212,283,4753,2,0,P|147:324|112:310,1,104.04000063501,2|8,1:2|0:2,0:0:0:0:
75,309,5245,2,0,P|72:254|56:202,1,104.04000063501,2|0,0:0|0:0,0:0:0:0:
20,170,5737,1,10,0:2:0:0:
29,66,6064,6,0,B|61:53|81:73|84:77|117:103|153:86,1,104.04000063501,2|8,1:2|0:2,0:0:0:0:
172,68,6556,1,2,0:0:0:0:
261,14,6884,1,0,0:0:0:0:
261,14,7048,2,0,P|305:13|327:32,1,52.0200003175049,10|2,0:2|0:0,0:0:0:0:
352,47,7376,2,0,P|334:105|324:160,1,104.04000063501,2|8,1:2|0:2,0:0:0:0:
306,196,7868,1,2,0:0:0:0:
389,258,8196,1,2,0:0:0:0:
389,258,8359,2,0,P|426:291|447:299,1,52.0200003175049,10|0,0:2|0:0,0:0:0:0:
467,326,8687,6,0,P|406:335|339:364,1,104.04000063501,2|8,1:2|0:2,0:0:0:0:
320,374,9179,1,2,0:0:0:0:
216,360,9507,1,2,0:0:0:0:
216,360,9671,2,0,P|178:349|134:345,1,52.0200003175049,10|0,0:2|0:0,0:0:0:0:
114,359,9999,2,0,P|52:341|60:269,1,104.04000063501,2|8,1:2|0:2,0:0:0:0:
68,207,10655,1,0,1:2:0:0:
9,121,10982,1,8,0:2:0:0:
39,21,11310,6,0,B|91:7|91:7|172:47,1,104.04000063501,2|8,1:2|0:2,0:0:0:0:
173,66,11802,1,2,0:0:0:0:
259,124,12130,1,0,0:0:0:0:
259,124,12294,2,0,P|243:160|245:190,1,52.0200003175049,10|0,0:2|0:0,0:0:0:0:
210,214,12622,2,0,P|210:261|263:311,1,104.04000063501,2|8,1:2|0:2,0:0:0:0:
293,321,13114,1,2,0:0:0:0:
389,282,13441,1,8,0:2:0:0:
389,282,13605,2,0,L|465:287,1,52.0200003175049,10|8,0:2|0:2,0:0:0:0:
478,249,13933,6,0,P|494:168|392:83,1,208.08000127002,6|2,1:2|1:2,0:0:0:0:
321,33,14917,1,10,0:2:0:0:
229,82,15245,2,0,P|167:93|113:100,1,104.04000063501,0|8,1:2|0:2,0:0:0:0:
23,81,15900,2,0,P|21:60|6:20,2,52.0200003175049,0|0|10,1:2|1:2|0:2,0:0:0:0:
26,185,16556,6,0,P|22:247|139:335,1,208.08000127002,2|2,1:2|1:2,0:0:0:0:
226,358,17540,1,10,0:2:0:0:
284,272,17868,2,0,B|276:219|269:218|276:219|279:205|279:205|264:126,1,104.04000063501,0|10,1:2|0:2,0:0:0:0:
251,68,18523,1,2,1:2:0:0:
345,23,18851,1,10,0:2:0:0:
435,80,19179,6,0,P|432:132|425:194,1,104.04000063501,2|8,1:2|0:2,0:0:0:0:
415,287,19835,2,0,B|454:274|481:340|531:312,2,104.04000063501,2|10|2,1:2|0:2|1:2,0:0:0:0:
315,317,20818,1,8,0:2:0:0:
213,292,21146,6,0,B|174:279|147:345|97:317,2,104.04000063501,2|10|2,1:2|0:2|1:2,0:0:0:0:
266,202,22130,1,8,0:2:0:0:
212,112,22458,2,0,P|158:92|17:-2,1,208.08000127002,2|2,1:2|1:2,0:0:0:0:
9,112,23441,1,10,0:2:0:0:
88,179,23769,1,2,1:2:0:0:
44,273,24097,1,10,0:2:0:0:
80,370,24425,6,0,P|51:379|14:376,2,52.0200003175049,6|0|10,1:2|0:0|0:2,0:0:0:0:
130,357,24917,1,0,0:0:0:0:
130,357,25081,2,0,B|169:369|209:306|262:340,1,104.04000063501,2|10,1:2|0:2,0:0:0:0:
298,252,25737,1,2,1:2:0:0:
395,288,26064,1,10,0:2:0:0:
471,217,26392,2,0,P|480:157|507:108,1,104.04000063501,2|10,1:2|0:2,0:0:0:0:
510,14,27048,6,0,B|496:-3|462:0|462:0|371:21,1,104.04000063501,2|10,1:2|0:2,0:0:0:0:
378,52,27540,1,2,0:0:0:0:
378,52,27704,2,0,L|249:78,1,104.04000063501,2|10,1:2|0:2,0:0:0:0:
172,76,28359,1,2,1:2:0:0:
115,162,28687,1,10,0:2:0:0:
186,237,29015,2,0,P|176:299|147:343,1,104.04000063501,2|10,1:2|0:2,0:0:0:0:
50,328,29671,6,0,P|31:278|34:218,1,104.04000063501,2|8,1:2|0:2,0:0:0:0:
115,162,30327,2,0,B|179:152|179:152|218:149|224:115,2,104.04000063501,2|10|2,1:2|0:2|1:2,0:0:0:0:
40,89,31310,1,8,0:2:0:0:
119,21,31638,2,0,B|247:-4,1,104.04000063501,2|10,1:2|0:2,0:0:0:0:
301,67,32294,5,2,1:2:0:0:
396,26,32622,1,8,0:2:0:0:
481,85,32950,2,0,B|482:152|482:152|461:171|456:221,1,104.04000063501,2|8,1:2|0:2,0:0:0:0:
388,255,33605,2,0,P|396:330|431:372,2,104.04000063501,2|10|10,1:2|0:2|0:2,0:0:0:0:
314,181,34589,1,10,0:3:0:0:
222,231,34917,6,0,B|189:246|162:230|168:227|155:257|114:264,1,104.04000063501,4|2,1:2|1:2,0:0:0:0:
74,272,35409,2,0,B|30:241|49:186|61:190|47:187|84:153|46:117,1,156.060000952515,10|8,0:0|0:0,0:0:0:0:
11,33,36228,2,0,B|46:12|85:31|91:29|86:24|111:55,1,104.04000063501,4|2,1:2|1:2,0:0:0:0:
142,84,36720,2,0,B|158:127|153:120|153:128|213:149|291:127,1,156.060000952515,10|8,0:0|0:0,0:0:0:0:
351,67,37540,5,4,1:2:0:0:
429,135,37868,1,2,1:2:0:0:
429,135,38032,2,0,B|464:121|501:105|487:61,1,104.04000063501,10|2,0:0|1:2,0:0:0:0:
446,33,38523,1,8,0:0:0:0:
351,67,38851,2,0,B|305:93|304:137|309:138|303:138|289:178|252:188,1,156.060000952515,6|8,1:2|0:0,0:0:0:0:
215,217,39507,1,2,0:0:0:0:
275,301,39835,1,10,0:0:0:0:
197,370,40163,6,0,B|129:367|122:364|135:363|99:340|107:315,1,104.04000063501,6|8,1:2|0:0,0:0:0:0:
39,259,40818,2,0,P|58:213|75:148,1,104.04000063501,2|8,1:2|0:0,0:0:0:0:
156,98,41474,2,0,P|143:47|107:-15,2,104.04000063501,2|10|2,1:2|0:2|1:2,0:0:0:0:
251,141,42458,1,8,0:0:0:0:
345,96,42786,6,0,P|387:71|429:20,1,104.04000063501,6|8,1:2|0:0,0:0:0:0:
509,88,43441,2,0,P|513:132|496:199,1,104.04000063501,2|8,1:2|0:0,0:0:0:0:
395,192,44097,1,6,1:2:0:0:
339,279,44425,1,10,0:2:0:0:
409,355,44753,1,2,1:2:0:0:
200,346,45409,6,0,P|160:323|116:284,1,104.04000063501,6|10,1:2|0:2,0:0:0:0:
44,209,46064,1,2,1:2:0:0:
78,110,46392,1,10,0:2:0:0:
42,12,46720,2,0,P|98:7|152:-1,1,104.04000063501,2|10,1:2|0:2,0:0:0:0:
189,27,47212,1,2,0:0:0:0:
189,27,47376,2,0,B|204:141,1,104.04000063501,2|8,1:2|0:2,0:0:0:0:
186,233,48032,5,2,1:2:0:0:
286,257,48359,1,10,0:2:0:0:
355,179,48687,2,0,P|417:173|457:152,1,104.04000063501,2|10,1:2|0:2,0:0:0:0:
511,241,49343,2,0,P|489:291|437:322,1,104.04000063501,2|10,1:2|0:2,0:0:0:0:
402,338,49835,1,2,0:0:0:0:
402,338,49999,2,0,B|343:353|348:328|364:348|299:362,1,104.04000063501,2|10,1:2|0:2,0:0:0:0:
202,329,50655,5,6,1:2:0:0:
212,225,50982,1,8,0:2:0:0:
122,171,51310,2,0,B|42:177|84:138|70:191|-2:177,2,104.04000063501,2|10|2,1:2|0:2|1:2,0:0:0:0:
215,124,52294,1,8,0:2:0:0:
281,43,52622,2,0,B|302:36|325:55|319:66|325:55|345:124,1,104.04000063501,2|10,1:2|0:2,0:0:0:0:
442,140,53278,6,0,L|408:264,1,104.04000063501,2|8,1:2|0:2,0:0:0:0:
435,342,53933,2,0,B|384:332|320:322|327:321|313:313|287:333|280:359,1,156.060000952515,2|0,1:2|0:0,0:0:0:0:
236,354,54589,5,2,1:2:0:0:
146,301,54917,1,10,0:2:0:0:
166,199,55245,1,2,1:2:0:0:
64,176,55573,1,10,0:2:0:0:
87,74,55900,6,0,B|123:61|164:107|203:85,1,104.04000063501,6|10,1:2|0:2,0:0:0:0:
286,125,56556,2,0,P|315:88|314:24,1,104.04000063501,2|10,1:2|0:2,0:0:0:0:
417,4,57212,2,0,P|476:17|508:83,1,104.04000063501,2|10,1:2|0:2,0:0:0:0:
487,99,57704,1,2,0:0:0:0:
487,99,57868,2,0,L|470:206,1,104.04000063501,2|8,1:2|0:2,0:0:0:0:
498,301,58523,5,2,1:2:0:0:
406,351,58851,1,10,0:2:0:0:
310,308,59179,2,0,P|300:269|278:189,1,104.04000063501,2|10,1:2|0:2,0:0:0:0:
178,201,59835,2,0,P|107:179|75:139,1,104.04000063501,2|10,1:2|0:2,0:0:0:0:
37,142,60327,1,2,0:0:0:0:
37,142,60491,2,0,P|66:85|80:33,1,104.04000063501,2|10,1:2|0:2,0:0:0:0:
174,9,61146,6,0,B|215:6|230:26|218:23|278:24,1,104.04000063501,6|8,1:2|0:2,0:0:0:0:
363,80,61802,2,0,B|404:77|419:97|407:94|467:95,2,104.04000063501,2|10|2,1:2|0:2|1:2,0:0:0:0:
271,129,62786,1,8,0:2:0:0:
167,120,63114,2,0,B|148:122|135:136|136:126|129:218,1,104.04000063501,2|10,1:2|0:2,0:0:0:0:
27,226,63769,6,0,B|66:323,1,104.04000063501,2|8,1:2|0:2,0:0:0:0:
157,371,64425,2,0,B|196:385|228:347|220:336|228:347|271:297|318:331,1,156.060000952515,2|0,1:2|0:0,0:0:0:0:
341,349,65081,5,2,1:2:0:0:
419,280,65409,1,10,0:2:0:0:
366,189,65737,1,2,1:2:0:0:
466,161,66064,1,8,0:2:0:0:
426,64,66392,6,0,B|401:57|351:101|312:95,1,104.04000063501,6|10,1:2|0:2,0:0:0:0:
240,152,67048,2,0,P|200:136|182:70,1,104.04000063501,2|10,1:2|0:2,0:0:0:0:
87,32,67704,2,0,P|47:70|41:129,1,104.04000063501,2|10,1:2|0:2,0:0:0:0:
15,163,68196,1,2,0:0:0:0:
15,163,68359,2,0,P|34:222|41:287,1,104.04000063501,2|8,1:2|0:2,0:0:0:0:
94,352,69015,5,2,1:2:0:0:
190,312,69343,1,10,0:2:0:0:
292,328,69671,2,0,B|330:352|333:363|343:356|396:349,1,104.04000063501,2|10,1:2|0:2,0:0:0:0:
407,247,70327,2,0,B|369:223|366:212|356:219|303:226,2,104.04000063501,2|10|2,1:2|0:2|1:2,0:0:0:0:
490,184,71310,1,10,0:2:0:0:
446,89,71638,6,0,B|327:106,1,104.04000063501,6|8,1:2|0:2,0:0:0:0:
237,91,72294,1,2,1:2:0:0:
150,33,72622,1,10,0:2:0:0:
56,79,72950,2,0,P|38:133|76:182,1,104.04000063501,2|8,1:2|0:2,0:0:0:0:
145,229,73605,1,2,1:2:0:0:
237,185,73933,1,10,0:2:0:0:
340,194,74261,6,0,P|381:224|411:294,1,104.04000063501,6|8,1:2|0:2,0:0:0:0:
455,362,74917,2,0,P|370:363|287:383,1,156.060000952515,2|0,1:2|0:0,0:0:0:0:
249,367,75573,5,2,1:2:0:0:
198,276,75900,1,6,1:2:0:0:
262,194,76228,1,10,0:0:0:0:
168,151,76556,1,10,0:3:0:0:
207,54,76884,6,0,L|76:36,1,104.04000063501,4|2,1:2|0:0,0:0:0:0:
55,60,77376,2,0,B|57:94|25:121|16:101|96:132|65:219,1,156.060000952515,10|10,0:0|0:0,0:0:0:0:
44,305,78196,1,6,1:2:0:0:
133,357,78523,1,2,0:0:0:0:
133,357,78687,2,0,B|234:339|235:341|227:343|231:299|287:292,1,156.060000952515,10|10,0:0|0:0,0:0:0:0:
355,238,79507,6,0,P|440:313|440:335,1,104.04000063501,4|2,1:2|0:0,0:0:0:0:
473,329,79999,2,0,P|509:235|496:166,1,156.060000952515,10|10,0:0|0:0,0:0:0:0:
457,87,80818,1,6,1:2:0:0:
353,76,81146,1,0,0:0:0:0:
266,17,81474,2,0,P|242:85|259:134,1,104.04000063501,2|10,0:0|0:0,0:0:0:0:
290,209,82130,6,0,B|268:244|268:239|271:243|238:216|188:232,1,104.04000063501,6|8,1:2|0:0,0:0:0:0:
99,216,82786,2,0,P|51:237|39:334,1,156.060000952515,2|0,1:2|0:0,0:0:0:0:
83,354,83441,5,2,1:2:0:0:
186,341,83769,1,10,0:2:0:0:
289,353,84097,1,14,0:2:0:0:
388,382,84425,1,10,0:2:0:0:
474,323,84753,6,0,B|499:256|474:235|456:250|500:257|491:164,1,156.060000952515,2|10,1:2|0:2,0:0:0:0:
472,123,85409,2,0,P|412:138|337:78,1,156.060000952515,0|10,1:2|0:2,0:0:0:0:
254,26,86228,2,0,P|249:51|236:85,1,52.0200003175049,10|8,0:2|0:0,0:0:0:0:
200,110,86556,1,10,0:2:0:0:
120,177,86885,2,0,P|113:151|101:128,1,52.0200003175049,10|10,0:2|0:2,0:0:0:0:
60,97,87212,1,14,0:2:0:0:
