osu file format v14

[General]
AudioFilename: audio.mp3
AudioLeadIn: 0
PreviewTime: 44757
Countdown: 0
SampleSet: Soft
StackLeniency: 0.5
Mode: 0
LetterboxInBreaks: 0
EpilepsyWarning: 1
WidescreenStoryboard: 1

[Editor]
Bookmarks: 823,3445,13937,24429,34921,45413,55904,66396,76888,87380,88527
DistanceSpacing: 2.6
BeatDivisor: 4
GridSize: 16
TimelineZoom: 2.2

[Metadata]
Title:Silhouette (TV Size)
TitleUnicode:シルエット (TV Size)
Artist:KANA-BOON
ArtistUnicode:KANA-BOON
Creator:SirMirai
Version:FlameL's Hard
Source:NARUTO-ナルト-疾風伝
Tags:j-rock jrock rock opening op 16 Anime Japanese shippuden hakashii _FlameL vp2_woon Odaril Shiro Stixy
BeatmapID:2265632
BeatmapSetID:1073101

[Difficulty]
HPDrainRate:5
CircleSize:3.8
OverallDifficulty:6.5
ApproachRate:7.5
SliderMultiplier:2
SliderTickRate:1

[Events]
//Background and Video events
0,0,"Naruto.png",0,0
Video,0,"Silhouette.mp4"
//Break Periods
//Storyboard Layer 0 (Background)
//Storyboard Layer 1 (Fail)
//Storyboard Layer 2 (Pass)
//Storyboard Layer 3 (Foreground)
//Storyboard Layer 4 (Overlay)
//Storyboard Sound Samples

[TimingPoints]
819,327.868852459016,4,2,1,60,1,0
819,-153.846153846154,4,2,1,60,0,0
3441,-153.846153846154,4,2,1,70,0,0
4260,-153.846153846154,4,2,1,70,0,0
4425,-153.846153846154,4,2,1,70,0,0
4588,-153.846153846154,4,2,1,70,0,0
4753,-153.846153846154,4,2,1,70,0,0
5572,-153.846153846154,4,2,1,70,0,0
5737,-153.846153846154,4,2,1,70,0,0
6883,-153.846153846154,4,2,1,70,0,0
7048,-153.846153846154,4,2,1,70,0,0
8522,-153.846153846154,4,2,1,70,0,0
8687,-153.846153846154,4,2,1,70,0,0
9834,-153.846153846154,4,2,1,70,0,0
9999,-153.846153846154,4,2,1,70,0,0
10491,-153.846153846154,4,2,1,70,0,0
10655,-153.846153846154,4,2,1,70,0,0
11146,-153.846153846154,4,2,1,70,0,0
11310,-153.846153846154,4,2,1,70,0,0
12129,-153.846153846154,4,2,1,70,0,0
12294,-153.846153846154,4,2,1,70,0,0
12457,-153.846153846154,4,2,1,70,0,0
12622,-153.846153846154,4,2,1,70,0,0
13933,-153.846153846154,4,2,1,60,0,0
14178,-153.846153846154,4,2,1,60,0,0
14261,-153.846153846154,4,2,1,60,0,0
14506,-153.846153846154,4,2,1,60,0,0
14589,-153.846153846154,4,2,1,60,0,0
15080,-153.846153846154,4,2,1,60,0,0
15245,-153.846153846154,4,2,1,60,0,0
16473,-153.846153846154,4,2,1,60,0,0
16556,-153.846153846154,4,2,1,60,0,0
18031,-153.846153846154,4,2,1,60,0,0
18196,-153.846153846154,4,2,1,60,0,0
18359,-153.846153846154,4,2,1,60,0,0
18523,-153.846153846154,4,2,1,60,0,0
19096,-153.846153846154,4,2,1,60,0,0
19179,-153.846153846154,4,2,1,60,0,0
20326,-153.846153846154,4,2,1,60,0,0
20491,-153.846153846154,4,2,1,60,0,0
21637,-153.846153846154,4,2,1,60,0,0
21802,-153.846153846154,4,2,1,60,0,0
22949,-153.846153846154,4,2,1,60,0,0
23114,-153.846153846154,4,2,1,60,0,0
23277,-153.846153846154,4,2,1,60,0,0
23441,-153.846153846154,4,2,1,60,0,0
23604,-153.846153846154,4,2,1,60,0,0
23769,-153.846153846154,4,2,1,60,0,0
24342,-153.846153846154,4,2,1,60,0,0
24425,-153.846153846154,4,2,1,60,0,0
24670,-153.846153846154,4,2,1,60,0,0
24753,-153.846153846154,4,2,1,60,0,0
24916,-153.846153846154,4,2,1,60,0,0
25081,-153.846153846154,4,2,1,60,0,0
25573,-153.846153846154,4,2,1,60,0,0
25737,-153.846153846154,4,2,1,60,0,0
25900,-153.846153846154,4,2,1,60,0,0
26064,-153.846153846154,4,2,1,60,0,0
26227,-153.846153846154,4,2,1,60,0,0
26392,-153.846153846154,4,2,1,60,0,0
27211,-153.846153846154,4,2,1,60,0,0
27376,-153.846153846154,4,2,1,60,0,0
28522,-153.846153846154,4,2,1,60,0,0
28687,-153.846153846154,4,2,1,60,0,0
28850,-153.846153846154,4,2,1,60,0,0
29015,-153.846153846154,4,2,1,60,0,0
29506,-153.846153846154,4,2,1,60,0,0
29671,-153.846153846154,4,2,1,60,0,0
30818,-153.846153846154,4,2,1,60,0,0
30982,-153.846153846154,4,2,1,60,0,0
32129,-153.846153846154,4,2,1,60,0,0
32294,-153.846153846154,4,2,1,60,0,0
33441,-153.846153846154,4,2,1,60,0,0
33605,-153.846153846154,4,2,1,60,0,0
34096,-153.846153846154,4,2,1,60,0,0
34261,-153.846153846154,4,2,1,60,0,0
34917,-153.846153846154,4,2,1,50,0,0
36063,-153.846153846154,4,2,1,50,0,0
36228,-153.846153846154,4,2,1,50,0,0
37375,-153.846153846154,4,2,1,50,0,0
37540,-153.846153846154,4,2,1,50,0,0
38686,-153.846153846154,4,2,1,50,0,0
38851,-153.846153846154,4,2,1,50,0,0
39998,-153.846153846154,4,2,1,50,0,0
40163,-153.846153846154,4,2,1,50,0,0
40654,-153.846153846154,4,2,1,50,0,0
40818,-153.846153846154,4,2,1,50,0,0
41309,-153.846153846154,4,2,1,50,0,0
41474,-153.846153846154,4,2,1,50,0,0
41637,-153.846153846154,4,2,1,50,0,0
41802,-153.846153846154,4,2,1,50,0,0
41965,-153.846153846154,4,2,1,50,0,0
42130,-153.846153846154,4,2,1,50,0,0
43277,-153.846153846154,4,2,1,50,0,0
43441,-153.846153846154,4,2,1,50,0,0
43932,-153.846153846154,4,2,1,50,0,0
44097,-153.846153846154,4,2,1,50,0,0
44260,-153.846153846154,4,2,1,50,0,0
44425,-153.846153846154,4,2,1,50,0,0
44753,-153.846153846154,4,2,1,50,0,0
45409,-125,4,2,1,80,0,1
45572,-125,4,2,1,80,0,1
45737,-125,4,2,1,80,0,1
45900,-125,4,2,1,80,0,1
46064,-125,4,2,1,80,0,1
46555,-125,4,2,1,80,0,1
46720,-125,4,2,1,80,0,1
48195,-125,4,2,1,80,0,1
48359,-125,4,2,1,80,0,1
48522,-125,4,2,1,80,0,1
48687,-125,4,2,1,80,0,1
49178,-125,4,2,1,80,0,1
49343,-125,4,2,1,80,0,1
50490,-125,4,2,1,80,0,1
50655,-125,4,2,1,80,0,1
51801,-125,4,2,1,80,0,1
51966,-125,4,2,1,80,0,1
53113,-125,4,2,1,80,0,1
53278,-125,4,2,1,80,0,1
54424,-125,4,2,1,80,0,1
54589,-125,4,2,1,80,0,1
54834,-125,4,2,1,80,0,1
54917,-125,4,2,1,80,0,1
55162,-125,4,2,1,80,0,1
55245,-125,4,2,1,80,0,1
55736,-125,4,2,1,80,0,1
55900,-125,4,2,1,80,0,1
56063,-125,4,2,1,80,0,1
56228,-125,4,2,1,80,0,1
56391,-125,4,2,1,80,0,1
56556,-125,4,2,1,80,0,1
56719,-125,4,2,1,80,0,1
56884,-125,4,2,1,80,0,1
57047,-125,4,2,1,80,0,1
57212,-125,4,2,1,80,0,1
58686,-125,4,2,1,80,0,1
58851,-125,4,2,1,80,0,1
59014,-125,4,2,1,80,0,1
59179,-125,4,2,1,80,0,1
59342,-125,4,2,1,80,0,1
59507,-125,4,2,1,80,0,1
59670,-125,4,2,1,80,0,1
59835,-125,4,2,1,80,0,1
60654,-125,4,2,1,80,0,1
60818,-125,4,2,1,80,0,1
60981,-125,4,2,1,80,0,1
61146,-125,4,2,1,80,0,1
61966,-125,4,2,1,80,0,1
62130,-125,4,2,1,80,0,1
62293,-125,4,2,1,80,0,1
62458,-125,4,2,1,80,0,1
63277,-125,4,2,1,80,0,1
63441,-125,4,2,1,80,0,1
63604,-125,4,2,1,80,0,1
63769,-125,4,2,1,80,0,1
64916,-125,4,2,1,80,0,1
65081,-125,4,2,1,80,0,1
66392,-125,4,2,1,80,0,1
66555,-125,4,2,1,80,0,1
66720,-125,4,2,1,80,0,1
66883,-125,4,2,1,80,0,1
67048,-125,4,2,1,80,0,1
67211,-125,4,2,1,80,0,1
67376,-125,4,2,1,80,0,1
67539,-125,4,2,1,80,0,1
67704,-125,4,2,1,80,0,1
69178,-125,4,2,1,80,0,1
69343,-125,4,2,1,80,0,1
69506,-125,4,2,1,80,0,1
69671,-125,4,2,1,80,0,1
69834,-125,4,2,1,80,0,1
69999,-125,4,2,1,80,0,1
70162,-125,4,2,1,80,0,1
70327,-125,4,2,1,80,0,1
70490,-125,4,2,1,80,0,1
70655,-125,4,2,1,80,0,1
70818,-125,4,2,1,80,0,1
70982,-125,4,2,1,80,0,1
71145,-125,4,2,1,80,0,1
71310,-125,4,2,1,80,0,1
71473,-125,4,2,1,80,0,1
71638,-125,4,2,1,80,0,1
72457,-125,4,2,1,80,0,1
72622,-125,4,2,1,80,0,1
72785,-125,4,2,1,80,0,1
72950,-125,4,2,1,80,0,1
73768,-125,4,2,1,80,0,1
73933,-125,4,2,1,80,0,1
74096,-125,4,2,1,80,0,1
74261,-125,4,2,1,80,0,1
75408,-125,4,2,1,80,0,1
75573,-125,4,2,1,80,0,1
76063,-125,4,2,1,80,0,1
76228,-125,4,2,1,80,0,1
76309,-125,4,2,1,80,0,1
76391,-125,4,2,1,80,0,1
76884,-125,4,2,1,70,0,0
76888,-125,4,2,1,70,0,0
78031,-125,4,2,1,70,0,0
78196,-125,4,2,1,70,0,0
79342,-125,4,2,1,70,0,0
79507,-125,4,2,1,70,0,0
80654,-125,4,2,1,70,0,0
80818,-125,4,2,1,70,0,0
81145,-125,4,2,1,70,0,0
81310,-125,4,2,1,70,0,0
81965,-125,4,2,1,70,0,0
82130,-125,4,2,1,70,0,0
82622,-125,4,2,1,70,0,0
82786,-125,4,2,1,70,0,0
83277,-125,4,2,1,70,0,0
83441,-125,4,2,1,70,0,0
83605,-125,4,2,1,70,0,0
83769,-125,4,2,1,70,0,0
83932,-125,4,2,1,70,0,0
84097,-125,4,2,1,70,0,0
84260,-125,4,2,1,70,0,0
84425,-125,4,2,1,70,0,0
84753,-125,4,2,1,70,0,0
87212,-125,4,2,1,70,0,0

[Colours]
Combo1 : 128,128,192
Combo2 : 0,128,128
Combo3 : 0,128,255
Combo4 : 128,128,128
Combo5 : 255,255,128

[HitObjects]
395,110,491,5,8,0:3:0:0:
488,10,819,6,0,L|482:74,1,64.9999970245363,2|2,1:2|0:0,0:0:0:0:
413,123,1146,1,10,0:2:0:0:
489,160,1310,2,0,B|478:210|510:237|500:287,1,129.999994049073,2|2,0:0|0:0,0:0:0:0:
444,352,1802,2,0,L|379:346,1,64.9999970245363,10|2,0:2|0:0,0:0:0:0:
319,286,2130,6,0,L|321:253,2,32.4999985122681,10|8|10,0:2|0:2|0:2,0:0:0:0:
265,352,2458,1,8,0:2:0:0:
265,352,2540,1,8,0:2:0:0:
265,352,2622,1,10,0:2:0:0:
195,304,2786,1,14,0:2:0:0:
172,289,3441,6,0,P|150:346|88:352,1,129.999994049073,6|8,1:2|0:2,0:0:0:0:
24,298,3933,2,0,L|35:168,1,129.999994049073,2|0,0:0|0:0,0:0:0:0:
80,96,4425,2,0,P|111:87|143:90,1,64.9999970245363,10|0,0:2|0:0,0:0:0:0:
119,172,4753,6,0,B|169:183|196:151|247:162,1,129.999994049073,2|8,1:2|0:2,0:0:0:0:
323,201,5245,2,0,P|383:190|401:130,1,129.999994049073,2|0,0:0|0:0,0:0:0:0:
369,52,5737,1,10,0:2:0:0:
210,107,6064,6,0,L|80:96,1,129.999994049073,2|8,1:2|0:2,0:0:0:0:
88,11,6556,2,0,L|218:22,1,129.999994049073,2|0,0:0|0:0,0:0:0:0:
290,67,7048,1,10,0:2:0:0:
368,35,7212,1,2,0:0:0:0:
446,2,7376,6,0,B|465:50|438:82|458:129,1,129.999994049073,2|8,1:2|0:2,0:0:0:0:
511,195,7868,2,0,P|479:244|433:209,1,129.999994049073,2|2,0:0|0:0,0:0:0:0:
349,217,8359,2,0,P|347:248|353:280,1,64.9999970245363,10|0,0:2|0:0,0:0:0:0:
414,341,8687,6,0,L|284:330,1,129.999994049073,2|8,1:2|0:2,0:0:0:0:
218,383,9179,2,0,P|169:351|204:305,1,129.999994049073,2|2,0:0|0:0,0:0:0:0:
192,221,9671,2,0,P|161:219|129:225,1,64.9999970245363,10|0,0:2|0:0,0:0:0:0:
77,353,9999,2,0,P|26:310|61:264,1,129.999994049073,2|8,1:2|0:2,0:0:0:0:
55,181,10491,1,0,0:0:0:0:
18,105,10655,6,0,B|63:81|99:115|145:93,1,129.999994049073,0|8,1:2|0:2,0:0:0:0:
170,12,11146,1,0,0:0:0:0:
251,34,11310,6,0,L|239:163,1,129.999994049073,2|8,1:2|0:2,0:0:0:0:
282,237,11802,2,0,P|352:242|376:185,1,129.999994049073,2|0,0:0|0:0,0:0:0:0:
369,111,12294,2,0,L|363:46,1,64.9999970245363,10|0,0:2|0:0,0:0:0:0:
448,38,12622,6,0,B|467:86|440:118|460:165,1,129.999994049073,2|8,1:2|0:2,0:0:0:0:
511,234,13114,1,2,0:0:0:0:
435,270,13278,2,0,L|402:267,4,32.4999985122681,8|8|8|8|10,0:2|0:2|0:2|0:2|0:2,0:0:0:0:
487,337,13769,1,8,0:2:0:0:
490,353,13851,1,8,0:2:0:0:
493,369,13933,6,0,P|448:351|400:356,1,97.4999955368044,6|0,1:2|0:0,0:0:0:0:
362,375,14261,2,0,P|346:328|312:295,1,97.4999955368044,10|0,0:2|0:0,0:0:0:0:
270,298,14589,2,0,L|205:303,1,64.9999970245363,2|0,1:2|1:2,0:0:0:0:
198,218,14917,2,0,L|264:213,1,64.9999970245363,10|0,0:2|0:0,0:0:0:0:
340,249,15245,5,0,1:2:0:0:
180,304,15573,1,8,0:2:0:0:
99,156,15900,1,0,1:2:0:0:
178,186,16064,1,0,1:2:0:0:
238,126,16228,2,0,B|275:115|297:137|334:126,1,97.4999955368044,10|0,0:2|0:0,0:0:0:0:
359,91,16556,6,0,P|390:97|422:92,1,64.9999970245363,2|2,1:2|0:0,0:0:0:0:
392,13,16884,2,0,L|327:18,1,64.9999970245363,10|2,0:2|0:0,0:0:0:0:
242,24,17212,2,0,L|177:29,1,64.9999970245363,2|0,1:2|1:2,0:0:0:0:
139,105,17540,5,10,0:2:0:0:
288,96,17868,2,0,P|287:132|275:165,1,64.9999970245363,0|0,1:2|0:0,0:0:0:0:
234,232,18196,2,0,P|220:261|216:293,1,64.9999970245363,10|0,0:2|0:0,0:0:0:0:
239,375,18523,2,0,L|304:370,1,64.9999970245363,2|0,1:2|1:2,0:0:0:0:
313,285,18851,2,0,L|215:293,1,97.4999955368044,10|0,0:2|0:0,0:0:0:0:
185,323,19179,6,0,B|135:337|106:308|56:323,1,129.999994049073,2|8,1:2|0:2,0:0:0:0:
153,236,19835,2,0,L|147:171,1,64.9999970245363,2|0,1:2|1:2,0:0:0:0:
62,177,20163,2,0,L|67:241,1,64.9999970245363,10|0,0:2|0:0,0:0:0:0:
139,88,20491,6,0,P|87:50|25:63,1,129.999994049073,2|8,1:2|0:2,0:0:0:0:
170,0,21146,2,0,P|210:7|241:21,1,64.9999970245363,2|0,1:2|1:2,0:0:0:0:
267,94,21474,2,0,P|258:125|243:154,1,64.9999970245363,10|0,0:2|0:0,0:0:0:0:
315,25,21802,6,0,B|364:10|393:39|443:24,1,129.999994049073,2|8,1:2|0:2,0:0:0:0:
351,166,22458,1,2,1:2:0:0:
428,131,22622,1,0,1:2:0:0:
496,181,22786,2,0,L|490:245,1,64.9999970245363,8|0,0:2|0:0,0:0:0:0:
443,317,23114,6,0,P|411:323|379:316,1,64.9999970245363,2|0,1:2|0:0,0:0:0:0:
310,268,23441,2,0,P|278:261|246:267,1,64.9999970245363,10|0,0:2|0:0,0:0:0:0:
278,346,23769,1,2,1:2:0:0:
194,358,23933,1,0,1:2:0:0:
110,369,24097,2,0,P|63:357|30:322,1,97.4999955368044,10|0,0:2|0:0,0:0:0:0:
25,280,24425,6,0,L|123:271,1,97.4999955368044,6|0,1:2|0:0,0:0:0:0:
156,265,24753,2,0,L|149:191,1,64.9999970245363,10|0,0:2|0:0,0:0:0:0:
143,115,25081,1,2,1:2:0:0:
219,152,25245,1,2,1:2:0:0:
296,187,25409,2,0,L|301:122,1,64.9999970245363,10|0,0:2|0:0,0:0:0:0:
275,41,25737,6,0,P|307:36|338:45,1,64.9999970245363,2|0,1:2|0:0,0:0:0:0:
418,18,26064,2,0,P|422:50|414:81,1,64.9999970245363,10|0,0:2|0:0,0:0:0:0:
377,158,26392,2,0,P|409:153|440:162,1,64.9999970245363,2|0,1:2|1:2,0:0:0:0:
491,230,26720,2,0,P|492:262|480:292,1,64.9999970245363,10|2,0:2|0:0,0:0:0:0:
406,334,27048,6,0,L|341:339,1,64.9999970245363,2|0,1:2|0:0,0:0:0:0:
256,346,27376,1,10,0:2:0:0:
172,352,27540,1,2,0:0:0:0:
209,276,27704,2,0,L|203:211,1,64.9999970245363,2|0,1:2|1:2,0:0:0:0:
147,147,28032,2,0,L|82:152,1,64.9999970245363,10|2,0:2|0:0,0:0:0:0:
13,200,28359,6,0,P|20:231|38:258,1,64.9999970245363,2|0,1:2|0:0,0:0:0:0:
73,336,28687,2,0,P|104:328|131:310,1,64.9999970245363,10|0,0:2|0:0,0:0:0:0:
209,276,29015,2,0,P|201:244|183:217,1,64.9999970245363,2|0,1:2|1:2,0:0:0:0:
149,140,29343,2,0,P|117:147|90:165,1,64.9999970245363,10|0,0:2|0:0,0:0:0:0:
13,200,29671,6,0,L|24:329,1,129.999994049073,2|8,1:2|0:2,0:0:0:0:
90,164,30327,2,0,P|117:146|149:140,1,64.9999970245363,2|0,1:2|1:2,0:0:0:0:
215,194,30655,2,0,L|210:258,1,64.9999970245363,10|0,0:2|0:0,0:0:0:0:
149,140,30982,6,0,B|164:91|135:62|150:12,1,129.999994049073,2|8,1:2|0:2,0:0:0:0:
280,121,31638,2,0,P|253:101|237:73,1,64.9999970245363,2|0,1:2|1:2,0:0:0:0:
279,0,31966,2,0,L|343:5,1,64.9999970245363,10|0,0:2|0:0,0:0:0:0:
476,70,32294,6,0,P|418:68|429:12,1,129.999994049073,2|8,1:2|0:2,0:0:0:0:
512,160,32950,2,0,B|449:205|392:148|325:195,1,194.999991073609,2|0,1:2|0:0,0:0:0:0:
281,267,33605,6,0,P|280:299|291:329,1,64.9999970245363,2|0,1:2|1:2,0:0:0:0:
362,377,33933,2,0,P|394:378|424:367,1,64.9999970245363,10|0,0:2|0:0,0:0:0:0:
470,295,34261,2,0,P|471:263|460:233,1,64.9999970245363,10|8,0:2|0:2,0:0:0:0:
375,224,34589,1,10,0:3:0:0:
366,140,34753,1,8,0:3:0:0:
358,56,34917,6,0,P|414:36|433:91,1,129.999994049073,4|2,1:2|1:2,0:0:0:0:
290,105,35409,2,0,L|160:116,1,129.999994049073,10|2,0:0|1:2,0:0:0:0:
167,200,35900,2,0,P|196:212|228:220,1,64.9999970245363,8|0,0:0|0:0,0:0:0:0:
316,313,36228,6,0,P|357:271|312:231,1,129.999994049073,4|2,1:2|1:2,0:0:0:0:
242,359,36720,2,0,B|193:344|164:373|114:358,1,129.999994049073,10|2,0:0|1:2,0:0:0:0:
44,309,37212,2,0,L|39:245,1,64.9999970245363,8|0,0:0|0:0,0:0:0:0:
175,172,37540,6,0,P|180:230|122:236,1,129.999994049073,4|2,1:2|1:2,0:0:0:0:
30,161,38032,2,0,B|24:89|24:89|22:58|42:36,1,129.999994049073,10|2,0:0|1:2,0:0:0:0:
119,1,38523,2,0,L|183:6,1,64.9999970245363,8|0,0:0|0:0,0:0:0:0:
261,95,38851,6,0,L|391:84,1,129.999994049073,6|0,1:2|1:0,0:0:0:0:
459,32,39343,1,8,0:0:0:0:
512,98,39507,2,0,P|509:130|500:161,1,64.9999970245363,2|0,0:0|1:0,0:0:0:0:
420,191,39835,2,0,P|411:222|408:254,1,64.9999970245363,10|0,0:0|0:0,0:0:0:0:
464,347,40163,6,0,P|388:290|300:320,1,194.999991073609,6|0,1:2|0:0,0:0:0:0:
246,384,40818,1,2,1:2:0:0:
169,349,40982,1,0,1:0:0:0:
93,312,41146,2,0,P|62:322|34:338,1,64.9999970245363,8|0,0:0|0:0,0:0:0:0:
162,266,41474,6,0,L|157:202,1,64.9999970245363,2|0,1:2|0:0,0:0:0:0:
225,150,41802,2,0,L|282:177,1,64.9999970245363,10|0,0:2|0:0,0:0:0:0:
369,172,42130,1,2,1:2:0:0:
416,242,42294,1,0,1:0:0:0:
332,248,42458,1,8,0:0:0:0:
402,94,42786,6,0,P|393:12|324:57,1,194.999991073609,6|0,1:2|0:0,0:0:0:0:
246,87,43441,1,2,1:2:0:0:
177,38,43605,1,0,1:0:0:0:
101,76,43769,2,0,L|36:81,1,64.9999970245363,8|0,0:0|0:0,0:0:0:0:
44,166,44097,6,0,L|108:160,1,64.9999970245363,6|0,1:2|0:0,0:0:0:0:
188,213,44425,1,10,0:2:0:0:
188,213,44507,1,8,0:0:0:0:
188,213,44589,1,8,0:0:0:0:
149,288,44753,5,2,1:2:0:0:
377,342,45081,1,2,0:0:0:0:
387,364,45409,6,0,L|306:357,1,80,6|0,1:2|0:0,0:0:0:0:
301,265,45737,2,0,L|377:245,1,80,10|0,0:2|0:0,0:0:0:0:
238,197,46064,2,0,P|245:157|267:118,1,80,2|0,1:2|1:2,0:0:0:0:
356,115,46392,2,0,P|374:79|381:40,1,80,10|0,0:2|0:0,0:0:0:0:
209,63,46720,6,0,P|279:71|280:1,1,160,2|10,1:2|0:2,0:0:0:0:
198,43,47212,1,2,0:0:0:0:
116,85,47376,2,0,P|77:94|38:86,1,80,2|0,1:2|1:2,0:0:0:0:
75,1,47704,1,8,0:2:0:0:
205,173,48032,6,0,L|212:253,1,80,2|0,1:2|0:0,0:0:0:0:
123,277,48359,2,0,L|90:205,1,80,10|0,0:2|0:0,0:0:0:0:
161,358,48687,2,0,P|200:350|236:334,1,80,2|0,1:2|1:2,0:0:0:0:
313,281,49015,2,0,P|349:264|388:258,1,80,10|0,0:2|0:0,0:0:0:0:
358,345,49343,6,0,B|302:305|321:253|267:216,1,160,2|10,1:2|0:2,0:0:0:0:
211,143,49835,1,2,0:0:0:0:
260,65,49999,2,0,L|339:58,1,80,2|0,1:2|1:2,0:0:0:0:
412,0,50327,2,0,P|451:0|489:20,1,80,10|0,0:2|0:0,0:0:0:0:
506,109,50655,6,0,P|453:152|429:88,1,160,6|8,1:2|0:2,0:0:0:0:
503,256,51310,1,2,1:2:0:0:
413,236,51474,1,0,1:2:0:0:
333,281,51638,2,0,P|294:281|256:261,1,80,10|0,0:2|0:0,0:0:0:0:
122,323,51966,6,0,P|200:316|258:263,1,160,2|8,1:2|0:2,0:0:0:0:
45,149,52622,2,0,L|38:228,1,80,2|0,1:2|1:2,0:0:0:0:
130,236,52950,2,0,L|136:156,1,80,10|0,0:2|0:0,0:0:0:0:
9,64,53278,6,0,B|70:40|101:86|166:63,1,160,2|8,1:2|0:2,0:0:0:0:
340,1,53933,1,2,1:2:0:0:
320,91,54097,1,0,1:2:0:0:
299,181,54261,2,0,L|219:187,1,80,10|0,0:2|0:0,0:0:0:0:
226,280,54589,6,0,B|280:271|289:307|342:299,1,120,2|0,1:2|0:0,0:0:0:0:
366,293,54917,2,0,B|403:253|379:226|417:186,1,120,10|0,0:2|0:0,0:0:0:0:
441,189,55245,1,2,1:2:0:0:
464,278,55409,1,0,1:2:0:0:
488,366,55573,2,0,L|408:359,1,80,10|0,0:2|1:0,0:0:0:0:
299,382,55900,6,0,L|218:375,1,80,6|0,1:2|0:0,0:0:0:0:
212,283,56228,2,0,L|311:256,1,80,10|0,0:2|0:0,0:0:0:0:
146,221,56556,2,0,P|145:180|155:142,1,80,2|0,1:2|0:0,0:0:0:0:
239,103,56884,2,0,P|276:114|309:136,1,80,10|0,0:2|0:0,0:0:0:0:
164,52,57212,6,0,P|140:-14|77:17,1,160,2|10,1:2|0:2,0:0:0:0:
0,71,57704,1,2,0:0:0:0:
29,158,57868,2,0,B|90:182|121:136|186:159,1,160,2|8,1:2|0:2,0:0:0:0:
115,320,58523,6,0,L|148:247,1,80,2|0,1:2|0:0,0:0:0:0:
237,272,58851,2,0,L|228:351,1,80,10|0,0:2|0:0,0:0:0:0:
323,242,59179,2,0,P|326:201|320:162,1,80,2|0,1:2|0:0,0:0:0:0:
260,92,59507,2,0,P|222:79|182:79,1,80,10|0,0:2|0:0,0:0:0:0:
224,162,59835,6,0,B|273:115|247:67|296:23,1,160,2|10,1:2|0:2,0:0:0:0:
388,7,60327,1,2,0:0:0:0:
469,49,60491,2,0,L|476:128,1,80,2|0,1:2|0:0,0:0:0:0:
408,192,60818,2,0,P|388:226|387:266,1,80,10|0,0:2|0:0,0:0:0:0:
457,328,61146,6,0,P|521:305|478:251,1,160,6|8,1:2|0:2,0:0:0:0:
339,373,61802,1,2,1:2:0:0:
254,337,61966,1,0,0:0:0:0:
290,252,62130,2,0,P|290:213|270:175,1,80,10|0,0:2|0:0,0:0:0:0:
137,231,62458,6,0,P|217:230|273:174,1,160,2|8,1:2|0:2,0:0:0:0:
81,145,63114,2,0,L|75:65,1,80,2|0,1:2|0:0,0:0:0:0:
167,59,63441,2,0,L|174:138,1,80,10|0,0:2|0:0,0:0:0:0:
14,204,63769,6,0,B|-9:269|37:300|13:361,1,160,2|8,1:2|0:2,0:0:0:0:
119,241,64425,2,0,P|219:246|173:336,1,240,2|0,1:2|0:0,0:0:0:0:
80,326,65081,5,2,1:2:0:0:
254,227,65409,1,10,0:2:0:0:
110,179,65737,5,2,1:2:0:0:
233,336,66064,1,8,0:2:0:0:
246,351,66146,1,8,0:2:0:0:
264,360,66228,1,8,0:2:0:0:
284,364,66310,1,8,0:2:0:0:
304,363,66392,6,0,L|385:356,1,80,6|0,1:2|0:0,0:0:0:0:
396,264,66720,2,0,L|294:235,1,80,10|0,0:2|0:0,0:0:0:0:
455,192,67048,2,0,P|451:149|432:112,1,80,2|0,1:2|0:0,0:0:0:0:
344,100,67376,2,0,P|327:63|324:24,1,80,10|0,0:2|0:0,0:0:0:0:
469,33,67704,6,0,L|455:192,1,160,2|10,1:2|0:2,0:0:0:0:
508,268,68196,1,2,0:0:0:0:
442,331,68359,2,0,B|377:354|346:308|285:332,1,160,2|8,1:2|0:2,0:0:0:0:
69,309,69015,6,0,L|109:238,1,80,2|0,1:2|0:0,0:0:0:0:
195,272,69343,2,0,L|178:363,1,80,10|0,0:2|0:0,0:0:0:0:
279,239,69671,2,0,P|276:199|263:161,1,80,2|0,1:2|0:0,0:0:0:0:
196,98,69999,2,0,P|156:89|117:93,1,80,10|0,0:2|0:0,0:0:0:0:
263,162,70327,6,0,P|302:163|345:149,1,80,2|0,1:2|0:0,0:0:0:0:
432,66,70655,2,0,P|470:54|509:56,1,80,10|0,0:2|0:0,0:0:0:0:
498,188,70982,2,0,P|459:179|425:158,1,80,2|0,1:2|0:0,0:0:0:0:
348,60,71310,2,0,P|314:39|275:30,1,80,10|0,0:2|0:0,0:0:0:0:
196,99,71638,6,0,B|261:107|279:54|348:60,1,160,6|8,1:2|0:2,0:0:0:0:
108,77,72294,2,0,P|109:37|126:1,1,80,2|0,1:2|0:0,0:0:0:0:
216,23,72622,2,0,P|212:62|194:101,1,80,10|0,0:2|0:0,0:0:0:0:
301,198,72950,6,0,P|266:125|193:99,1,160,2|8,1:2|0:2,0:0:0:0:
310,290,73605,2,0,L|389:283,1,80,2|0,1:2|0:0,0:0:0:0:
381,191,73933,2,0,L|297:198,1,80,10|0,0:2|0:0,0:0:0:0:
480,226,74261,6,0,B|503:161|457:130|481:69,1,160,6|8,1:2|0:2,0:0:0:0:
330,124,74917,2,0,P|281:35|382:28,1,240,2|0,1:2|0:0,0:0:0:0:
418,112,75573,5,2,1:2:0:0:
382,197,75737,1,8,0:2:0:0:
437,271,75900,2,0,L|430:350,1,80,6|0,1:2|3:1,0:0:0:0:
341,325,76228,1,10,0:0:0:0:
341,325,76310,1,0,3:1:0:0:
341,325,76392,1,8,0:0:0:0:
257,363,76556,1,10,0:3:0:0:
169,335,76720,1,8,0:3:0:0:
84,371,76884,6,0,P|45:309|104:267,1,160,4|2,1:2|0:0,0:0:0:0:
158,192,77376,2,0,B|117:140|67:165|22:112,1,160,10|0,0:0|1:0,0:0:0:0:
68,32,77868,2,0,P|106:42|136:68,1,80,10|0,0:0|0:0,0:0:0:0:
328,26,78196,6,0,P|266:-12|224:46,1,160,6|2,1:2|0:0,0:0:0:0:
252,136,78687,2,0,L|411:149,1,160,10|0,0:0|0:0,0:0:0:0:
488,97,79179,2,0,P|494:58|484:19,1,80,10|0,0:0|0:0,0:0:0:0:
333,105,79507,6,0,P|352:179|424:165,1,160,4|2,1:2|0:0,0:0:0:0:
510,194,79999,2,0,P|520:271|478:337,1,160,10|0,0:0|1:0,0:0:0:0:
398,384,80491,2,0,L|319:377,1,80,10|0,0:0|0:0,0:0:0:0:
211,281,80818,6,0,B|146:258|115:304|54:280,1,160,6|0,1:2|0:0,0:0:0:0:
13,197,81310,1,8,0:0:0:0:
65,121,81474,2,0,L|144:127,1,80,2|0,0:0|1:0,0:0:0:0:
152,35,81802,2,0,L|73:29,1,80,10|0,0:0|0:0,0:0:0:0:
222,88,82130,6,0,B|287:65|318:111|379:87,1,160,6|8,1:2|0:0,0:0:0:0:
424,6,82622,1,0,0:0:0:0:
506,48,82786,2,0,L|499:127,1,80,2|0,1:2|1:0,0:0:0:0:
421,176,83114,2,0,L|427:255,1,80,8|0,0:0|0:0,0:0:0:0:
508,303,83441,5,2,1:2:0:0:
461,382,83605,1,0,0:0:0:0:
382,335,83769,2,0,P|342:332|304:345,1,80,10|0,0:2|0:0,0:0:0:0:
220,384,84097,2,0,P|184:366|157:337,1,80,14|0,0:2|2:0,0:0:0:0:
146,254,84425,1,10,0:2:0:0:
146,254,84507,1,8,0:0:0:0:
146,254,84589,1,8,0:0:0:0:
54,254,84753,6,0,L|47:175,1,80,2|14,1:2|0:2,0:0:0:0:
119,116,85081,1,2,1:2:0:0:
205,148,85245,2,0,L|212:69,1,80,10|0,0:2|1:2,0:0:0:0:
294,23,85573,5,2,1:2:0:0:
294,23,85737,1,2,1:2:0:0:
374,68,85900,2,0,L|380:147,1,80,10|2,0:2|0:2,0:0:0:0:
461,202,86228,5,10,0:2:0:0:
461,202,86392,1,8,0:0:0:0:
419,284,86556,2,0,L|339:278,1,80,10|2,0:2|0:2,0:0:0:0:
269,338,86884,5,10,0:2:0:0:
355,369,87048,1,10,0:2:0:0:
253,246,87212,1,14,0:2:0:0:
