osu file format v14

[General]
AudioFilename: audio.mp3
AudioLeadIn: 0
PreviewTime: 44757
Countdown: 0
SampleSet: Soft
StackLeniency: 0.4
Mode: 0
LetterboxInBreaks: 0
EpilepsyWarning: 1
WidescreenStoryboard: 1

[Editor]
Bookmarks: 10163,81150,84757
DistanceSpacing: 2.3
BeatDivisor: 4
GridSize: 32
TimelineZoom: 2.4

[Metadata]
Title:Silhouette (TV Size)
TitleUnicode:シルエット (TV Size)
Artist:KANA-BOON
ArtistUnicode:KANA-BOON
Creator:SirMirai
Version:Extra
Source:NARUTO-ナルト-疾風伝
Tags:j-rock jrock rock opening op 16 Anime Japanese shippuden hakashii _FlameL vp2_woon Odaril Shiro Stixy
BeatmapID:2517929
BeatmapSetID:1073101

[Difficulty]
HPDrainRate:5.9
CircleSize:4
OverallDifficulty:8.5
ApproachRate:9
SliderMultiplier:1.4
SliderTickRate:1

[Events]
//Background and Video events
0,0,"Naruto.png",0,0
Video,0,"Silhouette.mp4"
//Break Periods
//Storyboard Layer 0 (Background)
//Storyboard Layer 1 (Fail)
//Storyboard Layer 2 (Pass)
//Storyboard Layer 3 (Foreground)
//Storyboard Layer 4 (Overlay)
//Storyboard Sound Samples

[TimingPoints]
819,327.868852459016,4,2,1,60,1,0
3441,-99.9999999999999,4,2,1,70,0,0
13933,-90.9090909090909,4,2,1,60,0,0
34917,-90.9090909090909,4,2,1,50,0,0
45409,-66.6666666666667,4,2,1,80,0,1
76884,-66.6666666666667,4,2,1,70,0,1
77130,-83.3333333333333,4,2,1,70,0,0

[Colours]
Combo1 : 128,128,192
Combo2 : 0,128,128
Combo3 : 0,128,255
Combo4 : 128,128,128
Combo5 : 255,255,128

[HitObjects]
382,27,491,5,8,0:3:0:0:
194,127,819,5,2,1:2:0:0:
363,36,982,1,2,0:0:0:0:
213,3,1146,1,10,0:2:0:0:
383,189,1310,6,0,L|336:137,1,70,2|0,0:0|1:2,0:0:0:0:
175,135,1638,1,2,0:0:0:0:
208,271,1802,1,10,0:2:0:0:
36,174,1966,1,2,0:0:0:0:
143,320,2130,5,10,0:2:0:0:
170,342,2212,1,8,0:2:0:0:
203,351,2294,1,10,0:2:0:0:
238,345,2376,1,8,0:2:0:0:
267,327,2458,1,8,0:2:0:0:
296,309,2540,1,8,0:2:0:0:
331,303,2622,1,10,0:2:0:0:
364,312,2704,1,8,0:2:0:0:
391,333,2786,1,14,0:2:0:0:
213,3,3441,6,0,P|149:19|157:105,1,140,6|8,1:2|0:2,0:0:0:0:
243,110,3933,1,2,0:0:0:0:
161,176,4097,2,0,P|146:225|148:271,1,70,0|0,1:2|0:0,0:0:0:0:
320,125,4425,2,0,P|316:90|304:57,1,70,10|0,0:2|0:0,0:0:0:0:
223,237,4753,2,0,P|292:289|362:266,1,140,2|8,1:2|0:2,0:0:0:0:
396,191,5245,1,2,0:0:0:0:
318,120,5409,2,0,P|299:166|301:206,1,70,0|0,1:2|0:0,0:0:0:0:
478,75,5737,2,0,P|473:40|458:9,1,70,10|0,0:2|0:0,0:0:0:0:
298,185,6064,6,0,B|267:171|235:198|230:202|210:227|147:202,1,140,2|8,1:2|0:2,0:0:0:0:
84,139,6556,2,0,P|73:105|79:71,1,70,2|0,0:0|1:2,0:0:0:0:
167,13,6884,1,0,0:0:0:0:
248,78,7048,2,0,P|254:112|243:145,1,70,10|2,0:2|0:0,0:0:0:0:
39,188,7376,2,0,P|86:175|184:197,1,140,2|8,1:2|0:2,0:0:0:0:
335,327,7868,2,0,P|383:347|425:338,1,70,2|0,0:0|1:2,0:0:0:0:
478,274,8196,1,2,0:0:0:0:
421,172,8359,2,0,P|396:216|387:259,1,70,10|0,0:2|0:0,0:0:0:0:
266,63,8687,6,0,P|291:107|306:201,1,140,2|8,1:2|0:2,0:0:0:0:
116,286,9179,2,0,P|162:307|197:299,1,70,2|0,0:0|1:2,0:0:0:0:
278,267,9507,1,2,0:0:0:0:
215,137,9671,2,0,P|184:182|171:221,1,70,10|0,0:2|0:0,0:0:0:0:
13,64,9999,2,0,P|66:35|144:74,2,140,2|8|0,1:2|0:2|1:2,0:0:0:0:
49,162,10818,1,0,0:0:0:0:
132,225,10982,2,0,L|128:312,1,70,8|0,0:2|0:0,0:0:0:0:
333,241,11310,6,0,P|278:209|200:258,1,140,2|8,1:2|0:2,0:0:0:0:
395,342,11802,2,0,P|443:335|473:309,1,70,2|0,0:0|1:2,0:0:0:0:
482,220,12130,1,0,0:0:0:0:
379,36,12294,2,0,L|372:127,1,70,10|0,0:2|0:0,0:0:0:0:
171,167,12622,2,0,P|246:193|301:147,1,140,2|8,1:2|0:2,0:0:0:0:
379,36,13114,1,2,0:0:0:0:
480,150,13278,5,8,0:2:0:0:
481,185,13359,1,8,0:2:0:0:
482,220,13441,1,8,0:2:0:0:
483,255,13523,1,8,0:2:0:0:
484,290,13605,1,10,0:2:0:0:
387,331,13769,1,8,0:2:0:0:
362,331,13851,1,8,0:2:0:0:
337,333,13933,6,0,P|319:298|327:253,1,77.0000023498536,6|0,1:2|0:0,0:0:0:0:
387,147,14261,2,0,P|405:182|397:227,1,77.0000023498536,10|0,0:2|0:0,0:0:0:0:
270,198,14589,2,0,L|187:198,1,77.0000023498536,2|0,1:2|1:2,0:0:0:0:
29,93,14917,2,0,L|112:93,1,77.0000023498536,10|0,0:2|0:0,0:0:0:0:
193,198,15245,2,0,P|211:241|201:288,1,77.0000023498536,0|0,1:2|0:0,0:0:0:0:
90,165,15573,2,0,P|88:126|105:92,1,77.0000023498536,8|0,0:2|0:0,0:0:0:0:
259,102,15900,1,0,1:2:0:0:
131,249,16064,1,0,1:2:0:0:
105,92,16228,1,10,0:2:0:0:
105,92,16556,6,0,P|151:105|187:99,1,77.0000023498536,2|2,1:2|0:0,0:0:0:0:
314,25,16884,2,0,P|275:22|239:34,1,77.0000023498536,10|2,0:2|0:0,0:0:0:0:
187,180,17212,1,2,1:2:0:0:
282,114,17376,1,0,1:2:0:0:
105,92,17540,2,0,P|85:147|84:183,1,77.0000023498536,10|2,0:2|0:0,0:0:0:0:
236,340,17868,2,0,P|239:292|169:211,1,154.000004699707,0|10,1:2|0:2,0:0:0:0:
38,281,18359,1,0,0:0:0:0:
176,213,18523,1,2,1:2:0:0:
164,366,18687,1,0,1:2:0:0:
112,262,18851,2,0,P|97:230|113:168,1,77.0000023498536,10|0,0:2|0:0,0:0:0:0:
211,30,19179,6,0,P|225:61|210:124,1,77.0000023498536,2|0,1:2|0:0,0:0:0:0:
100,189,19507,2,0,P|57:183|-1:181,1,77.0000023498536,8|0,0:2|0:0,0:0:0:0:
139,284,19835,2,0,P|179:289|215:276,1,77.0000023498536,2|0,1:2|1:2,0:0:0:0:
346,198,20163,2,0,P|299:170|259:173,1,77.0000023498536,10|0,0:2|0:0,0:0:0:0:
413,357,20491,2,0,P|464:330|477:217,1,154.000004699707,2|8,1:2|0:2,0:0:0:0:
202,156,21146,2,0,P|245:166|283:168,1,77.0000023498536,2|0,1:2|1:2,0:0:0:0:
399,41,21474,2,0,P|369:74|350:107,1,77.0000023498536,10|0,0:2|0:0,0:0:0:0:
375,285,21802,6,0,P|432:308|484:229,1,154.000004699707,2|8,1:2|0:2,0:0:0:0:
92,79,22458,1,2,1:2:0:0:
213,173,22622,1,0,1:2:0:0:
120,242,22786,2,0,L|123:332,1,77.0000023498536,8|0,0:2|0:0,0:0:0:0:
20,154,23114,2,0,P|57:132|103:132,1,77.0000023498536,2|0,1:2|0:0,0:0:0:0:
259,222,23441,2,0,P|221:217|188:197,1,77.0000023498536,10|0,0:2|0:0,0:0:0:0:
301,39,23769,2,0,L|309:132,1,77.0000023498536,2|0,1:2|1:2,0:0:0:0:
393,244,24097,2,0,L|386:167,1,77.0000023498536,10|0,0:2|0:0,0:0:0:0:
113,168,24425,6,0,P|139:134|178:119,1,77.0000023498536,6|0,1:2|0:0,0:0:0:0:
313,244,24753,2,0,P|287:210|248:195,1,77.0000023498536,10|0,0:2|0:0,0:0:0:0:
111,251,25081,1,2,1:2:0:0:
256,302,25245,1,2,1:2:0:0:
299,132,25409,2,0,L|303:27,1,77.0000023498536,10|0,0:2|0:0,0:0:0:0:
403,172,25737,2,0,L|405:248,1,77.0000023498536,2|0,1:2|0:0,0:0:0:0:
458,103,26064,2,0,P|421:86|368:88,1,77.0000023498536,10|0,0:2|0:0,0:0:0:0:
296,211,26392,1,2,1:2:0:0:
476,183,26556,1,0,1:2:0:0:
289,133,26720,2,0,P|274:102|289:44,1,77.0000023498536,10|2,0:2|0:0,0:0:0:0:
405,248,27048,6,0,P|420:213|415:175,1,77.0000023498536,2|0,1:2|0:0,0:0:0:0:
263,206,27376,1,10,0:2:0:0:
362,323,27540,1,2,0:0:0:0:
415,175,27704,2,0,P|360:165|324:185,1,77.0000023498536,2|0,1:2|1:2,0:0:0:0:
230,282,28032,2,0,P|267:290|303:278,1,77.0000023498536,10|2,0:2|0:0,0:0:0:0:
156,100,28359,2,0,L|161:282,1,154.000004699707,2|10,1:2|0:2,0:0:0:0:
117,361,28851,1,0,0:0:0:0:
2,258,29015,2,0,P|44:222|80:225,1,77.0000023498536,2|0,1:2|1:2,0:0:0:0:
117,361,29343,2,0,P|86:338|75:302,1,77.0000023498536,10|0,0:2|0:0,0:0:0:0:
127,116,29671,6,0,P|149:176|162:284,1,154.000004699707,2|8,1:2|0:2,0:0:0:0:
117,361,30163,1,0,0:0:0:0:
269,337,30327,2,0,L|374:330,1,77.0000023498536,2|0,1:2|1:2,0:0:0:0:
236,222,30655,2,0,L|131:215,1,77.0000023498536,10|0,0:2|0:0,0:0:0:0:
347,258,30982,2,0,P|365:211|283:121,1,154.000004699707,2|8,1:2|0:2,0:0:0:0:
164,163,31474,1,0,0:0:0:0:
314,128,31638,2,0,P|328:75|315:31,1,77.0000023498536,2|0,1:2|1:2,0:0:0:0:
235,180,31966,2,0,P|241:217|262:249,1,77.0000023498536,10|0,0:2|0:0,0:0:0:0:
455,237,32294,6,0,P|408:193|308:204,1,154.000004699707,2|8,1:2|0:2,0:0:0:0:
265,339,32786,1,0,0:0:0:0:
112,314,32950,2,0,P|163:292|212:295,1,77.0000023498536,2|0,1:2|1:2,0:0:0:0:
401,372,33278,2,0,P|364:367|330:349,1,77.0000023498536,8|0,0:2|0:0,0:0:0:0:
245,323,33605,5,2,1:2:0:0:
259,169,33769,1,0,1:2:0:0:
272,15,33933,1,10,0:2:0:0:
483,239,34261,5,10,0:2:0:0:
328,242,34425,1,8,0:2:0:0:
327,97,34589,1,10,0:3:0:0:
479,96,34753,1,8,0:3:0:0:
194,340,34917,5,4,1:2:0:0:
57,63,35245,1,2,1:2:0:0:
115,205,35409,2,0,L|128:114,1,77.0000023498536,10|0,0:0|0:0,0:0:0:0:
236,22,35736,1,2,1:2:0:0:
314,154,35900,2,0,P|361:159|407:142,1,77.0000023498536,8|0,0:0|0:0,0:0:0:0:
512,0,36228,5,4,1:2:0:0:
335,252,36556,1,2,1:2:0:0:
224,144,36720,2,0,L|248:240,1,77.0000023498536,10|0,0:0|0:0,0:0:0:0:
219,372,37048,1,2,1:2:0:0:
98,276,37212,2,0,P|134:248|168:244,1,77.0000023498536,8|0,0:0|0:0,0:0:0:0:
326,351,37540,5,4,1:2:0:0:
437,63,37868,1,2,1:2:0:0:
355,193,38032,2,0,L|355:108,1,77.0000023498536,10|0,0:0|0:0,0:0:0:0:
241,12,38359,1,2,1:2:0:0:
266,163,38523,1,8,0:0:0:0:
25,355,38851,6,0,L|113:348,1,77.0000023498536,6|0,1:2|0:0,0:0:0:0:
179,262,39179,1,0,1:0:0:0:
50,177,39343,2,0,P|39:217|53:253,1,77.0000023498536,8|2,0:0|0:0,0:0:0:0:
178,336,39671,1,0,1:0:0:0:
302,244,39835,2,0,P|313:207|302:171,1,77.0000023498536,10|0,0:0|0:0,0:0:0:0:
345,360,40163,6,0,B|441:348|441:348|476:347|512:361,2,154.000004699707,6|8|2,1:2|0:0|1:2,0:0:0:0:
230,373,40982,1,0,1:0:0:0:
290,274,41146,2,0,L|286:182,1,77.0000023498536,8|0,0:0|0:0,0:0:0:0:
104,132,41474,2,0,P|144:112|186:115,1,77.0000023498536,2|0,1:2|0:0,0:0:0:0:
87,239,41802,2,0,P|48:237|15:219,1,77.0000023498536,10|0,0:2|0:0,0:0:0:0:
169,197,42130,1,2,1:2:0:0:
72,317,42294,1,0,1:0:0:0:
66,163,42458,2,0,L|65:49,1,77.0000023498536,8|0,0:0|0:0,0:0:0:0:
147,261,42786,6,0,P|219:278|286:209,1,154.000004699707,6|8,1:2|0:0,0:0:0:0:
278,116,43277,1,0,0:0:0:0:
378,255,43441,2,0,P|385:302|375:347,1,77.0000023498536,2|0,1:2|1:0,0:0:0:0:
203,200,43769,1,8,0:0:0:0:
362,225,43933,1,0,0:0:0:0:
186,342,44097,2,0,L|174:265,1,77.0000023498536,6|0,1:2|0:0,0:0:0:0:
362,225,44425,2,0,L|374:180,1,38.5000011749268,10|8,0:2|0:0,0:0:0:0:
356,111,44589,2,0,L|368:66,1,38.5000011749268,8|8,0:0|0:0,0:0:0:0:
340,0,44753,5,2,1:2:0:0:
335,48,45409,6,0,L|83:44,1,210.000008010865,6|10,1:2|0:2,0:0:0:0:
13,155,45900,1,0,0:0:0:0:
221,125,46064,2,0,P|245:184|236:233,1,105.000004005432,2|0,1:2|1:2,0:0:0:0:
79,361,46392,2,0,L|79:238,1,105.000004005432,10|0,0:2|0:0,0:0:0:0:
339,299,46720,6,0,P|260:343|214:328,1,105.000004005432,2|0,1:2|0:0,0:0:0:0:
79,256,47048,1,10,0:2:0:0:
263,154,47212,1,2,0:0:0:0:
168,341,47376,2,0,L|168:218,1,105.000004005432,2|0,1:2|1:2,0:0:0:0:
306,76,47704,2,0,P|253:52|196:78,1,105.000004005432,8|0,0:2|0:0,0:0:0:0:
71,289,48032,6,0,P|161:323|285:252,1,210.000008010865,2|10,1:2|0:2,0:0:0:0:
321,135,48523,1,0,0:0:0:0:
478,274,48687,2,0,P|495:331|493:378,1,105.000004005432,2|0,1:2|1:2,0:0:0:0:
305,237,49015,2,0,P|304:184|320:134,1,105.000004005432,10|0,0:2|0:0,0:0:0:0:
496,19,49343,5,2,1:2:0:0:
401,206,49507,1,0,0:0:0:0:
323,10,49671,1,10,0:2:0:0:
401,238,49835,1,2,0:0:0:0:
260,61,49999,2,0,P|207:44|139:64,1,105.000004005432,2|0,1:2|1:2,0:0:0:0:
298,215,50327,2,0,P|349:223|398:206,1,105.000004005432,10|0,0:2|0:0,0:0:0:0:
138,162,50655,6,0,L|154:377,1,210.000008010865,6|8,1:2|0:2,0:0:0:0:
53,249,51146,1,0,0:0:0:0:
248,325,51310,2,0,P|304:331|354:306,1,105.000004005432,2|0,1:2|1:2,0:0:0:0:
180,182,51638,2,0,P|132:161|80:168,1,105.000004005432,10|0,0:2|0:0,0:0:0:0:
338,227,51966,6,0,L|338:16,1,210.000008010865,2|8,1:2|0:2,0:0:0:0:
433,143,52458,1,0,0:0:0:0:
252,35,52622,2,0,P|185:33|146:67,1,105.000004005432,2|0,1:2|1:2,0:0:0:0:
335,164,52950,2,0,P|268:166|229:132,1,105.000004005432,10|0,0:2|0:0,0:0:0:0:
452,300,53278,6,0,L|461:77,1,210.000008010865,2|8,1:2|0:2,0:0:0:0:
363,214,53769,1,0,0:0:0:0:
194,88,53933,2,0,P|141:68|88:78,1,105.000004005432,2|0,1:2|1:2,0:0:0:0:
189,202,54261,2,0,P|240:208|288:189,1,105.000004005432,10|0,0:2|0:0,0:0:0:0:
402,11,54589,5,2,1:2:0:0:
288,189,54753,1,0,0:0:0:0:
497,204,54917,2,0,P|507:260|493:322,1,105.000004005432,10|0,0:2|0:0,0:0:0:0:
348,356,55245,1,2,1:2:0:0:
228,253,55409,1,0,1:2:0:0:
177,242,55490,1,0,1:0:0:0:
126,252,55572,1,10,0:2:0:0:
318,339,55737,1,0,1:0:0:0:
345,295,55818,1,0,1:0:0:0:
344,243,55900,6,0,L|339:21,1,210.000008010865,6|10,1:2|0:2,0:0:0:0:
252,166,56392,1,0,0:0:0:0:
412,30,56556,2,0,P|469:24|520:47,1,105.000004005432,2|0,1:2|0:0,0:0:0:0:
422,232,56884,1,10,0:2:0:0:
265,92,57048,1,0,0:0:0:0:
423,305,57212,6,0,P|471:290|492:244,1,105.000004005432,2|0,1:2|0:0,0:0:0:0:
489,32,57540,1,10,0:2:0:0:
422,232,57704,1,2,0:0:0:0:
267,90,57868,2,0,L|126:72,1,105.000004005432,2|0,1:2|0:0,0:0:0:0:
317,245,58196,2,0,L|458:227,1,105.000004005432,8|0,0:2|0:0,0:0:0:0:
159,202,58523,5,2,1:2:0:0:
288,371,58687,1,0,0:0:0:0:
256,163,58851,2,0,L|198:19,1,105.000004005432,10|0,0:2|0:0,0:0:0:0:
90,249,59179,2,0,P|162:286|201:274,1,105.000004005432,2|0,1:2|0:0,0:0:0:0:
347,129,59507,2,0,P|295:130|255:162,1,105.000004005432,10|0,0:2|0:0,0:0:0:0:
454,335,59835,6,0,L|447:114,1,210.000008010865,2|10,1:2|0:2,0:0:0:0:
249,51,60327,1,2,0:0:0:0:
329,243,60490,1,2,1:2:0:0:
371,37,60654,1,0,0:0:0:0:
381,292,60818,2,0,P|325:316|268:279,1,105.000004005432,10|0,0:2|0:0,0:0:0:0:
28,116,61146,6,0,P|93:83|236:138,1,210.000008010865,6|8,1:2|0:2,0:0:0:0:
270,268,61638,1,0,0:0:0:0:
112,272,61802,2,0,P|88:217|107:153,1,105.000004005432,2|0,1:2|0:0,0:0:0:0:
270,268,62130,2,0,P|275:319|252:365,1,105.000004005432,10|0,0:2|0:0,0:0:0:0:
165,116,62458,6,0,L|384:110,1,210.000008010865,2|8,1:2|0:2,0:0:0:0:
487,222,62950,1,0,0:0:0:0:
379,41,63114,2,0,L|241:43,1,105.000004005432,2|0,1:2|0:0,0:0:0:0:
115,180,63441,2,0,P|189:187|234:150,1,105.000004005432,10|0,0:2|0:0,0:0:0:0:
2,14,63769,6,0,L|29:234,1,210.000008010865,2|8,1:2|0:2,0:0:0:0:
127,99,64261,1,0,0:0:0:0:
252,267,64425,2,0,P|317:271|351:235,1,105.000004005432,2|0,1:2|0:0,0:0:0:0:
120,202,64753,2,0,P|55:198|21:234,1,105.000004005432,8|0,0:2|0:0,0:0:0:0:
260,346,65081,5,2,1:2:0:0:
277,136,65245,1,0,0:0:0:0:
174,319,65409,2,0,P|116:310|90:274,1,105.000004005432,10|0,0:2|0:0,0:0:0:0:
218,101,65737,2,0,P|246:155|256:213,1,105.000004005432,2|0,1:2|0:0,0:0:0:0:
111,100,66064,5,8,0:2:0:0:
133,52,66145,1,8,0:2:0:0:
173,20,66227,1,8,0:2:0:0:
224,8,66309,1,8,0:2:0:0:
275,20,66392,6,0,L|485:17,1,210.000008010865,6|10,1:2|0:2,0:0:0:0:
356,109,66884,1,0,0:0:0:0:
445,299,67048,2,0,P|463:238|431:181,1,105.000004005432,2|0,1:2|0:0,0:0:0:0:
266,94,67376,2,0,P|252:143|270:192,1,105.000004005432,10|0,0:2|0:0,0:0:0:0:
484,347,67704,6,0,L|257:351,1,210.000008010865,2|10,1:2|0:2,0:0:0:0:
64,362,68195,1,2,0:0:0:0:
124,160,68359,1,2,1:2:0:0:
191,358,68523,1,0,0:0:0:0:
122,145,68687,2,0,L|106:29,1,105.000004005432,8|0,0:2|0:0,0:0:0:0:
16,289,69015,6,0,P|102:341|195:303,1,210.000008010865,2|10,1:2|0:2,0:0:0:0:
278,167,69507,1,0,0:0:0:0:
120,154,69671,2,0,P|101:212|107:265,1,105.000004005432,2|0,1:2|0:0,0:0:0:0:
249,101,69999,2,0,P|251:48|233:0,1,105.000004005432,10|0,0:2|0:0,0:0:0:0:
214,263,70327,6,0,P|272:307|369:210,1,210.000008010865,2|10,1:2|0:2,0:0:0:0:
369,79,70818,1,0,0:0:0:0:
124,135,70982,2,0,L|151:357,1,210.000008010865,2|10,1:2|0:2,0:0:0:0:
439,348,71638,6,0,L|464:139,1,210.000008010865,6|8,1:2|0:2,0:0:0:0:
318,202,72130,1,0,0:0:0:0:
180,42,72294,2,0,P|109:37|54:67,1,105.000004005432,2|0,1:2|0:0,0:0:0:0:
216,195,72622,2,0,P|265:209|317:201,1,105.000004005432,10|0,0:2|0:0,0:0:0:0:
113,153,72950,6,0,L|130:366,1,210.000008010865,2|8,1:2|0:2,0:0:0:0:
244,253,73441,1,0,0:0:0:0:
44,320,73605,2,0,L|32:194,1,105.000004005432,2|0,1:2|0:0,0:0:0:0:
213,104,73933,2,0,L|222:208,1,105.000004005432,10|0,0:2|0:0,0:0:0:0:
22,36,74261,6,0,L|252:21,1,210.000008010865,6|8,1:2|0:2,0:0:0:0:
390,22,74753,1,0,0:0:0:0:
200,112,74917,2,0,P|174:178|192:240,1,105.000004005432,2|0,1:2|0:0,0:0:0:0:
357,321,75245,2,0,P|358:269|335:222,1,105.000004005432,8|0,0:2|0:0,0:0:0:0:
80,285,75572,5,2,1:2:0:0:
258,172,75737,1,8,0:2:0:0:
310,171,75818,1,0,3:1:0:0:
363,170,75900,1,6,1:2:0:0:
152,52,76064,1,0,3:1:0:0:
208,260,76228,2,0,L|221:321,2,52.5000020027161,10|0|8,0:0|3:1|0:0,0:0:0:0:
346,359,76556,1,10,0:3:0:0:
396,370,76637,1,0,1:0:0:0:
445,352,76719,1,8,0:3:0:0:
476,311,76801,1,0,1:0:0:0:
480,259,76883,5,4,1:2:0:0:
413,13,77212,1,2,0:0:0:0:
355,176,77376,2,0,P|291:199|191:157,1,167.999994873047,10|0,0:0|1:0,0:0:0:0:
105,82,77868,2,0,P|168:75|208:95,1,83.9999974365235,10|0,0:0|0:0,0:0:0:0:
355,176,78196,5,6,1:2:0:0:
127,285,78523,1,2,0:0:0:0:
278,357,78687,2,0,L|457:337,1,167.999994873047,10|0,0:0|0:0,0:0:0:0:
332,280,79179,2,0,L|221:290,1,83.9999974365235,10|0,0:0|0:0,0:0:0:0:
37,302,79507,5,4,1:2:0:0:
252,370,79835,1,2,0:0:0:0:
349,290,79999,2,0,P|371:238|332:106,1,167.999994873047,10|0,0:0|1:0,0:0:0:0:
287,22,80491,2,0,P|261:83|269:120,1,83.9999974365235,10|0,0:0|0:0,0:0:0:0:
160,218,80818,6,0,P|247:258|311:193,1,167.999994873047,6|0,1:2|0:0,0:0:0:0:
346,103,81310,1,8,0:0:0:0:
438,188,81474,2,0,P|459:237|458:292,1,83.9999974365235,2|0,0:0|1:0,0:0:0:0:
398,377,81802,1,10,0:0:0:0:
62,366,82130,6,0,P|48:313|69:264,1,83.9999974365235,6|0,1:2|0:0,0:0:0:0:
176,168,82458,2,0,P|182:209|168:248,1,83.9999974365235,8|0,0:0|0:0,0:0:0:0:
77,105,82786,1,2,1:2:0:0:
244,105,82949,1,0,1:0:0:0:
413,107,83114,2,0,L|402:222,1,83.9999974365235,8|0,0:0|0:0,0:0:0:0:
196,218,83441,6,0,P|226:191|300:197,1,83.9999974365235,2|0,1:2|0:0,0:0:0:0:
415,335,83769,2,0,P|374:328|342:301,1,83.9999974365235,10|0,0:2|0:0,0:0:0:0:
328,142,84097,2,0,L|328:82,2,41.9999987182618,14|2|0,0:2|3:0|2:0,0:0:0:0:
404,45,84425,1,10,0:2:0:0:
370,19,84508,1,8,0:0:0:0:
328,15,84590,1,8,0:0:0:0:
286,19,84672,1,8,0:0:0:0:
255,48,84753,5,2,1:2:0:0:
406,255,84917,1,14,0:2:0:0:
142,161,85081,1,2,1:2:0:0:
413,128,85245,2,0,L|400:12,1,83.9999974365235,10|0,0:2|1:2,0:0:0:0:
316,297,85573,1,2,1:2:0:0:
306,31,85737,1,2,1:2:0:0:
107,219,85900,1,10,0:2:0:0:
382,169,86064,5,2,0:2:0:0:
119,78,86228,2,0,L|15:54,1,83.9999974365235,10|8,0:2|0:0,0:0:0:0:
314,44,86556,1,10,0:2:0:0:
71,175,86720,1,2,0:2:0:0:
299,314,86884,5,10,0:2:0:0:
170,64,87048,1,10,0:2:0:0:
149,351,87212,1,14,0:2:0:0:
