osu file format v14

[General]
AudioFilename: audio.mp3
AudioLeadIn: 0
PreviewTime: -1
Countdown: 1
SampleSet: None
StackLeniency: 0.7
Mode: 0
LetterboxInBreaks: 0
WidescreenStoryboard: 0

[Editor]
DistanceSpacing: 1.2
BeatDivisor: 2
GridSize: 8
TimelineZoom: 2.4

[Metadata]
Title:Silhouette
TitleUnicode:Silhouette
Artist:KANA-BOON
ArtistUnicode:KANA-BOON
Creator:Raikozen
Version:Easy
Source:
Tags:
BeatmapID:2158433
BeatmapSetID:1032217

[Difficulty]
HPDrainRate:2
CircleSize:2
OverallDifficulty:3
ApproachRate:3
SliderMultiplier:0.6
SliderTickRate:1

[Events]
//Background and Video events
//Break Periods
//Storyboard Layer 0 (Background)
//Storyboard Layer 1 (Fail)
//Storyboard Layer 2 (Pass)
//Storyboard Layer 3 (Foreground)
//Storyboard Layer 4 (Overlay)
//Storyboard Sound Samples

[TimingPoints]
940,327.868852459016,4,1,0,100,1,0
45530,-100,4,1,0,70,0,1

[HitObjects]
74,208,940,6,0,P|125:159|212:159,1,150
268,230,1923,2,0,P|316:232|349:203,1,90
356,118,2579,1,0,0:0:0:0:
356,118,3563,6,0,L|369:212,2,90
277,57,4874,2,0,L|183:70,2,90
479,10,6185,2,0,L|464:130,1,120
402,199,7497,2,0,P|337:170|285:172,1,120
198,194,8808,6,0,L|179:71,1,120
113,8,10120,2,0,P|72:36|0:25,1,120
12,119,11431,6,0,L|26:209,2,90
80,47,12743,1,0,0:0:0:0:
108,177,13399,5,0,0:0:0:0:
200,149,13726,1,0,0:0:0:0:
289,114,14054,6,0,L|414:134,1,120
512,18,15366,2,0,L|387:-2,1,120
340,76,16677,6,0,L|354:199,1,120
423,265,17989,2,0,L|488:272,2,60
275,283,19300,6,0,L|148:269,1,120
43,346,20612,2,0,L|57:219,1,120
5,151,21923,6,0,P|71:119|117:137,2,120
160,61,23890,2,0,L|228:48,1,60
315,5,24546,6,0,L|297:129,1,120
469,177,25858,2,0,L|487:296,1,120
285,206,27169,2,0,L|166:223,1,120
74,224,28480,2,0,L|64:284,2,60
46,33,29792,6,0,L|174:49,1,120
208,264,31103,2,0,L|222:144,1,120
502,19,32415,2,0,P|439:75|395:78,1,120
245,60,33726,2,0,L|239:-13,2,60
186,137,34710,1,0,0:0:0:0:
116,203,35038,6,0,L|101:293,2,90
190,291,36349,2,0,L|204:379,2,90
309,239,37661,2,0,L|294:327,2,90
377,357,38972,2,0,P|428:363|472:311,1,120
443,227,39956,1,0,0:0:0:0:
508,158,40284,6,0,L|388:129,1,120
187,236,41595,2,0,L|303:207,1,120
359,384,42907,2,0,L|387:267,1,120
322,15,44218,2,0,L|331:77,2,60
417,116,45202,1,0,0:0:0:0:
363,199,45530,6,0,P|302:232|254:209,1,120
177,178,46513,1,0,0:0:0:0:
114,244,46841,2,0,L|102:123,1,120
166,58,47825,1,0,0:0:0:0:
90,3,48153,6,0,L|221:24,1,120
292,72,49136,1,0,0:0:0:0:
375,20,49464,2,0,P|409:82|391:135,1,120
336,195,50448,1,0,0:0:0:0:
400,266,50776,6,0,L|272:246,1,120
199,289,51759,1,0,0:0:0:0:
126,346,52087,2,0,L|151:217,1,120
105,147,53071,1,0,0:0:0:0:
17,108,53399,6,0,L|141:91,2,120
50,197,55038,1,0,0:0:0:0:
147,182,55366,1,0,0:0:0:0:
221,240,55694,1,0,0:0:0:0:
310,208,56021,6,0,L|327:88,1,120
394,24,57005,1,0,0:0:0:0:
477,76,57333,2,0,L|489:207,1,120
435,271,58317,1,0,0:0:0:0:
488,349,58644,6,0,L|370:324,1,120
286,361,59628,1,0,0:0:0:0:
198,304,59956,2,0,P|123:310|81:339,1,120
21,259,60939,1,0,0:0:0:0:
82,182,61267,6,0,L|89:51,1,120
169,13,62251,1,0,0:0:0:0:
243,71,62579,2,0,L|368:49,1,120
435,108,63562,1,0,0:0:0:0:
507,44,63890,6,0,L|473:164,2,120
415,8,65530,1,0,0:0:0:0:
328,62,65858,1,0,0:0:0:0:
238,22,66185,1,0,0:0:0:0:
168,95,66513,6,0,L|185:223,1,120
126,288,67497,1,0,0:0:0:0:
53,348,67825,2,0,L|171:329,1,120
259,371,68808,1,0,0:0:0:0:
352,333,69136,2,0,L|375:201,1,120
328,140,70120,1,0,0:0:0:0:
379,66,70448,2,0,P|309:84|252:51,1,120
199,3,71431,1,0,0:0:0:0:
130,70,71759,6,0,L|148:194,1,120
83,256,72743,1,0,0:0:0:0:
157,317,73071,2,0,L|288:300,1,120
361,353,74054,1,0,0:0:0:0:
446,299,74382,2,0,L|467:153,2,120
350,271,76021,1,0,0:0:0:0:
271,315,76349,1,0,0:0:0:0:
187,264,76677,1,0,0:0:0:0:
119,325,77005,6,0,L|101:221,2,90
216,291,78317,2,0,L|231:202,2,90
340,340,79628,2,0,L|324:251,2,90
437,290,80939,2,0,L|452:164,1,120
408,89,81923,1,0,0:0:0:0:
500,20,82251,6,0,L|357:44,1,120
305,100,83235,1,0,0:0:0:0:
224,44,83562,2,0,L|85:29,1,120
34,95,84546,1,0,0:0:0:0:
105,154,84874,6,0,P|146:265|255:249,1,240
369,171,86841,6,0,L|355:249,1,60
337,318,87497,1,0,0:0:0:0:
