osu file format v14

[General]
AudioFilename: OP Silhouette.mp3
AudioLeadIn: 0
PreviewTime: 45038
Countdown: 0
SampleSet: Soft
StackLeniency: 0.7
Mode: 3
LetterboxInBreaks: 0
SpecialStyle: 0
WidescreenStoryboard: 0

[Editor]
DistanceSpacing: 1.2
BeatDivisor: 4
GridSize: 32
TimelineZoom: 2.200001

[Metadata]
Title:Silhouette
TitleUnicode:シルエット
Artist:KANA-BOON
ArtistUnicode:KANA-BOON
Creator:ExKagii-
Version:Kyou's EZ
Source:NARUTO-ナルト-疾風伝
Tags:naruto shippuden op opening 16 谷口鮪 Taniguchi Maguro TIME Kyousuke- Shinzo-
BeatmapID:694475
BeatmapSetID:310793

[Difficulty]
HPDrainRate:6
CircleSize:4
OverallDifficulty:7
ApproachRate:5
SliderMultiplier:1.4
SliderTickRate:1

[Events]
//Background and Video events
0,0,"BG.png",0,0
//Break Periods
//Storyboard Layer 0 (Background)
//Storyboard Layer 1 (Fail)
//Storyboard Layer 2 (Pass)
//Storyboard Layer 3 (Foreground)
//Storyboard Sound Samples

[TimingPoints]
940,327.868852459016,4,2,1,60,1,0
45530,-100,4,2,1,60,0,1
77005,-100,4,2,1,60,0,0

[HitObjects]
448,192,612,5,0,0:0:0:60:
64,192,612,1,2,0:0:0:0:
192,192,940,1,0,0:0:0:60:
320,192,1267,1,8,0:0:0:60:
448,192,1595,1,0,0:0:0:0:
64,192,1923,1,8,0:0:0:60:
448,192,2251,128,0,2907:0:0:0:60:
320,192,2251,1,8,0:0:0:60:
192,192,2907,1,8,0:0:0:60:
64,192,3562,128,2,4874:0:0:0:60:
320,192,3562,1,4,0:0:0:60:
448,192,4218,1,0,0:0:0:60:
320,192,4546,1,0,0:0:0:60:
192,192,4874,128,0,6185:0:0:0:60:
448,192,4874,1,0,0:0:0:60:
64,192,5530,1,0,0:0:0:60:
320,192,5858,1,0,0:0:0:60:
64,192,6185,1,0,0:0:0:60:
448,192,6185,128,0,7497:0:0:0:60:
192,192,6841,1,0,0:0:0:60:
320,192,7169,1,0,0:0:0:60:
64,192,7497,1,0,0:0:0:60:
320,192,7989,128,0,8480:0:0:0:60:
192,192,8480,1,0,0:0:0:60:
64,192,8808,128,0,9300:0:0:0:60:
448,192,9300,128,0,9792:0:0:0:60:
64,192,9792,1,0,0:0:0:60:
320,192,10120,128,0,11431:0:0:0:60:
448,192,11431,128,0,11923:0:0:0:60:
64,192,11431,1,0,0:0:0:60:
192,192,11923,128,0,12415:0:0:0:60:
320,192,12415,1,0,0:0:0:60:
64,192,12743,128,0,13235:0:0:0:60:
448,192,12743,1,0,0:0:0:60:
320,192,13235,128,0,13726:0:0:0:60:
192,192,13726,128,0,14054:0:0:0:60:
64,192,14054,1,4,0:0:0:60:
320,192,14382,1,8,0:0:0:60:
64,192,14710,1,0,0:0:0:60:
448,192,14874,1,0,0:0:0:60:
192,192,15038,1,8,0:0:0:60:
64,192,15366,1,0,0:0:0:60:
320,192,15694,1,8,0:0:0:60:
64,192,16021,1,0,0:0:0:60:
192,192,16185,1,0,0:0:0:60:
448,192,16349,1,8,0:0:0:60:
64,192,16677,1,0,0:0:0:60:
320,192,17005,1,8,0:0:0:60:
448,192,17333,1,0,0:0:0:60:
64,192,17497,1,0,0:0:0:60:
192,192,17661,1,8,0:0:0:60:
448,192,17989,1,0,0:0:0:60:
64,192,18317,1,8,0:0:0:60:
320,192,18644,1,0,0:0:0:60:
192,192,18808,1,0,0:0:0:60:
448,192,18972,5,8,0:0:0:60:
64,192,19300,1,0,0:0:0:60:
192,192,19628,1,8,0:0:0:60:
448,192,19956,1,0,0:0:0:60:
320,192,20120,1,0,0:0:0:60:
64,192,20284,5,8,0:0:0:60:
448,192,20612,1,0,0:0:0:60:
320,192,20939,1,8,0:0:0:60:
64,192,21267,1,0,0:0:0:60:
192,192,21431,1,0,0:0:0:60:
448,192,21595,1,8,0:0:0:60:
64,192,21923,1,0,0:0:0:60:
192,192,22251,1,8,0:0:0:60:
448,192,22579,1,0,0:0:0:60:
320,192,22743,1,0,0:0:0:60:
64,192,22907,1,8,0:0:0:60:
448,192,23235,1,0,0:0:0:60:
320,192,23562,1,8,0:0:0:60:
192,192,23890,1,0,0:0:0:60:
448,192,24054,1,0,0:0:0:60:
64,192,24218,1,8,0:0:0:60:
320,192,24546,1,4,0:0:0:60:
192,192,24546,1,0,0:0:0:60:
448,192,24874,1,8,0:0:0:60:
192,192,25202,1,0,0:0:0:60:
64,192,25366,1,0,0:0:0:60:
320,192,25530,1,8,0:0:0:60:
192,192,25858,1,0,0:0:0:60:
448,192,26185,1,8,0:0:0:60:
320,192,26513,1,0,0:0:0:60:
64,192,26677,1,0,0:0:0:60:
448,192,26841,1,8,0:0:0:60:
192,192,27169,1,0,0:0:0:60:
320,192,27497,1,8,0:0:0:60:
64,192,27825,1,0,0:0:0:60:
192,192,27989,1,0,0:0:0:60:
448,192,28153,1,8,0:0:0:60:
64,192,28480,1,0,0:0:0:60:
320,192,28808,1,8,0:0:0:60:
192,192,29136,1,0,0:0:0:60:
64,192,29300,1,0,0:0:0:60:
448,192,29464,1,8,0:0:0:60:
192,192,29792,1,0,0:0:0:60:
320,192,30120,1,8,0:0:0:60:
64,192,30448,1,0,0:0:0:60:
448,192,30612,1,0,0:0:0:60:
192,192,30776,1,8,0:0:0:60:
64,192,31103,1,0,0:0:0:60:
320,192,31431,1,8,0:0:0:60:
192,192,31759,1,0,0:0:0:60:
64,192,31923,1,0,0:0:0:60:
448,192,32087,1,8,0:0:0:60:
320,192,32415,1,0,0:0:0:60:
64,192,32743,1,8,0:0:0:60:
448,192,33071,1,0,0:0:0:60:
192,192,33235,1,0,0:0:0:60:
320,192,33399,1,8,0:0:0:60:
448,192,33726,1,0,0:0:0:60:
192,192,34054,1,8,0:0:0:60:
64,192,34382,1,8,0:0:0:60:
192,192,34546,1,8,0:0:0:60:
448,192,34710,1,8,0:0:0:60:
320,192,34874,1,8,0:0:0:60:
64,192,35038,1,4,0:0:0:60:
192,192,35038,1,0,0:0:0:60:
320,192,35366,1,0,0:0:0:60:
448,192,35530,1,8,0:0:0:60:
192,192,35858,1,0,0:0:0:60:
64,192,36021,1,8,0:0:0:60:
448,192,36349,1,0,0:0:0:60:
192,192,36349,1,4,0:0:0:60:
64,192,36677,1,0,0:0:0:60:
320,192,36841,1,8,0:0:0:60:
448,192,37169,1,0,0:0:0:60:
192,192,37333,1,8,0:0:0:60:
64,192,37661,1,0,0:0:0:60:
448,192,37661,1,4,0:0:0:60:
192,192,37989,1,0,0:0:0:60:
320,192,38153,1,8,0:0:0:60:
448,192,38480,1,0,0:0:0:60:
64,192,38644,1,8,0:0:0:60:
320,192,38972,1,4,0:0:0:60:
192,192,38972,1,0,0:0:0:60:
64,192,39300,1,0,0:0:0:60:
448,192,39464,1,8,0:0:0:60:
320,192,39792,1,0,0:0:0:60:
192,192,39956,1,8,0:0:0:60:
64,192,40284,128,0,42907:0:0:0:60:
320,192,40284,1,2,0:0:0:60:
448,192,40612,1,8,0:0:0:60:
192,192,40939,1,0,0:0:0:60:
448,192,41267,1,8,0:0:0:60:
320,192,41595,1,0,0:0:0:60:
192,192,41923,1,8,0:0:0:60:
448,192,42251,1,0,0:0:0:60:
320,192,42579,1,8,0:0:0:60:
448,192,42907,128,0,44874:0:0:0:60:
192,192,42907,1,2,0:0:0:60:
320,192,43235,1,8,0:0:0:60:
64,192,43562,1,0,0:0:0:60:
320,192,43890,1,8,0:0:0:60:
64,192,44218,1,0,0:0:0:60:
192,192,44546,1,8,0:0:0:60:
320,192,44874,1,8,0:0:0:60:
64,192,45530,1,2,0:0:0:60:
448,192,45530,1,4,0:0:0:60:
192,192,45858,1,8,0:0:0:60:
320,192,46185,1,0,0:0:0:60:
448,192,46513,1,8,0:0:0:60:
64,192,46841,1,0,0:0:0:60:
320,192,47169,1,8,0:0:0:60:
192,192,47497,1,0,0:0:0:60:
448,192,47825,1,8,0:0:0:60:
320,192,48153,1,0,0:0:0:60:
64,192,48480,1,8,0:0:0:60:
192,192,48808,1,0,0:0:0:60:
320,192,49136,1,8,0:0:0:60:
448,192,49464,1,0,0:0:0:60:
64,192,49792,1,8,0:0:0:60:
192,192,50120,1,0,0:0:0:60:
448,192,50448,1,8,0:0:0:60:
64,192,50776,1,0,0:0:0:60:
320,192,51103,1,8,0:0:0:60:
192,192,51431,1,0,0:0:0:60:
448,192,51759,1,8,0:0:0:60:
64,192,52087,1,0,0:0:0:60:
320,192,52415,1,8,0:0:0:60:
192,192,52743,1,0,0:0:0:60:
448,192,53071,1,8,0:0:0:60:
64,192,53399,1,0,0:0:0:60:
320,192,53726,1,8,0:0:0:60:
448,192,54054,1,0,0:0:0:60:
192,192,54382,1,8,0:0:0:60:
64,192,54710,1,8,0:0:0:60:
192,192,55038,1,8,0:0:0:60:
320,192,55366,1,0,0:0:0:60:
64,192,55530,1,0,0:0:0:60:
448,192,55694,1,8,0:0:0:60:
320,192,56021,1,0,0:0:0:60:
192,192,56021,1,4,0:0:0:60:
448,192,56349,1,8,0:0:0:60:
320,192,56677,1,0,0:0:0:60:
192,192,57005,1,8,0:0:0:60:
448,192,57333,1,0,0:0:0:60:
64,192,57661,1,8,0:0:0:60:
320,192,57989,1,0,0:0:0:60:
192,192,58317,1,8,0:0:0:60:
448,192,58644,1,0,0:0:0:60:
64,192,58972,1,8,0:0:0:60:
192,192,59300,1,0,0:0:0:60:
320,192,59628,1,8,0:0:0:60:
448,192,59956,1,0,0:0:0:60:
64,192,60284,1,8,0:0:0:60:
320,192,60612,1,0,0:0:0:60:
64,192,60939,1,8,0:0:0:60:
448,192,61267,1,0,0:0:0:60:
192,192,61595,1,8,0:0:0:60:
448,192,61923,1,0,0:0:0:60:
64,192,62251,1,8,0:0:0:60:
320,192,62579,1,0,0:0:0:60:
448,192,62907,1,8,0:0:0:60:
64,192,63235,1,0,0:0:0:60:
320,192,63562,1,8,0:0:0:60:
192,192,63890,5,0,0:0:0:60:
448,192,64218,1,8,0:0:0:60:
64,192,64546,1,0,0:0:0:60:
448,192,64874,1,8,0:0:0:60:
192,192,65202,1,0,0:0:0:60:
320,192,65530,1,8,0:0:0:60:
64,192,65858,1,0,0:0:0:60:
448,192,66185,128,0,66513:0:0:0:60:
320,192,66185,1,8,0:0:0:60:
64,192,66513,1,0,0:0:0:60:
192,192,66513,1,4,0:0:0:60:
320,192,66841,1,8,0:0:0:60:
192,192,67169,1,0,0:0:0:60:
448,192,67497,1,8,0:0:0:60:
320,192,67825,1,0,0:0:0:60:
64,192,68153,1,8,0:0:0:60:
192,192,68480,1,0,0:0:0:60:
448,192,68808,1,8,0:0:0:60:
320,192,69136,1,0,0:0:0:60:
64,192,69464,1,8,0:0:0:60:
448,192,69792,1,0,0:0:0:60:
192,192,70120,1,8,0:0:0:60:
64,192,70448,1,0,0:0:0:60:
448,192,70776,1,8,0:0:0:60:
192,192,71103,1,0,0:0:0:60:
320,192,71431,1,8,0:0:0:60:
448,192,71759,1,0,0:0:0:60:
64,192,72087,1,8,0:0:0:60:
320,192,72415,1,0,0:0:0:60:
192,192,72743,1,8,0:0:0:60:
64,192,73071,1,0,0:0:0:60:
448,192,73399,1,8,0:0:0:60:
192,192,73726,1,0,0:0:0:60:
320,192,74054,1,8,0:0:0:60:
448,192,74382,1,0,0:0:0:60:
64,192,74710,1,8,0:0:0:60:
320,192,75038,1,0,0:0:0:60:
192,192,75366,1,8,0:0:0:60:
64,192,75694,1,0,0:0:0:60:
448,192,75858,1,0,0:0:0:60:
192,192,76021,1,12,0:0:0:60:
448,192,76349,1,0,0:0:0:60:
64,192,76513,1,0,0:0:0:60:
320,192,76677,1,12,0:0:0:60:
64,192,77005,128,0,78317:0:0:0:60:
448,192,77005,1,12,0:0:0:60:
320,192,77497,1,8,0:0:0:60:
448,192,77825,1,8,0:0:0:60:
320,192,77989,1,8,0:0:0:60:
192,192,78317,128,4,79628:0:0:0:60:
448,192,78317,1,8,0:0:0:60:
448,192,78808,1,8,0:0:0:60:
320,192,79136,1,8,0:0:0:60:
448,192,79300,1,8,0:0:0:60:
320,192,79628,128,4,80939:0:0:0:60:
64,192,79628,1,8,0:0:0:60:
64,192,80120,1,8,0:0:0:60:
192,192,80448,1,8,0:0:0:60:
64,192,80612,1,8,0:0:0:60:
448,192,80939,128,4,82251:0:0:0:60:
192,192,80939,1,8,0:0:0:60:
192,192,81431,1,8,0:0:0:60:
64,192,81759,1,8,0:0:0:60:
192,192,81923,1,8,0:0:0:60:
64,192,82251,1,4,0:0:0:60:
320,192,82579,1,8,0:0:0:60:
192,192,82907,1,2,0:0:0:60:
448,192,83235,1,8,0:0:0:60:
64,192,83562,1,2,0:0:0:60:
320,192,83890,1,8,0:0:0:60:
64,192,84218,1,8,0:0:0:60:
448,192,84546,1,8,0:0:0:60:
192,192,84874,1,2,0:0:0:60:
320,192,85038,1,8,0:0:0:60:
64,192,85202,1,8,0:0:0:60:
448,192,85366,1,8,0:0:0:60:
320,192,85694,1,8,0:0:0:60:
192,192,85858,1,8,0:0:0:60:
64,192,86021,1,8,0:0:0:60:
192,192,86349,1,8,0:0:0:60:
320,192,86513,1,8,0:0:0:60:
448,192,86677,1,8,0:0:0:60:
320,192,87005,1,8,0:0:0:60:
192,192,87169,1,8,0:0:0:60:
448,192,87333,128,4,87497:0:0:0:60:
64,192,87333,1,8,0:0:0:60:
