osu file format v14

[General]
AudioFilename: 01 Nandemo Nedari.mp3
AudioLeadIn: 0
PreviewTime: 82626
Countdown: 0
SampleSet: Soft
StackLeniency: 0.6
Mode: 0
LetterboxInBreaks: 0
WidescreenStoryboard: 0

[Editor]
DistanceSpacing: 1
BeatDivisor: 4
GridSize: 4
TimelineZoom: 1.900001

[Metadata]
Title:Nandemo Nedari
TitleUnicode:なんでもねだり
Artist:KANA-BOON
ArtistUnicode:KANA-BOON
Creator:iYiyo
Version:What do you want?
Source:
Tags:j-pop jpop shiseido anessa asking for the world
BeatmapID:1156642
BeatmapSetID:546011

[Difficulty]
HPDrainRate:6.5
CircleSize:4
OverallDifficulty:8
ApproachRate:8.8
SliderMultiplier:1.7
SliderTickRate:1

[Events]
//Background and Video events
0,0,"4321.jpg",0,0
//Break Periods
2,239590,245752
//Storyboard Layer 0 (Background)
//Storyboard Layer 1 (Fail)
//Storyboard Layer 2 (Pass)
//Storyboard Layer 3 (Foreground)
//Storyboard Sound Samples

[TimingPoints]
448,428.571428571429,4,2,1,40,1,0
14162,-83.3333333333333,4,2,1,50,0,0
41590,-100,4,2,1,40,0,0
55305,-100,4,2,1,50,0,0
69019,-100,4,2,1,50,0,0
71912,-100,4,2,1,5,0,0
72019,-100,4,2,1,50,0,0
72126,-100,4,2,1,5,0,0
72233,-100,4,2,1,50,0,0
75340,-100,4,2,1,5,0,0
75448,-100,4,2,1,50,0,0
75555,-100,4,2,1,5,0,0
75662,-100,4,2,1,50,0,0
78769,-100,4,2,1,5,0,0
78876,-100,4,2,1,50,0,0
78983,-100,4,2,1,5,0,0
79090,-100,4,2,1,50,0,0
82733,-71.4285714285714,4,2,1,60,0,1
110162,-100,4,2,1,50,0,0
113590,-100,4,2,1,30,0,0
127305,-100,4,2,1,40,0,0
141019,-100,4,2,1,50,0,0
143912,-100,4,2,1,5,0,0
144019,-100,4,2,1,50,0,0
144126,-100,4,2,1,5,0,0
144233,-100,4,2,1,50,0,0
147340,-100,4,2,1,5,0,0
147448,-100,4,2,1,50,0,0
147555,-100,4,2,1,5,0,0
147662,-100,4,2,1,50,0,0
150769,-100,4,2,1,5,0,0
150876,-100,4,2,1,50,0,0
150983,-100,4,2,1,5,0,0
151090,-100,4,2,1,50,0,0
155698,-100,4,2,1,5,0,0
155912,-100,4,2,1,50,0,0
156019,-100,4,2,1,5,0,0
156233,-100,4,2,1,50,0,0
156448,-71.4285714285714,4,2,1,60,0,1
183876,-83.3333333333333,4,2,1,50,0,0
187090,-83.3333333333333,4,2,1,5,0,0
187305,-83.3333333333333,4,2,1,40,0,0
190305,-83.3333333333333,4,2,1,30,0,0
197590,-100,4,2,1,40,0,0
203483,350.877192982456,4,2,1,40,1,0
203570,-100,4,2,1,5,0,0
203833,-100,4,2,1,40,0,0
203921,-100,4,2,1,5,0,0
204184,-100,4,2,1,40,0,0
204272,-100,4,2,1,5,0,0
204447,444.444444444444,4,2,1,40,1,0
205305,428.571428571429,4,2,1,50,1,0
224162,-100,4,2,1,40,0,0
246447,-100,4,2,1,30,0,0
249876,-100,4,2,1,50,0,0
252876,-50,4,2,1,50,0,0
253197,-50,4,2,1,5,0,0
253305,-71.4285714285714,4,2,1,60,0,1
280733,-83.3333333333333,4,2,1,50,0,0
294447,-83.3333333333333,4,2,1,30,0,0
301305,-83.3333333333333,4,2,1,50,0,0
306447,428.571428571429,4,2,1,40,1,0
307197,350.877192982456,4,2,1,50,1,0
307898,389.61038961039,4,2,1,40,1,0
307898,-142.857142857143,4,2,1,40,0,0
309361,-181.818181818182,4,2,1,5,0,0
309456,379.746835443038,4,2,1,40,1,0
310303,425.531914893617,4,2,1,40,1,0

[Colours]
Combo1 : 4,255,255
Combo2 : 255,128,64
Combo3 : 255,40,40
Combo4 : 255,255,23

[HitObjects]
327,154,448,6,0,P|282:159|242:148,1,85,6|0,0:0|0:0,0:0:0:0:
200,69,876,2,0,P|219:150|164:216,1,170,8|2,0:0|0:0,0:0:0:0:
56,276,1519,1,8,0:0:0:0:
165,330,1733,1,8,0:0:0:0:
195,333,1840,1,8,0:0:0:0:
225,333,1947,1,8,0:0:0:0:
254,330,2054,1,8,0:0:0:0:
282,325,2162,6,0,P|303:319|324:320,3,42.5,10|8|8|8,0:0|0:0|0:0|0:0,0:0:0:0:
240,232,2590,2,0,P|219:226|198:227,3,42.5,8|8|8|8,0:0|0:0|0:0|0:0,0:0:0:0:
333,173,3019,1,10,0:0:0:0:
333,173,3126,1,8,0:0:0:0:
333,173,3233,2,0,P|355:170|376:173,1,42.5,8|8,0:0|0:0,0:0:0:0:
303,75,3448,2,0,P|281:72|260:75,1,42.5,8|0,0:0|0:0,0:0:0:0:
448,124,3662,1,8,0:0:0:0:
448,124,3769,1,8,0:0:0:0:
448,124,3876,6,0,P|463:176|455:212,1,85,6|0,0:0|0:0,0:0:0:0:
369,285,4305,2,0,P|449:278|475:202,1,170,8|2,0:0|0:0,0:0:0:0:
384,88,4948,1,8,0:0:0:0:
296,185,5162,1,8,0:0:0:0:
279,209,5269,1,8,0:0:0:0:
259,231,5376,1,8,0:0:0:0:
231,240,5483,1,8,0:0:0:0:
202,235,5590,6,0,L|210:184,3,42.5,10|8|8|8,0:0|0:0|0:0|0:0,0:0:0:0:
118,262,6019,2,0,L|124:303,3,42.5,8|8|8|8,0:0|0:0|0:0|0:0,0:0:0:0:
62,191,6448,1,10,0:0:0:0:
62,191,6555,1,8,0:0:0:0:
62,191,6662,2,0,L|68:146,1,42.5,8|8,0:0|0:0,0:0:0:0:
164,105,6876,2,0,L|169:147,1,42.5,8|0,0:0|0:0,0:0:0:0:
300,130,7090,1,8,0:0:0:0:
300,130,7198,1,8,0:0:0:0:
300,130,7305,6,0,P|297:88|304:46,1,85,6|0,0:0|0:0,0:0:0:0:
370,212,7734,2,0,P|305:163|232:199,1,170,8|2,0:0|0:0,0:0:0:0:
244,300,8376,1,8,0:0:0:0:
356,323,8590,1,8,0:0:0:0:
384,315,8697,1,8,0:0:0:0:
407,297,8804,1,8,0:0:0:0:
423,272,8911,1,8,0:0:0:0:
428,243,9019,6,0,P|427:221|431:201,3,42.5,10|8|8|8,0:0|0:0|0:0|0:0,0:0:0:0:
355,173,9448,2,0,P|357:151|353:131,3,42.5,8|8|8|8,0:0|0:0|0:0|0:0,0:0:0:0:
437,97,9876,1,10,0:0:0:0:
437,97,9983,1,8,0:0:0:0:
437,97,10090,2,0,P|439:75|435:55,1,42.5,8|8,0:0|0:0,0:0:0:0:
270,69,10305,2,0,P|268:91|272:111,1,42.5,8|0,0:0|0:0,0:0:0:0:
340,249,10519,1,8,0:0:0:0:
340,249,10626,1,8,0:0:0:0:
340,249,10733,6,0,P|292:252|244:241,1,85,6|0,0:0|0:0,0:0:0:0:
160,249,11162,2,0,P|237:226|249:146,1,170,8|2,0:0|0:0,0:0:0:0:
239,44,11805,1,8,0:0:0:0:
399,125,12019,2,0,B|422:131|421:130|441:125,2,42.5,8|8|8,0:0|0:0|0:0,0:0:0:0:
191,137,12448,5,6,0:0:0:0:
344,40,12662,1,0,0:0:0:0:
356,216,12876,1,8,0:0:0:0:
239,44,13090,1,0,0:0:0:0:
399,125,13305,1,6,0:0:0:0:
316,310,13519,1,8,0:0:0:0:
274,317,13626,1,8,0:0:0:0:
234,304,13733,1,8,0:0:0:0:
206,273,13840,1,8,0:0:0:0:
195,232,13947,1,8,0:0:0:0:
206,191,14054,1,8,0:0:0:0:
234,160,14162,6,0,P|279:140|327:155,1,101.999996887207,6|0,0:0|0:0,0:0:0:0:
477,319,14590,2,0,P|431:339|383:324,1,101.999996887207,8|0,0:0|0:0,0:0:0:0:
253,188,15019,1,2,0:0:0:0:
404,156,15233,1,0,0:0:0:0:
352,304,15448,1,8,0:0:0:0:
319,125,15662,6,0,P|317:70|322:17,1,101.999996887207,0|2,0:0|0:0,0:0:0:0:
190,131,16090,2,0,P|192:76|187:23,1,101.999996887207,0|8,0:0|0:0,0:0:0:0:
72,172,16519,2,0,P|70:117|75:64,1,101.999996887207,0|2,0:0|0:0,0:0:0:0:
156,230,16948,1,0,0:0:0:0:
5,244,17162,1,8,0:0:0:0:
92,352,17376,1,0,0:0:0:0:
248,204,17590,6,0,B|234:157|234:157|180:131,1,101.999996887207,2|0,0:0|0:0,0:0:0:0:
255,298,18019,2,0,B|298:321|298:321|354:301,1,101.999996887207,8|0,0:0|0:0,0:0:0:0:
432,176,18448,1,2,0:0:0:0:
296,108,18662,1,0,0:0:0:0:
308,260,18876,1,8,0:0:0:0:
351,69,19090,6,0,L|250:85,1,101.999996887207,0|2,0:0|0:0,0:0:0:0:
132,172,19519,2,0,L|233:188,1,101.999996887207,0|8,0:0|0:0,0:0:0:0:
360,290,19948,2,0,L|259:306,1,101.999996887207,0|2,0:0|0:0,0:0:0:0:
110,314,20376,2,0,L|117:263,1,50.9999984436036
132,172,20590,1,8,0:0:0:0:
259,305,20805,1,0,0:0:0:0:
228,64,21019,5,6,0:0:0:0:
380,223,21234,1,0,0:0:0:0:
334,37,21448,1,8,0:0:0:0:
273,249,21663,1,0,0:0:0:0:
122,91,21876,5,2,0:0:0:0:
356,128,22090,1,0,0:0:0:0:
164,201,22305,1,8,0:0:0:0:
313,17,22519,1,0,0:0:0:0:
398,214,22733,6,0,B|352:232|352:232|305:206,1,101.999996887207,2|0,0:0|0:0,0:0:0:0:
232,116,23162,1,8,0:0:0:0:
476,173,23376,2,0,B|491:231|491:231|468:266,1,101.999996887207,0|2,0:0|0:0,0:0:0:0:
352,320,23805,1,0,0:0:0:0:
356,128,24019,1,8,0:0:0:0:
273,249,24233,1,0,0:0:0:0:
476,173,24448,5,6,0:0:0:0:
232,116,24662,1,0,0:0:0:0:
430,103,24876,1,8,0:0:0:0:
199,200,25090,1,8,0:0:0:0:
199,200,25198,1,8,0:0:0:0:
199,200,25305,5,10,0:0:0:0:
265,32,25519,1,0,0:0:0:0:
273,249,25733,1,8,0:0:0:0:
183,93,25948,1,8,0:0:0:0:
183,93,26055,1,8,0:0:0:0:
183,93,26162,5,14,0:0:0:0:
348,104,26377,1,0,0:0:0:0:
199,200,26590,1,8,0:0:0:0:
265,32,26805,1,0,0:0:0:0:
316,204,27019,5,6,0:0:0:0:
433,70,27233,1,8,0:0:0:0:
432,103,27340,1,8,0:0:0:0:
431,137,27447,1,8,0:0:0:0:
429,171,27554,1,8,0:0:0:0:
426,205,27661,1,8,0:0:0:0:
422,239,27768,1,8,0:0:0:0:
416,273,27876,6,0,P|370:292|307:265,1,101.999996887207,6|0,0:0|0:0,0:0:0:0:
142,146,28305,2,0,P|186:123|251:144,1,101.999996887207,8|0,0:0|0:0,0:0:0:0:
360,199,28733,1,2,0:0:0:0:
265,32,28948,1,0,0:0:0:0:
199,200,29162,1,8,0:0:0:0:
412,128,29376,6,0,L|420:244,1,101.999996887207,0|2,0:0|0:0,0:0:0:0:
298,175,29805,2,0,L|290:291,1,101.999996887207,0|8,0:0|0:0,0:0:0:0:
160,148,30233,2,0,L|168:264,1,101.999996887207,0|2,0:0|0:0,0:0:0:0:
78,129,30662,1,0,0:0:0:0:
242,181,30876,1,8,0:0:0:0:
102,290,31090,1,0,0:0:0:0:
276,112,31305,6,0,B|327:101|327:101|384:120,1,101.999996887207,2|0,0:0|0:0,0:0:0:0:
421,304,31733,2,0,B|370:315|370:315|313:296,1,101.999996887207,8|0,0:0|0:0,0:0:0:0:
173,311,32162,1,2,0:0:0:0:
320,192,32376,1,0,0:0:0:0:
117,181,32590,1,8,0:0:0:0:
276,112,32805,6,0,B|320:99|320:99|373:116,1,101.999996887207,0|2,0:0|0:0,0:0:0:0:
355,301,33233,2,0,B|311:314|311:314|257:296,1,101.999996887207,0|8,0:0|0:0,0:0:0:0:
438,168,33662,2,0,B|451:212|451:212|433:265,1,101.999996887207,0|2,0:0|0:0,0:0:0:0:
275,158,34090,2,0,L|281:108,1,50.9999984436036
224,32,34305,1,8,0:0:0:0:
372,104,34519,1,0,0:0:0:0:
139,195,34733,5,6,0:0:0:0:
275,158,34948,1,0,0:0:0:0:
311,294,35162,1,8,0:0:0:0:
176,332,35376,1,0,0:0:0:0:
185,128,35590,5,2,0:0:0:0:
332,212,35805,1,0,0:0:0:0:
248,356,36019,1,8,0:0:0:0:
100,272,36233,1,0,0:0:0:0:
274,158,36448,6,0,P|323:135|377:148,1,101.999996887207,2|0,0:0|0:0,0:0:0:0:
414,285,36877,1,8,0:0:0:0:
214,214,37090,2,0,P|190:165|203:111,1,101.999996887207,0|2,0:0|0:0,0:0:0:0:
369,143,37520,1,0,0:0:0:0:
320,300,37734,1,8,0:0:0:0:
275,158,37948,1,0,0:0:0:0:
427,33,38162,5,6,0:0:0:0:
249,68,38376,1,0,0:0:0:0:
444,121,38590,1,8,0:0:0:0:
275,158,38805,1,8,0:0:0:0:
275,158,38912,1,8,0:0:0:0:
275,158,39019,5,10,0:0:0:0:
427,33,39233,1,0,0:0:0:0:
275,158,39448,1,8,0:0:0:0:
160,24,39662,1,8,0:0:0:0:
160,24,39769,1,8,0:0:0:0:
160,24,39876,5,14,0:0:0:0:
336,52,40090,1,0,0:0:0:0:
177,174,40305,1,2,0:0:0:0:
363,251,40519,1,0,0:0:0:0:
259,114,40733,5,8,0:0:0:0:
249,308,40948,1,0,0:0:0:0:
100,255,41162,1,8,0:0:0:0:
107,224,41269,1,8,0:0:0:0:
127,200,41376,1,8,0:0:0:0:
150,184,41483,1,8,0:0:0:0:
176,173,41590,6,0,P|217:163|256:179,1,85,6|0,0:0|0:0,0:0:0:0:
284,380,42019,2,0,P|255:349|249:308,1,85,2|0,0:0|0:0,0:0:0:0:
457,199,42448,2,0,P|451:240|422:270,1,85,2|0,0:0|0:0,0:0:0:0:
244,131,42876,1,2,0:0:0:0:
379,204,43090,1,0,0:0:0:0:
302,325,43305,6,0,L|216:343,1,85,2|0,0:0|0:0,0:0:0:0:
87,221,43733,2,0,L|173:239,1,85,2|0,0:0|0:0,0:0:0:0:
302,325,44162,1,2,0:0:0:0:
256,172,44376,1,0,0:0:0:0:
408,216,44590,1,2,0:0:0:0:
287,82,44805,1,8,0:0:0:0:
287,82,44912,1,8,0:0:0:0:
287,82,45019,6,0,B|241:75|241:75|207:94,1,85,2|0,0:0|0:0,0:0:0:0:
394,113,45448,2,0,B|400:67|400:67|381:33,1,85,2|0,0:0|0:0,0:0:0:0:
328,228,45876,2,0,B|373:234|373:234|407:215,1,85,2|0,0:0|0:0,0:0:0:0:
381,33,46305,1,2,0:0:0:0:
452,131,46519,1,0,0:0:0:0:
287,82,46733,6,0,B|241:75|241:75|207:94,1,85,2|0,0:0|0:0,0:0:0:0:
113,23,47162,2,0,B|76:51|76:51|65:87,1,85,2|0,0:0|0:0,0:0:0:0:
60,236,47590,1,2,0:0:0:0:
144,152,47805,1,0,0:0:0:0:
136,296,48019,1,2,0:0:0:0:
250,135,48233,1,8,0:0:0:0:
250,135,48340,1,8,0:0:0:0:
250,135,48448,6,0,B|268:174|248:215|248:215|254:225|254:225|232:260|250:297,1,170,2|2,0:0|0:0,0:0:0:0:
423,250,49090,1,0,0:0:0:0:
340,117,49305,1,2,0:0:0:0:
496,111,49519,1,0,0:0:0:0:
403,250,49733,1,2,0:0:0:0:
354,105,49948,1,0,0:0:0:0:
512,281,50162,6,0,B|474:294|440:277|440:277|416:291|416:291|379:272|350:281,1,170,2|2,0:0|0:0,0:0:0:0:
208,260,50805,1,0,0:0:0:0:
323,175,51019,1,2,0:0:0:0:
180,168,51233,1,0,0:0:0:0:
336,91,51448,2,0,L|320:195,1,85,2|8,0:0|0:0,0:0:0:0:
360,252,51769,1,8,0:0:0:0:
360,252,51876,6,0,P|438:242|453:164,1,170,2|2,0:0|0:0,0:0:0:0:
412,48,52519,1,0,0:0:0:0:
280,36,52733,2,0,L|192:52,1,85,2|0,0:0|0:0,0:0:0:0:
77,123,53162,2,0,L|165:139,1,85,2|0,0:0|0:0,0:0:0:0:
312,136,53590,5,6,0:0:0:0:
212,288,53805,1,0,0:0:0:0:
236,112,54019,1,8,0:0:0:0:
300,300,54233,1,0,0:0:0:0:
388,112,54448,1,2,0:0:0:0:
388,288,54662,1,0,0:0:0:0:
236,112,54876,1,8,0:0:0:0:
236,112,54983,1,8,0:0:0:0:
236,112,55090,1,8,0:0:0:0:
20,285,55305,6,0,B|132:317|132:317|180:285,1,170,6|8,0:0|0:0,0:0:0:0:
264,208,55948,1,0,0:0:0:0:
132,104,56162,2,0,L|39:85,1,85,2|0,0:0|0:0,0:0:0:0:
75,213,56590,2,0,L|168:194,1,85,8|0,0:0|0:0,0:0:0:0:
236,112,57019,6,0,P|311:85|366:144,1,170,2|8,0:0|0:0,0:0:0:0:
482,190,57662,1,0,0:0:0:0:
410,287,57876,2,0,B|355:301|355:301|329:289,1,85,2|0,0:0|0:0,0:0:0:0:
183,210,58305,2,0,B|238:196|238:196|263:207,1,85,8|0,0:0|0:0,0:0:0:0:
117,266,58733,6,0,P|100:186|157:127,1,170,2|8,0:0|0:0,0:0:0:0:
284,112,59376,1,0,0:0:0:0:
388,239,59590,2,0,P|345:242|303:236,1,85,2|0,0:0|0:0,0:0:0:0:
183,210,60019,1,8,0:0:0:0:
284,112,60233,1,0,0:0:0:0:
96,64,60448,6,0,B|76:95|76:95|81:142,1,85,2|0,0:0|0:0,0:0:0:0:
170,288,60876,2,0,B|190:257|190:257|183:210,1,85,8|0,0:0|0:0,0:0:0:0:
81,142,61305,1,2,0:0:0:0:
284,112,61519,1,0,0:0:0:0:
96,64,61733,1,8,0:0:0:0:
269,190,61948,1,0,0:0:0:0:
66,220,62162,6,0,L|72:320,1,85,6|0,0:0|0:0,0:0:0:0:
246,352,62590,2,0,L|251:267,1,85,8|0,0:0|0:0,0:0:0:0:
284,112,63019,1,2,0:0:0:0:
392,220,63233,1,0,0:0:0:0:
392,60,63448,1,8,0:0:0:0:
500,168,63662,1,0,0:0:0:0:
308,26,63876,6,0,B|233:-4|216:50|141:25,1,170,2|8,0:0|0:0,0:0:0:0:
24,56,64519,1,0,0:0:0:0:
20,183,64733,2,0,P|22:226|28:268,1,85,2|0,0:0|0:0,0:0:0:0:
161,340,65162,2,0,P|167:298|169:255,1,85,8|0,0:0|0:0,0:0:0:0:
127,135,65590,6,0,P|152:67|210:112,1,170,6|8,0:0|0:0,0:0:0:0:
288,216,66233,1,0,0:0:0:0:
288,216,66448,2,0,P|345:261|370:192,1,170,2|8,0:0|0:0,0:0:0:0:
332,56,67090,1,8,0:0:0:0:
332,56,67198,1,8,0:0:0:0:
332,56,67305,6,0,P|286:61|228:64,1,85,6|0,0:0|0:0,0:0:0:0:
117,156,67733,2,0,P|162:161|221:164,1,85,8|0,0:0|0:0,0:0:0:0:
364,132,68162,21,2,0:0:0:0:
312,328,68590,1,8,0:0:0:0:
192,263,68805,1,8,0:0:0:0:
192,263,68912,1,8,0:0:0:0:
192,263,69019,6,0,L|84:259,1,85,6|0,0:0|0:0,0:0:0:0:
48,335,69448,2,0,P|85:263|46:191,1,170,8|2,0:0|0:0,0:0:0:0:
104,80,70090,1,0,0:0:0:0:
208,156,70305,2,0,L|312:148,1,85,8|0,0:0|0:0,0:0:0:0:
296,32,70733,6,0,L|380:38,1,85,2|0,0:0|0:0,0:0:0:0:
452,144,71162,1,8,0:0:0:0:
388,252,71376,2,0,L|303:245,1,85,0|2,0:0|0:0,0:0:0:0:
167,186,71805,2,0,L|163:142,1,42.5
196,272,72019,2,0,L|192:314,1,42.5,8|0,0:0|0:0,0:0:0:0:
256,152,72233,1,8,0:0:0:0:
256,152,72340,1,8,0:0:0:0:
256,152,72448,6,0,L|248:67,1,85,6|0,0:0|0:0,0:0:0:0:
369,158,72876,2,0,P|290:171|275:250,1,170,8|2,0:0|0:0,0:0:0:0:
392,300,73519,1,0,0:0:0:0:
453,192,73734,2,0,P|460:150|446:110,1,85,8|0,0:0|0:0,0:0:0:0:
274,104,74162,6,0,B|255:145|255:145|269:181,1,85,2|0,0:0|0:0,0:0:0:0:
308,287,74591,1,8,0:0:0:0:
428,148,74805,2,0,B|387:129|387:129|350:143,1,85,0|2,0:0|0:0,0:0:0:0:
216,284,75234,2,0,L|172:276,1,42.5
228,192,75448,2,0,L|292:176,1,42.5,8|0,0:0|0:0,0:0:0:0:
437,260,75662,1,8,0:0:0:0:
437,260,75769,1,8,0:0:0:0:
437,260,75876,6,0,L|355:283,1,85,6|0,0:0|0:0,0:0:0:0:
216,284,76305,2,0,P|276:337|348:302,1,170,8|2,0:0|0:0,0:0:0:0:
400,172,76948,1,0,0:0:0:0:
268,116,77162,2,0,P|226:116|180:120,1,85,8|0,0:0|0:0,0:0:0:0:
75,229,77590,6,0,P|117:232|159:232,1,85,2|0,0:0|0:0,0:0:0:0:
304,232,78019,1,8,0:0:0:0:
341,86,78233,2,0,P|317:51|277:42,1,85,0|2,0:0|0:0,0:0:0:0:
108,101,78662,2,0,L|150:104,1,42.5
224,188,78876,2,0,L|181:191,1,42.5,8|0,0:0|0:0,0:0:0:0:
56,277,79090,1,8,0:0:0:0:
56,277,79198,1,8,0:0:0:0:
56,277,79305,6,0,B|98:290|98:290|139:283,1,85,6|0,0:0|0:0,0:0:0:0:
274,359,79733,2,0,P|198:375|154:303,1,170,8|2,0:0|0:0,0:0:0:0:
228,196,80376,1,0,0:0:0:0:
372,248,80590,1,8,0:0:0:0:
372,248,80698,1,8,0:0:0:0:
372,248,80805,1,8,0:0:0:0:
312,36,81019,5,14,0:0:0:0:
228,196,81233,1,8,0:0:0:0:
380,104,81448,5,8,0:0:0:0:
160,128,81662,1,8,0:0:0:0:
312,36,81876,5,14,0:0:0:0:
447,171,82090,1,8,0:0:0:0:
451,213,82197,1,8,0:0:0:0:
438,253,82304,1,8,0:0:0:0:
410,285,82411,1,8,0:0:0:0:
373,304,82518,1,8,0:0:0:0:
330,306,82625,1,8,0:0:0:0:
291,292,82733,6,0,P|245:258|228:198,1,118.999996368408,4|0,0:0|0:0,0:0:0:0:
323,42,83162,2,0,P|369:76|386:136,1,118.999996368408,8|0,0:0|0:0,0:0:0:0:
227,200,83590,1,2,0:0:0:0:
410,285,83805,1,0,0:0:0:0:
306,125,84019,1,8,0:0:0:0:
215,313,84233,1,8,0:0:0:0:
215,313,84340,1,8,0:0:0:0:
215,313,84448,6,0,B|237:262|237:262|226:199,1,118.999996368408,2|0,0:0|0:0,0:0:0:0:
51,132,84876,2,0,B|27:186|27:186|43:246,1,118.999996368408,8|0,0:0|0:0,0:0:0:0:
120,346,85305,1,2,0:0:0:0:
158,161,85519,1,0,0:0:0:0:
241,327,85733,1,8,0:0:0:0:
273,90,85948,1,8,0:0:0:0:
273,90,86055,1,8,0:0:0:0:
274,90,86162,6,0,L|290:214,1,118.999996368408,2|0,0:0|0:0,0:0:0:0:
406,272,86590,2,0,L|420:153,1,118.999996368408,8|0,0:0|0:0,0:0:0:0:
448,356,87019,2,0,P|391:370|340:342,1,118.999996368408,2|0,0:0|0:0,0:0:0:0:
198,243,87448,1,8,0:0:0:0:
280,102,87662,1,8,0:0:0:0:
280,102,87769,1,8,0:0:0:0:
280,102,87876,6,0,B|342:94|342:94|387:128,1,118.999996368408,2|0,0:0|0:0,0:0:0:0:
178,134,88305,2,0,B|170:72|170:72|205:27,1,118.999996368408,8|0,0:0|0:0,0:0:0:0:
204,27,88626,1,8,0:0:0:0:
204,27,88733,1,10,0:0:0:0:
78,170,88948,1,0,0:0:0:0:
237,183,89162,1,8,0:0:0:0:
215,323,89376,1,8,0:0:0:0:
215,323,89483,1,8,0:0:0:0:
215,323,89590,6,0,B|298:337|298:337|321:311,1,118.999996368408,6|0,0:0|0:0,0:0:0:0:
304,100,90019,2,0,B|235:148|235:148|237:183,1,118.999996368408,8|0,0:0|0:0,0:0:0:0:
445,204,90448,1,2,0:0:0:0:
445,204,90662,2,0,B|459:120|459:120|433:97,1,118.999996368408,0|8,0:0|0:0,0:0:0:0:
288,28,91090,6,0,B|168:4|168:72|54:41,1,237.999992736817
32,160,91733,1,8,0:0:0:0:
66,284,91948,1,8,0:0:0:0:
91,316,92055,1,8,0:0:0:0:
132,325,92162,1,10,0:0:0:0:
168,304,92269,1,8,0:0:0:0:
182,266,92376,1,8,0:0:0:0:
168,132,92590,1,8,0:0:0:0:
304,176,92805,1,8,0:0:0:0:
304,176,92912,1,8,0:0:0:0:
304,176,93019,6,0,B|290:224|290:224|219:255,1,118.999996368408,6|0,0:0|0:0,0:0:0:0:
248,88,93448,2,0,B|291:63|291:63|363:92,1,118.999996368408,8|0,0:0|0:0,0:0:0:0:
415,236,93876,1,2,0:0:0:0:
415,236,94090,2,0,B|401:284|401:284|330:315,1,118.999996368408,0|8,0:0|0:0,0:0:0:0:
198,328,94519,6,0,P|146:232|234:168,1,237.999992736817
392,160,95162,1,8,0:0:0:0:
226,251,95376,1,0,0:0:0:0:
454,278,95590,1,6,0:0:0:0:
290,355,95805,1,8,0:0:0:0:
258,341,95912,1,8,0:0:0:0:
235,317,96019,1,8,0:0:0:0:
224,285,96126,1,8,0:0:0:0:
226,251,96233,1,8,0:0:0:0:
241,221,96340,1,8,0:0:0:0:
265,198,96448,6,0,P|324:208|381:227,1,118.999996368408,6|0,0:0|0:0,0:0:0:0:
162,184,96876,2,0,P|188:128|238:97,1,118.999996368408,8|0,0:0|0:0,0:0:0:0:
368,152,97305,1,2,0:0:0:0:
235,317,97519,1,0,0:0:0:0:
408,240,97733,1,8,0:0:0:0:
190,240,97948,1,8,0:0:0:0:
190,240,98055,1,8,0:0:0:0:
190,240,98162,6,0,P|197:171|212:116,1,118.999996368408,2|0,0:0|0:0,0:0:0:0:
343,80,98590,2,0,P|357:137|362:196,1,118.999996368408,8|0,0:0|0:0,0:0:0:0:
250,318,99019,1,2,0:0:0:0:
208,160,99233,1,0,0:0:0:0:
80,268,99448,1,8,0:0:0:0:
64,83,99662,1,8,0:0:0:0:
64,83,99769,1,8,0:0:0:0:
64,83,99876,6,0,B|113:97|113:97|180:80,1,118.999996368408,2|0,0:0|0:0,0:0:0:0:
322,157,100305,2,0,B|273:143|273:143|206:160,1,118.999996368408,8|0,0:0|0:0,0:0:0:0:
104,272,100733,1,2,0:0:0:0:
264,308,100948,1,0,0:0:0:0:
322,157,101162,1,8,0:0:0:0:
428,288,101376,1,8,0:0:0:0:
428,288,101483,1,8,0:0:0:0:
428,288,101590,6,0,B|448:208|448:208|434:172,1,118.999996368408,2|0,0:0|0:0,0:0:0:0:
329,42,102019,2,0,B|309:122|309:122|322:157,1,118.999996368408,8|0,0:0|0:0,0:0:0:0:
321,156,102340,1,8,0:0:0:0:
321,156,102448,1,10,0:0:0:0:
252,316,102662,1,0,0:0:0:0:
151,177,102876,1,8,0:0:0:0:
328,254,103090,1,8,0:0:0:0:
328,254,103198,1,8,0:0:0:0:
328,254,103305,6,0,P|384:240|416:184,1,118.999996368408,6|0,0:0|0:0,0:0:0:0:
230,41,103733,2,0,P|203:94|222:147,1,118.999996368408,8|0,0:0|0:0,0:0:0:0:
471,122,104162,1,2,0:0:0:0:
471,122,104376,2,0,P|417:95|364:114,1,118.999996368408,0|8,0:0|0:0,0:0:0:0:
153,282,104805,6,0,P|245:329|322:235,1,237.999992736817
272,128,105448,1,8,0:0:0:0:
52,160,105662,1,8,0:0:0:0:
86,185,105769,1,8,0:0:0:0:
120,211,105876,1,10,0:0:0:0:
161,200,105983,1,8,0:0:0:0:
202,190,106090,1,8,0:0:0:0:
140,112,106305,1,8,0:0:0:0:
156,316,106520,1,8,0:0:0:0:
156,316,106627,1,8,0:0:0:0:
156,316,106734,6,0,P|214:329|273:320,1,118.999996368408,6|0,0:0|0:0,0:0:0:0:
412,186,107162,2,0,P|354:173|295:182,1,118.999996368408,8|0,0:0|0:0,0:0:0:0:
488,341,107591,1,2,0:0:0:0:
488,341,107805,2,0,B|504:280|504:280|488:209,1,118.999996368408,0|8,0:0|0:0,0:0:0:0:
294,127,108233,6,0,P|186:113|187:4,1,237.999992736817
384,48,108876,1,8,0:0:0:0:
338,215,109090,1,0,0:0:0:0:
249,59,109305,1,2,0:0:0:0:
176,216,109519,1,0,0:0:0:0:
112,48,109733,1,8,0:0:0:0:
384,48,109948,1,8,0:0:0:0:
384,48,110055,1,8,0:0:0:0:
384,48,110162,6,0,L|390:90,3,42.5,12|8|8|8,0:0|0:0|0:0|0:0,0:0:0:0:
421,170,110590,1,10,0:0:0:0:
378,166,110697,1,8,0:0:0:0:
336,163,110804,1,8,0:0:0:0:
293,160,110911,1,8,0:0:0:0:
251,157,111019,6,0,L|244:114,3,42.5,10|8|8|8,0:0|0:0|0:0|0:0,0:0:0:0:
288,28,111448,1,10,0:0:0:0:
244,30,111555,1,8,0:0:0:0:
201,33,111662,1,8,0:0:0:0:
159,36,111769,1,8,0:0:0:0:
117,40,111876,6,0,L|64:44,1,42.5,10|8,0:0|0:0,0:0:0:0:
113,144,112090,1,8,0:0:0:0:
113,144,112197,1,8,0:0:0:0:
113,144,112304,2,0,L|166:148,1,42.5,10|8,0:0|0:0,0:0:0:0:
251,157,112519,1,8,0:0:0:0:
173,302,112733,5,8,0:0:0:0:
352,106,113055,1,8,0:0:0:0:
432,359,113376,1,8,0:0:0:0:
303,253,113590,6,0,P|262:242|219:245,1,85,6|2,0:0|0:3,0:0:0:0:
63,204,114019,2,0,P|105:198|143:179,1,85,2|2,0:0|0:3,0:0:0:0:
312,147,114448,2,0,P|269:141|231:122,1,85,2|2,0:0|0:3,0:0:0:0:
69,87,114876,2,0,P|107:68|148:62,1,85,2|2,0:0|0:3,0:0:0:0:
284,51,115305,6,0,P|325:45|363:26,1,85,2|2,0:0|0:3,0:0:0:0:
410,132,115733,2,0,P|448:150|489:156,1,85,2|2,0:0|0:3,0:0:0:0:
468,60,116162,1,2,0:0:0:0:
440,240,116376,1,2,0:3:0:0:
328,148,116590,1,2,0:0:0:0:
352,320,116805,1,2,0:3:0:0:
352,320,116912,1,2,0:3:0:0:
352,320,117019,6,0,L|267:308,1,85,2|2,0:0|0:3,0:0:0:0:
126,242,117448,2,0,L|210:230,1,85,2|2,0:0|0:3,0:0:0:0:
324,144,117876,2,0,L|239:132,1,85,2|2,0:0|0:3,0:0:0:0:
136,116,118305,1,2,0:0:0:0:
268,32,118519,1,2,0:3:0:0:
405,132,118733,6,0,P|376:207|292:220,1,170,2|2,0:0|0:0,0:0:0:0:
239,132,119376,1,2,0:3:0:0:
224,292,119590,1,2,0:0:0:0:
156,116,119805,1,2,0:3:0:0:
136,280,120019,1,2,0:0:0:0:
75,119,120233,1,2,0:3:0:0:
75,119,120340,1,2,0:3:0:0:
75,119,120448,6,0,B|110:131|110:131|155:116,1,85,2|2,0:0|0:3,0:0:0:0:
320,128,120876,2,0,B|285:116|285:116|239:130,1,85,2|2,0:0|0:3,0:0:0:0:
224,292,121305,1,2,0:0:0:0:
368,328,121519,1,2,0:3:0:0:
327,213,121733,1,2,0:0:0:0:
224,292,121948,1,2,0:3:0:0:
408,344,122162,6,0,L|416:244,1,85,2|2,0:0|0:3,0:0:0:0:
320,128,122590,2,0,L|326:212,1,85,2|2,0:0|0:3,0:0:0:0:
429,129,123019,2,0,L|435:44,1,85,2|2,0:0|0:3,0:0:0:0:
223,45,123448,2,0,L|216:129,1,85,2|2,0:0|0:3,0:0:0:0:
216,129,123769,1,2,0:3:0:0:
216,129,123876,6,0,P|195:202|124:177,1,170,2|2,0:0|0:0,0:0:0:0:
44,69,124519,1,2,0:3:0:0:
44,69,124733,2,0,B|29:117|29:117|42:190|42:190|24:231,1,170,2|2,0:0|0:0,0:0:0:0:
52,328,125376,1,2,0:3:0:0:
123,176,125590,5,6,0:0:0:0:
208,304,125805,1,0,0:0:0:0:
256,88,126019,1,8,0:0:0:0:
184,228,126234,1,2,0:3:0:0:
392,144,126448,1,2,0:0:0:0:
224,159,126663,1,2,0:3:0:0:
384,272,126876,1,8,0:0:0:0:
384,272,126983,1,8,0:0:0:0:
384,272,127090,1,8,0:0:0:0:
184,228,127305,6,0,P|186:277|210:305,1,85,6|0,0:0|0:0,0:0:0:0:
359,178,127733,2,0,P|356:128|333:101,1,85,8|0,0:0|0:0,0:0:0:0:
300,285,128162,2,0,L|383:271,1,85,2|0,0:0|0:0,0:0:0:0:
243,121,128590,2,0,L|159:134,1,85,8|0,0:0|0:0,0:0:0:0:
256,340,129019,6,0,P|262:298|263:255,1,85,2|0,0:0|0:0,0:0:0:0:
361,77,129448,2,0,P|354:118|353:161,1,85,8|0,0:0|0:0,0:0:0:0:
184,228,129876,1,2,0:0:0:0:
327,167,130090,1,0,0:0:0:0:
152,120,130305,1,8,0:0:0:0:
295,59,130519,1,0,0:0:0:0:
112,48,130733,6,0,P|112:93|120:156,1,85,2|0,0:0|0:0,0:0:0:0:
226,257,131162,2,0,P|230:215|231:173,1,85,8|0,0:0|0:0,0:0:0:0:
108,228,131590,2,0,P|104:270|105:313,1,85,2|0,0:0|0:0,0:0:0:0:
272,308,132019,1,8,0:0:0:0:
132,224,132233,1,0,0:0:0:0:
300,156,132448,6,0,B|321:151|340:137|340:137|364:152|364:152|412:128|457:152,1,170,2|8,0:0|0:0,0:0:0:0:
480,248,133090,1,0,0:0:0:0:
340,224,133305,1,2,0:0:0:0:
384,344,133519,1,0,0:0:0:0:
368,208,133733,1,8,0:0:0:0:
248,288,133948,1,0,0:0:0:0:
141,183,134162,6,0,B|188:160|188:160|255:177|255:177|299:155,1,170,6|8,0:0|0:0,0:0:0:0:
392,124,134805,1,0,0:0:0:0:
264,48,135019,1,2,0:0:0:0:
436,32,135233,1,0,0:0:0:0:
428,212,135448,1,8,0:0:0:0:
352,48,135662,1,0,0:0:0:0:
295,224,135876,6,0,P|217:246|155:193,1,170,2|8,0:0|0:0,0:0:0:0:
121,88,136519,1,0,0:0:0:0:
233,162,136733,1,2,0:0:0:0:
235,36,136948,1,0,0:0:0:0:
119,111,137162,1,8,0:0:0:0:
252,166,137376,1,0,0:0:0:0:
68,40,137590,6,0,P|101:115|65:189,1,170,6|8,0:0|0:0,0:0:0:0:
113,320,138233,1,0,0:0:0:0:
113,320,138448,2,0,P|188:286|262:322,1,170,2|8,0:0|0:0,0:0:0:0:
434,248,139090,1,8,0:0:0:0:
434,248,139198,1,8,0:0:0:0:
434,248,139305,6,0,P|441:289|436:331,1,85,6|0,0:0|0:0,0:0:0:0:
274,229,139733,2,0,P|266:187|271:145,1,85,8|0,0:0|0:0,0:0:0:0:
352,16,140162,5,2,0:0:0:0:
128,84,140590,1,8,0:0:0:0:
176,209,140805,1,8,0:0:0:0:
176,209,140912,1,8,0:0:0:0:
176,209,141019,6,0,P|219:213|260:212,1,85,6|0,0:0|0:0,0:0:0:0:
127,136,141448,2,0,P|87:207|124:280,1,170,8|2,0:0|0:0,0:0:0:0:
246,309,142090,1,0,0:0:0:0:
360,251,142305,2,0,L|444:244,1,85,8|0,0:0|0:0,0:0:0:0:
329,128,142733,6,0,L|245:122,1,85,2|0,0:0|0:0,0:0:0:0:
146,113,143162,1,8,0:0:0:0:
126,253,143376,2,0,L|211:246,1,85,0|2,0:0|0:0,0:0:0:0:
244,121,143805,2,0,L|232:169,1,42.5
333,200,144019,2,0,L|290:225,1,42.5,8|0,0:0|0:0,0:0:0:0:
153,166,144233,1,8,0:0:0:0:
153,166,144340,1,8,0:0:0:0:
153,166,144448,6,0,B|141:123|141:123|156:80,1,85,6|0,0:0|0:0,0:0:0:0:
233,184,144876,2,0,P|182:247|103:232,1,170,8|2,0:0|0:0,0:0:0:0:
76,112,145519,1,0,0:0:0:0:
178,28,145734,2,0,P|221:32|257:55,1,85,8|0,0:0|0:0,0:0:0:0:
322,172,146162,6,0,P|357:194|399:197,1,85,2|0,0:0|0:0,0:0:0:0:
492,120,146591,1,8,0:0:0:0:
368,22,146805,2,0,L|382:105,1,85,0|2,0:0|0:0,0:0:0:0:
331,266,147233,2,0,B|308:253|292:230,1,42.5
216,256,147448,2,0,B|208:229|213:203,1,42.5,8|0,0:0|0:0,0:0:0:0:
301,112,147662,1,8,0:0:0:0:
301,112,147769,1,8,0:0:0:0:
301,112,147876,6,0,P|343:120|382:105,1,85,6|0,0:0|0:0,0:0:0:0:
424,24,148305,2,0,B|414:140|414:140|464:100,1,170,8|2,0:0|0:0,0:0:0:0:
472,208,148948,1,0,0:0:0:0:
370,260,149162,2,0,P|328:273|280:254,1,85,8|0,0:0|0:0,0:0:0:0:
165,142,149590,6,0,P|207:129|255:148,1,85,2|0,0:0|0:0,0:0:0:0:
206,233,150019,1,8,0:0:0:0:
86,184,150233,2,0,P|73:142|92:94,1,85,0|2,0:0|0:0,0:0:0:0:
192,55,150662,2,0,P|213:55|239:50,1,42.5
273,141,150876,2,0,P|293:137|315:137,1,42.5,8|0,0:0|0:0,0:0:0:0:
441,210,151090,1,8,0:0:0:0:
441,210,151198,1,8,0:0:0:0:
441,210,151305,6,0,B|346:218,1,85,6|0,0:0|0:0,0:0:0:0:
336,352,151733,2,0,L|348:160,1,170,8|2,0:0|0:0,0:0:0:0:
312,96,152376,1,0,0:0:0:0:
236,248,152590,1,8,0:0:0:0:
236,248,152698,1,8,0:0:0:0:
236,248,152805,1,8,0:0:0:0:
184,56,153019,21,14,0:0:0:0:
116,256,153233,1,8,0:0:0:0:
72,80,153448,37,8,0:0:0:0:
236,248,153662,1,8,0:0:0:0:
184,56,153876,5,14,0:0:0:0:
424,92,154090,1,8,0:0:0:0:
184,156,154305,1,8,0:0:0:0:
424,192,154519,1,8,0:0:0:0:
184,256,154733,5,2,0:0:0:0:
236,80,154948,1,8,0:0:0:0:
80,184,155162,1,8,0:0:0:0:
80,184,155269,1,8,0:0:0:0:
80,184,155376,1,4,3:0:0:0:
225,38,155590,6,0,L|236:82,1,42.5,8|0,0:0|0:0,0:0:0:0:
404,164,155912,2,0,L|393:208,1,42.5,8|0,0:0|0:0,0:0:0:0:
211,259,156233,1,8,0:0:0:0:
402,317,156448,6,0,B|414:241|414:241|392:203,1,118.999996368408,4|0,0:0|0:0,0:0:0:0:
202,147,156876,2,0,B|190:223|190:223|212:261,1,118.999996368408,8|0,0:0|0:0,0:0:0:0:
256,372,157305,1,2,0:0:0:0:
284,216,157520,1,0,0:0:0:0:
124,272,157734,1,8,0:0:0:0:
11,98,157948,1,8,0:0:0:0:
11,98,158055,1,8,0:0:0:0:
11,98,158162,6,0,B|62:116|62:116|139:94,1,118.999996368408,2|0,0:0|0:0,0:0:0:0:
251,58,158590,2,0,B|313:40|313:40|364:58,1,118.999996368408,8|0,0:0|0:0,0:0:0:0:
452,144,159020,1,2,0:0:0:0:
261,166,159234,1,0,0:0:0:0:
361,265,159448,1,8,0:0:0:0:
364,58,159663,1,8,0:0:0:0:
364,58,159769,1,8,0:0:0:0:
364,58,159876,6,0,B|384:135|384:135|369:171,1,118.999996368408,2|0,0:0|0:0,0:0:0:0:
180,242,160305,2,0,B|160:165|160:165|174:128,1,118.999996368408,8|0,0:0|0:0,0:0:0:0:
247,289,160734,2,0,P|198:321|141:313,1,118.999996368408,2|0,0:0|0:0,0:0:0:0:
97,181,161163,1,8,0:0:0:0:
237,87,161377,1,8,0:0:0:0:
237,87,161483,1,8,0:0:0:0:
237,87,161590,6,0,P|289:60|344:78,1,118.999996368408,2|0,0:0|0:0,0:0:0:0:
442,228,162019,2,0,P|383:227|342:186,1,118.999996368408,8|0,0:0|0:0,0:0:0:0:
342,186,162340,1,8,0:0:0:0:
342,186,162448,1,10,0:0:0:0:
394,25,162662,1,0,0:0:0:0:
237,87,162876,1,8,0:0:0:0:
277,250,163090,1,8,0:0:0:0:
277,250,163198,1,8,0:0:0:0:
277,250,163305,6,0,B|228:265|228:265|163:244,1,118.999996368408,6|0,0:0|0:0,0:0:0:0:
39,117,163733,2,0,B|88:102|88:102|152:122,1,118.999996368408,8|0,0:0|0:0,0:0:0:0:
267,160,164162,1,2,0:0:0:0:
267,160,164376,2,0,P|325:168|383:156,1,118.999996368408,0|8,0:0|0:0,0:0:0:0:
433,314,164805,6,0,B|313:338|313:270|199:301,1,237.999992736817
76,312,165448,1,8,0:0:0:0:
95,167,165662,1,8,0:0:0:0:
119,133,165769,1,8,0:0:0:0:
157,114,165876,1,10,0:0:0:0:
199,115,165983,1,8,0:0:0:0:
236,136,166090,1,8,0:0:0:0:
321,255,166305,1,8,0:0:0:0:
376,112,166519,1,8,0:0:0:0:
376,112,166626,1,8,0:0:0:0:
376,112,166733,6,0,B|324:80|324:80|264:92,1,118.999996368408,6|0,0:0|0:0,0:0:0:0:
95,167,167162,2,0,B|147:199|147:199|207:187,1,118.999996368408,8|0,0:0|0:0,0:0:0:0:
360,220,167590,1,2,0:0:0:0:
360,220,167805,2,0,P|356:282|336:344,1,118.999996368408,0|8,0:0|0:0,0:0:0:0:
151,304,168233,6,0,B|124:144|124:144|184:200,1,237.999992736817
268,276,168876,1,8,0:0:0:0:
431,174,169090,1,0,0:0:0:0:
243,112,169305,1,6,0:0:0:0:
429,39,169519,1,8,0:0:0:0:
429,72,169626,1,8,0:0:0:0:
430,106,169733,1,8,0:0:0:0:
430,140,169840,1,8,0:0:0:0:
431,174,169947,1,8,0:0:0:0:
432,208,170054,1,8,0:0:0:0:
432,242,170162,6,0,B|428:325|428:325|400:298,1,118.999996368408,6|0,0:0|0:0,0:0:0:0:
251,196,170590,2,0,P|242:131|245:63,1,118.999996368408,8|0,0:0|0:0,0:0:0:0:
314,255,171019,2,0,P|261:280|205:266,1,118.999996368408,2|0,0:0|0:0,0:0:0:0:
141,173,171448,1,8,0:0:0:0:
282,45,171662,1,8,0:0:0:0:
282,45,171769,1,8,0:0:0:0:
282,45,171876,6,0,P|282:104|274:163,1,118.999996368408,2|0,0:0|0:0,0:0:0:0:
149,291,172305,2,0,P|140:232|141:172,1,118.999996368408,8|0,0:0|0:0,0:0:0:0:
144,42,172733,1,2,0:0:0:0:
233,204,172948,1,0,0:0:0:0:
282,45,173162,1,8,0:0:0:0:
83,118,173376,1,8,0:0:0:0:
83,118,173483,1,8,0:0:0:0:
83,118,173590,6,0,B|151:134|151:134|205:113,1,118.999996368408,2|0,0:0|0:0,0:0:0:0:
300,261,174019,2,0,B|232:277|232:277|178:256,1,118.999996368408,8|0,0:0|0:0,0:0:0:0:
64,216,174448,1,2,0:0:0:0:
210,351,174663,1,0,0:0:0:0:
222,189,174877,1,8,0:0:0:0:
368,324,175091,1,8,0:0:0:0:
368,324,175198,1,8,0:0:0:0:
368,324,175305,6,0,P|379:257|370:202,1,118.999996368408,2|0,0:0|0:0,0:0:0:0:
226,72,175733,2,0,P|215:139|224:194,1,118.999996368408,8|8,0:0|0:0,0:0:0:0:
222,189,176055,1,8,0:0:0:0:
222,189,176162,1,2,0:0:0:0:
244,321,176377,1,0,0:0:0:0:
340,168,176591,1,8,0:0:0:0:
184,76,176805,1,8,0:0:0:0:
184,76,176912,1,8,0:0:0:0:
184,76,177019,6,0,L|60:96,1,118.999996368408,6|0,0:0|0:0,0:0:0:0:
152,224,177448,2,0,L|276:244,1,118.999996368408,8|0,0:0|0:0,0:0:0:0:
408,128,177877,1,2,0:0:0:0:
408,128,178091,2,0,B|355:100|355:100|300:121,1,118.999996368408,0|8,0:0|0:0,0:0:0:0:
151,223,178520,6,0,P|225:305|321:251,1,237.999992736817
300,121,179163,1,8,0:0:0:0:
129,67,179376,1,8,0:0:0:0:
127,109,179483,1,8,0:0:0:0:
125,151,179590,1,10,0:0:0:0:
123,194,179697,1,8,0:0:0:0:
122,236,179804,1,8,0:0:0:0:
196,348,180020,1,8,0:0:0:0:
296,188,180233,1,8,0:0:0:0:
296,188,180340,1,8,0:0:0:0:
296,188,180448,6,0,P|301:248|300:312,1,118.999996368408,6|0,0:0|0:0,0:0:0:0:
424,134,180876,2,0,P|419:194|420:258,1,118.999996368408,8|0,0:0|0:0,0:0:0:0:
339,75,181305,1,2,0:0:0:0:
339,75,181519,2,0,P|282:93|208:75,1,118.999996368408,0|8,0:0|0:0,0:0:0:0:
96,36,181948,6,0,B|77:105|77:105|104:200|104:200|78:276,1,237.999992736817
164,355,182590,1,8,0:0:0:0:
204,175,182805,1,0,0:0:0:0:
364,279,183019,1,2,0:0:0:0:
184,267,183233,1,0,0:0:0:0:
384,187,183447,1,8,0:0:0:0:
224,83,183662,1,0,0:0:0:0:
164,355,183876,5,6,0:0:0:0:
256,192,183983,12,0,187090,0:0:0:0:
148,244,187305,5,2,0:0:0:0:
312,112,187733,1,2,0:0:0:0:
310,295,188162,1,2,0:0:0:0:
227,101,188590,1,2,0:0:0:0:
148,244,189019,5,2,0:0:0:0:
312,112,189447,1,2,0:0:0:0:
310,295,189876,1,2,0:0:0:0:
206,68,190304,1,2,0:0:0:0:
214,88,190412,2,0,P|209:136|184:184,1,101.999996887207,2|2,0:0|0:0,0:0:0:0:
148,244,190733,5,6,0:0:0:0:
268,200,190948,1,0,0:0:0:0:
256,324,191162,1,2,0:0:0:0:
83,299,191376,1,0,0:0:0:0:
83,299,191483,2,0,P|67:278|64:253,1,50.9999984436036,0|2,0:0|0:0,0:0:0:0:
169,91,191698,2,0,P|182:107|188:134,1,50.9999984436036
171,218,191912,1,0,0:0:0:0:
171,218,192019,1,2,0:0:0:0:
68,116,192234,1,0,0:0:0:0:
152,4,192448,5,2,0:0:0:0:
188,136,192662,1,0,0:0:0:0:
272,24,192876,1,2,0:0:0:0:
64,66,193091,1,0,0:0:0:0:
64,66,193198,2,0,P|61:92|72:123,1,50.9999984436036,0|2,0:0|0:0,0:0:0:0:
224,205,193412,2,0,P|227:179|216:148,1,50.9999984436036
169,91,193626,1,0,0:0:0:0:
169,91,193733,1,2,0:0:0:0:
304,36,193948,1,0,0:0:0:0:
332,188,194162,5,2,0:0:0:0:
456,96,194376,1,0,0:0:0:0:
304,36,194590,1,2,0:0:0:0:
268,243,194805,1,0,0:0:0:0:
268,243,194912,2,0,P|286:260|311:268,1,50.9999984436036,0|2,0:0|0:0,0:0:0:0:
458,196,195126,2,0,P|440:179|415:171,1,50.9999984436036
332,188,195340,1,0,0:0:0:0:
332,188,195447,1,2,0:0:0:0:
294,345,195662,1,0,0:0:0:0:
191,176,195876,5,2,0:0:0:0:
53,249,196091,1,0,0:0:0:0:
185,332,196305,1,2,0:0:0:0:
78,172,196519,1,0,0:0:0:0:
78,172,196626,2,0,P|53:166|28:171,1,50.9999984436036,0|2,0:0|0:0,0:0:0:0:
55,361,196840,2,0,P|79:366|104:361,1,50.9999984436036
185,332,197055,1,0,0:0:0:0:
185,332,197162,1,2,0:0:0:0:
191,176,197376,1,0,0:0:0:0:
278,344,197590,5,4,0:0:0:0:
286,146,197805,1,0,0:0:0:0:
113,240,198018,1,8,0:0:0:0:
292,263,198233,1,0,0:0:0:0:
292,263,198340,2,0,L|344:259,1,42.5,0|2,0:0|0:0,0:0:0:0:
414,140,198554,1,0,0:0:0:0:
371,142,198661,1,0,0:0:0:0:
329,144,198768,1,0,0:0:0:0:
286,146,198875,1,8,0:0:0:0:
196,72,199089,1,0,0:0:0:0:
96,228,199304,5,2,0:0:0:0:
286,146,199518,1,0,0:0:0:0:
112,28,199732,1,8,0:0:0:0:
53,230,199947,1,0,0:0:0:0:
53,230,200054,2,0,L|107:227,1,42.5,0|2,0:0|0:0,0:0:0:0:
286,146,200268,1,0,0:0:0:0:
282,188,200375,1,0,0:0:0:0:
277,230,200482,1,0,0:0:0:0:
272,272,200589,1,8,0:0:0:0:
396,236,200804,1,0,0:0:0:0:
286,146,201018,5,2,0:0:0:0:
144,256,201232,1,2,3:0:0:0:
136,92,201447,1,8,0:0:0:0:
286,146,201661,1,2,3:0:0:0:
286,146,201768,2,0,L|328:140,1,42.5,0|2,0:0|0:0,0:0:0:0:
401,293,201983,1,0,0:0:0:0:
356,285,202090,1,2,3:0:0:0:
314,278,202197,1,0,0:0:0:0:
272,272,202304,1,8,0:0:0:0:
120,304,202518,1,2,3:0:0:0:
328,40,202733,5,10,0:0:0:0:
311,330,202948,1,8,0:0:0:0:
62,174,203162,1,8,0:0:0:0:
328,40,203483,6,0,P|348:44|368:53,1,42.5,8|0,0:0|0:0,0:0:0:0:
311,330,203833,2,0,P|297:346|279:357,1,42.5,8|0,0:0|0:0,0:0:0:0:
62,174,204184,2,0,P|54:154|54:133,1,42.5,8|0,0:0|0:0,0:0:0:0:
152,44,204447,5,0,3:0:0:0:
193,36,204669,5,0,3:0:0:0:
231,31,204891,5,0,3:0:0:0:
267,25,205113,5,0,3:0:0:0:
204,176,205305,5,12,0:0:0:0:
364,320,205519,1,2,0:0:0:0:
152,284,205733,1,8,0:0:0:0:
152,284,205840,1,8,0:0:0:0:
152,284,205947,1,10,0:0:0:0:
292,94,206162,2,0,L|301:137,1,42.5,8|0,0:0|0:0,0:0:0:0:
360,226,206376,1,10,0:0:0:0:
364,205,206483,1,8,0:0:0:0:
368,184,206590,1,8,0:0:0:0:
372,40,206805,1,2,0:0:0:0:
156,32,207019,5,8,0:0:0:0:
300,135,207233,1,2,0:0:0:0:
84,140,207447,1,8,0:0:0:0:
84,140,207555,1,8,0:0:0:0:
84,140,207662,1,10,0:0:0:0:
264,308,207876,2,0,L|272:266,1,42.5,8|0,0:0|0:0,0:0:0:0:
192,167,208090,1,10,0:0:0:0:
196,188,208197,1,8,0:0:0:0:
200,209,208304,1,8,0:0:0:0:
384,156,208519,1,2,0:0:0:0:
416,344,208733,5,8,0:0:0:0:
416,344,208947,2,0,B|406:310|406:310|418:262,1,85,2|8,0:0|0:0,0:0:0:0:
418,262,209269,1,8,0:0:0:0:
418,262,209376,1,10,0:0:0:0:
288,296,209590,2,0,L|283:253,1,42.5,8|0,0:0|0:0,0:0:0:0:
274,170,209805,1,10,0:0:0:0:
274,170,209912,1,8,0:0:0:0:
274,170,210019,1,8,0:0:0:0:
441,107,210233,1,2,0:0:0:0:
222,29,210447,5,8,0:0:0:0:
222,29,210661,2,0,B|232:63|232:63|219:110,1,85,2|8,0:0|0:0,0:0:0:0:
219,110,210983,1,8,0:0:0:0:
219,110,211090,1,10,0:0:0:0:
92,128,211305,2,0,L|84:169,1,42.5,8|0,0:0|0:0,0:0:0:0:
64,252,211519,1,10,0:0:0:0:
64,252,211626,1,8,0:0:0:0:
64,252,211733,1,8,0:0:0:0:
224,332,211947,1,2,0:0:0:0:
219,111,212162,5,12,0:0:0:0:
168,264,212376,1,2,0:0:0:0:
340,148,212590,1,8,0:0:0:0:
340,148,212697,1,8,0:0:0:0:
340,148,212805,1,10,0:0:0:0:
456,348,213019,2,0,L|413:339,1,42.5,8|0,0:0|0:0,0:0:0:0:
324,280,213233,1,10,0:0:0:0:
345,276,213340,1,8,0:0:0:0:
366,272,213447,1,8,0:0:0:0:
480,140,213662,1,2,0:0:0:0:
312,24,213876,5,8,0:0:0:0:
352,184,214090,1,2,0:0:0:0:
184,68,214305,1,8,0:0:0:0:
184,68,214412,1,8,0:0:0:0:
184,68,214519,1,10,0:0:0:0:
86,287,214733,2,0,L|129:278,1,42.5,8|0,0:0|0:0,0:0:0:0:
218,219,214947,1,10,0:0:0:0:
197,215,215054,1,8,0:0:0:0:
176,211,215161,1,8,0:0:0:0:
48,112,215376,1,2,0:0:0:0:
282,83,215590,5,8,0:0:0:0:
282,83,215805,2,0,P|241:73|200:84,1,85,2|8,0:0|0:0,0:0:0:0:
200,83,216126,1,8,0:0:0:0:
200,83,216233,1,10,0:0:0:0:
176,211,216447,2,0,L|186:252,1,42.5,8|0,0:0|0:0,0:0:0:0:
212,337,216662,1,10,0:0:0:0:
212,337,216769,1,8,0:0:0:0:
212,337,216876,1,8,0:0:0:0:
296,184,217091,1,2,0:0:0:0:
68,194,217305,5,8,0:0:0:0:
68,194,217519,2,0,P|107:207|147:196,1,85,2|8,0:0|0:0,0:0:0:0:
147,196,217840,1,8,0:0:0:0:
147,196,217947,1,10,0:0:0:0:
304,164,218162,2,0,L|314:205,1,42.5,8|0,0:0|0:0,0:0:0:0:
288,300,218376,1,2,0:0:0:0:
258,303,218483,1,8,0:0:0:0:
223,306,218590,1,8,0:0:0:0:
193,309,218697,1,8,0:0:0:0:
164,312,218804,1,8,0:0:0:0:
134,315,218911,1,8,0:0:0:0:
104,318,219019,5,12,0:0:0:0:
100,149,219233,1,8,0:0:0:0:
100,149,219340,1,8,0:0:0:0:
100,149,219447,1,8,0:0:0:0:
264,128,219662,1,8,0:0:0:0:
264,128,219769,1,8,0:0:0:0:
264,128,219876,1,8,0:0:0:0:
344,244,220090,1,8,0:0:0:0:
376,270,220197,1,8,0:0:0:0:
418,274,220304,1,8,0:0:0:0:
456,256,220411,1,8,0:0:0:0:
478,221,220518,1,8,0:0:0:0:
478,179,220625,1,8,0:0:0:0:
456,143,220732,5,12,0:0:0:0:
352,52,220947,1,8,0:0:0:0:
352,52,221055,1,8,0:0:0:0:
352,52,221162,1,8,0:0:0:0:
192,56,221376,1,8,0:0:0:0:
196,84,221483,2,0,L|160:168,1,85,8|8,0:0|0:0,0:0:0:0:
166,192,221805,1,8,0:0:0:0:
169,221,221912,1,8,0:0:0:0:
172,251,222019,2,0,L|216:272,3,42.5,8|8|8|8,0:0|0:0|0:0|0:0,0:0:0:0:
116,320,222447,5,12,0:0:0:0:
303,35,224162,5,4,0:3:0:0:
280,190,224376,1,8,0:0:0:0:
151,87,224590,1,8,0:0:0:0:
151,87,224697,1,8,0:0:0:0:
151,87,224805,1,4,0:3:0:0:
128,242,225019,1,12,0:0:0:0:
436,254,225340,2,0,P|439:232|438:211,2,42.5,8|8|8,0:0|0:0|0:0,0:0:0:0:
429,270,225662,1,8,0:0:0:0:
422,285,225769,1,8,0:0:0:0:
412,299,225876,6,0,B|366:315|366:315|323:298,1,85,6|0,0:0|0:0,0:0:0:0:
128,242,226305,2,0,B|174:258|174:258|217:241,1,85,2|0,0:0|0:0,0:0:0:0:
304,160,226733,2,0,L|240:136,1,42.5,2|0,0:0|0:0,0:0:0:0:
188,72,226947,1,0,0:0:0:0:
188,72,227055,1,0,0:0:0:0:
188,72,227162,1,2,0:0:0:0:
308,20,227376,1,0,0:0:0:0:
465,101,227590,6,0,P|429:105|377:101,1,85,2|12,0:0|0:0,0:0:0:0:
257,208,228019,2,0,P|292:212|345:208,1,85,12|8,0:0|0:0,0:0:0:0:
466,225,228447,1,8,0:0:0:0:
400,328,228662,1,8,0:0:0:0:
370,334,228769,1,8,0:0:0:0:
341,341,228876,1,8,0:0:0:0:
312,347,228983,1,8,0:0:0:0:
284,341,229090,1,8,0:0:0:0:
255,333,229197,1,8,0:0:0:0:
226,326,229305,6,0,B|155:302|155:302|63:324,1,170,6|2,0:0|0:0,0:0:0:0:
48,236,229947,1,0,0:0:0:0:
48,236,230162,2,0,L|54:151,1,85,2|0,0:0|0:0,0:0:0:0:
159,86,230590,2,0,L|165:170,1,85,2|0,0:0|0:0,0:0:0:0:
217,233,230912,1,0,0:0:0:0:
217,233,231019,5,4,0:3:0:0:
332,104,231233,1,8,0:0:0:0:
420,300,231447,2,0,L|324:304,1,85,8|0,0:0|0:0,0:0:0:0:
132,229,231876,2,0,L|228:233,1,85,8|8,0:0|0:0,0:0:0:0:
246,234,232197,1,8,0:0:0:0:
274,224,232304,1,8,0:0:0:0:
297,205,232411,1,8,0:0:0:0:
311,179,232518,1,8,0:0:0:0:
314,150,232625,1,8,0:0:0:0:
307,121,232732,5,6,0:0:0:0:
191,43,232947,1,0,0:0:0:0:
191,43,233162,2,0,P|190:84|195:139,1,85,8|0,0:0|0:0,0:0:0:0:
24,212,233590,1,2,0:0:0:0:
68,92,233804,1,0,0:0:0:0:
147,288,234019,2,0,P|144:245|144:203,1,85,8|0,0:0|0:0,0:0:0:0:
260,80,234447,5,2,0:0:0:0:
312,240,234662,1,0,0:0:0:0:
143,203,234876,1,8,0:0:0:0:
260,80,235090,1,0,0:0:0:0:
312,240,235305,1,2,0:0:0:0:
432,125,235519,1,0,0:0:0:0:
432,328,235733,1,8,0:0:0:0:
432,328,235840,1,8,0:0:0:0:
432,328,235947,1,8,0:0:0:0:
432,328,236055,1,8,0:0:0:0:
432,328,236162,5,12,0:0:0:0:
177,147,236376,1,8,0:0:0:0:
358,21,236590,1,8,0:0:0:0:
377,241,236805,1,8,0:0:0:0:
232,32,237019,1,8,0:0:0:0:
432,125,237233,1,8,0:0:0:0:
251,254,237447,1,8,0:0:0:0:
358,21,237662,1,8,0:0:0:0:
506,229,237876,5,12,0:0:0:0:
255,196,246447,38,0,P|268:274|352:302,1,170,2|2,0:0|0:0,0:0:0:0:
280,118,247305,2,0,P|201:130|174:214,1,170,2|2,0:0|0:0,0:0:0:0:
358,142,248162,6,0,P|345:63|261:36,1,170,2|2,0:0|0:0,0:0:0:0:
334,220,249019,2,0,P|412:207|439:123,1,170,2|8,0:0|0:0,0:0:0:0:
280,118,249662,1,0,0:0:0:0:
310,298,249876,5,4,0:0:0:0:
358,142,250090,1,0,0:0:0:0:
172,208,250305,1,8,0:0:0:0:
392,236,250519,1,0,0:0:0:0:
312,28,250733,1,2,0:0:0:0:
210,307,250947,1,0,0:0:0:0:
358,142,251161,1,8,0:0:0:0:
142,88,251375,1,0,0:0:0:0:
310,298,251590,5,2,0:0:0:0:
310,298,251805,1,8,0:0:0:0:
104,260,252019,2,0,L|60:276,2,42.5,8|8|8,0:0|0:0|0:0,0:0:0:0:
267,203,252447,1,8,0:0:0:0:
144,88,252662,1,8,0:0:0:0:
297,215,252876,22,0,P|379:167|284:164,1,255
267,203,253305,6,0,P|246:255|254:319,1,118.999996368408,4|0,0:0|0:0,0:0:0:0:
107,340,253733,2,0,P|114:281|92:226,1,118.999996368408,8|0,0:0|0:0,0:0:0:0:
104,102,254162,2,0,P|158:80|217:87,1,118.999996368408,2|0,0:0|0:0,0:0:0:0:
312,212,254590,1,8,0:0:0:0:
448,156,254805,1,8,0:0:0:0:
448,156,254912,1,8,0:0:0:0:
448,156,255019,6,0,P|444:91|428:32,1,118.999996368408,2|0,0:0|0:0,0:0:0:0:
270,27,255447,2,0,P|255:84|252:143,1,118.999996368408,8|0,0:0|0:0,0:0:0:0:
331,267,255876,1,2,0:0:0:0:
173,265,256090,1,0,0:0:0:0:
352,178,256305,1,8,0:0:0:0:
152,176,256519,1,8,0:0:0:0:
152,176,256626,1,8,0:0:0:0:
152,176,256733,6,0,L|269:160,1,118.999996368408,2|0,0:0|0:0,0:0:0:0:
375,62,257162,2,0,L|257:46,1,118.999996368408,8|0,0:0|0:0,0:0:0:0:
104,61,257590,2,0,B|84:115|84:115|106:172,1,118.999996368408,2|0,0:0|0:0,0:0:0:0:
187,308,258019,1,8,0:0:0:0:
345,185,258233,1,8,0:0:0:0:
345,185,258340,1,8,0:0:0:0:
345,185,258447,6,0,B|278:165|278:165|231:180,1,118.999996368408,2|0,0:0|0:0,0:0:0:0:
384,266,258876,2,0,P|425:226|430:162,1,118.999996368408,8|0,0:0|0:0,0:0:0:0:
431,166,259197,1,8,0:0:0:0:
431,166,259305,1,10,0:0:0:0:
356,3,259519,1,0,0:0:0:0:
237,133,259733,1,8,0:0:0:0:
56,160,259947,1,8,0:0:0:0:
56,160,260055,1,8,0:0:0:0:
56,160,260162,6,0,B|90:209|90:209|161:207,1,118.999996368408,2|0,0:0|0:0,0:0:0:0:
337,167,260590,2,0,B|278:177|278:177|229:125,1,118.999996368408,8|0,0:0|0:0,0:0:0:0:
418,124,261019,1,2,0:0:0:0:
418,124,261233,2,0,P|431:182|391:242,1,118.999996368408,0|8,0:0|0:0,0:0:0:0:
284,312,261662,6,0,B|296:156|296:156|243:218,1,237.999992736817
168,308,262305,1,8,0:0:0:0:
54,204,262519,1,8,0:0:0:0:
60,162,262626,1,8,0:0:0:0:
85,128,262733,1,10,0:0:0:0:
123,110,262840,1,8,0:0:0:0:
165,111,262947,1,8,0:0:0:0:
272,176,263162,1,8,0:0:0:0:
384,60,263376,1,8,0:0:0:0:
384,60,263483,1,8,0:0:0:0:
384,60,263590,6,0,B|364:113|364:113|380:177,1,118.999996368408,2|0,0:0|0:0,0:0:0:0:
267,289,264019,2,0,B|287:236|287:236|270:171,1,118.999996368408,8|0,0:0|0:0,0:0:0:0:
270,62,264447,1,2,0:0:0:0:
270,62,264662,2,0,B|216:70|216:70|148:34,1,118.999996368408,0|8,0:0|0:0,0:0:0:0:
11,119,265090,6,0,B|1:188|1:188|38:290|38:290|26:357,1,237.999992736817
116,168,265733,1,8,0:0:0:0:
160,296,265947,1,0,0:0:0:0:
267,155,266162,1,2,0:0:0:0:
311,283,266376,1,8,0:0:0:0:
329,311,266483,1,8,0:0:0:0:
359,326,266590,1,8,0:0:0:0:
392,326,266697,1,8,0:0:0:0:
421,309,266804,1,8,0:0:0:0:
439,280,266911,1,8,0:0:0:0:
440,247,267019,6,0,P|439:192|446:124,1,118.999996368408,2|0,0:0|0:0,0:0:0:0:
303,76,267447,2,0,P|309:135|307:194,1,118.999996368408,8|0,0:0|0:0,0:0:0:0:
218,303,267876,2,0,P|118:300|162:210,1,237.999992736817,2|8,0:0|0:0,0:0:0:0:
235,90,268519,1,8,0:0:0:0:
235,90,268626,1,8,0:0:0:0:
235,90,268733,6,0,P|176:72|109:64,1,118.999996368408,2|0,0:0|0:0,0:0:0:0:
14,127,269162,2,0,P|6:187|10:255,1,118.999996368408,8|0,0:0|0:0,0:0:0:0:
126,325,269590,2,0,P|226:322|182:232,1,237.999992736817,2|8,0:0|0:0,0:0:0:0:
104,136,270233,1,8,0:0:0:0:
104,136,270340,1,8,0:0:0:0:
104,136,270447,6,0,B|165:118|165:118|218:132,1,118.999996368408,2|0,0:0|0:0,0:0:0:0:
270,28,270876,2,0,B|325:58|325:58|353:106,1,118.999996368408,8|0,0:0|0:0,0:0:0:0:
455,244,271305,2,0,P|400:260|345:232,1,118.999996368408,2|0,0:0|0:0,0:0:0:0:
218,132,271733,1,8,0:0:0:0:
240,352,271947,1,8,0:0:0:0:
240,352,272055,1,8,0:0:0:0:
240,352,272162,6,0,L|220:216,1,118.999996368408,2|0,0:0|0:0,0:0:0:0:
92,325,272590,2,0,L|122:199,1,118.999996368408,8|0,0:0|0:0,0:0:0:0:
119,209,272912,1,8,0:0:0:0:
119,209,273019,1,10,0:0:0:0:
337,187,273233,1,0,0:0:0:0:
250,31,273447,1,8,0:0:0:0:
231,256,273662,1,8,0:0:0:0:
231,256,273769,1,8,0:0:0:0:
231,256,273876,6,0,P|276:294|334:292,1,118.999996368408,2|0,0:0|0:0,0:0:0:0:
184,184,274305,2,0,P|146:228|148:286,1,118.999996368408,8|0,0:0|0:0,0:0:0:0:
256,136,274733,1,2,0:0:0:0:
256,136,274947,2,0,P|211:98|153:100,1,118.999996368408,0|8,0:0|0:0,0:0:0:0:
56,280,275376,6,0,B|223:256|223:256|148:216,1,237.999992736817
76,172,276019,1,8,0:0:0:0:
132,52,276233,1,8,0:0:0:0:
172,63,276340,1,8,0:0:0:0:
213,74,276447,1,10,0:0:0:0:
254,64,276554,1,8,0:0:0:0:
295,52,276661,1,8,0:0:0:0:
432,56,276876,1,8,0:0:0:0:
424,196,277090,1,8,0:0:0:0:
424,196,277197,1,8,0:0:0:0:
424,196,277305,6,0,B|368:168|368:168|314:185,1,118.999996368408,2|0,0:0|0:0,0:0:0:0:
180,299,277733,2,0,B|236:327|236:327|289:309,1,118.999996368408,8|0,0:0|0:0,0:0:0:0:
116,231,278162,1,2,0:0:0:0:
116,231,278376,2,0,P|87:282|105:353,1,118.999996368408,0|8,0:0|0:0,0:0:0:0:
351,226,278805,22,0,P|299:133|207:187,1,237.999992736817
272,324,279447,2,0,L|390:327,1,118.999996368408,8|0,0:0|0:0,0:0:0:0:
444,220,279876,1,2,0:0:0:0:
280,205,280090,1,0,0:0:0:0:
408,30,280305,1,8,0:0:0:0:
406,72,280412,1,8,0:0:0:0:
404,114,280519,1,8,0:0:0:0:
402,157,280626,1,8,0:0:0:0:
400,199,280733,38,0,B|396:272|396:272|378:248,1,101.999996887207,6|0,0:0|0:0,0:0:0:0:
272,111,281162,2,0,B|268:38|268:38|250:61,1,101.999996887207,8|0,0:0|0:0,0:0:0:0:
192,245,281590,1,2,0:0:0:0:
334,180,281804,1,0,0:0:0:0:
322,338,282019,1,8,0:0:0:0:
91,229,282233,6,0,P|93:174|88:121,1,101.999996887207,0|2,0:0|0:0,0:0:0:0:
213,134,282661,2,0,P|211:79|216:26,1,101.999996887207,0|8,0:0|0:0,0:0:0:0:
340,195,283090,2,0,P|342:140|337:87,1,101.999996887207,0|2,0:0|0:0,0:0:0:0:
225,227,283519,1,0,0:0:0:0:
375,270,283733,1,8,0:0:0:0:
262,356,283947,1,0,0:0:0:0:
141,219,284162,6,0,P|158:172|201:146,1,101.999996887207,2|0,0:0|0:0,0:0:0:0:
436,197,284590,2,0,P|418:243|375:269,1,101.999996887207,8|0,0:0|0:0,0:0:0:0:
308,120,285019,1,2,0:0:0:0:
296,312,285233,1,0,0:0:0:0:
141,219,285447,1,8,0:0:0:0:
176,32,285662,6,0,L|200:144,1,101.999996887207,0|2,0:0|0:0,0:0:0:0:
331,20,286090,2,0,L|305:131,1,101.999996887207,0|8,0:0|0:0,0:0:0:0:
455,99,286519,2,0,L|384:189,1,101.999996887207,0|2,0:0|0:0,0:0:0:0:
261,281,286947,2,0,P|256:254|258:231,1,50.9999984436036
283,152,287161,1,8,0:0:0:0:
363,332,287376,1,0,0:0:0:0:
112,272,287590,5,6,0:0:0:0:
283,152,287805,1,0,0:0:0:0:
96,76,288019,1,8,0:0:0:0:
229,264,288233,1,0,0:0:0:0:
210,55,288448,5,2,0:0:0:0:
51,179,288662,1,0,0:0:0:0:
283,152,288876,1,8,0:0:0:0:
96,76,289090,1,0,0:0:0:0:
112,272,289305,6,0,B|162:292|162:292|226:273,1,101.999996887207,2|0,0:0|0:0,0:0:0:0:
325,169,289733,1,8,0:0:0:0:
171,100,289947,2,0,B|151:150|151:150|170:214,1,101.999996887207,0|2,0:0|0:0,0:0:0:0:
289,336,290376,1,0,0:0:0:0:
446,280,290590,1,8,0:0:0:0:
325,169,290805,1,0,0:0:0:0:
504,160,291019,5,2,0:0:0:0:
294,71,291233,1,0,0:0:0:0:
348,268,291447,1,8,0:0:0:0:
398,25,291662,1,0,0:0:0:0:
219,166,291876,5,2,0:0:0:0:
417,162,292090,1,0,0:0:0:0:
219,166,292305,1,8,0:0:0:0:
417,162,292519,1,0,0:0:0:0:
272,52,292733,5,2,0:0:0:0:
288,268,292947,1,0,0:0:0:0:
122,170,293162,1,8,0:0:0:0:
320,166,293376,1,0,0:0:0:0:
144,36,293590,5,2,0:0:0:0:
172,240,293805,1,0,0:0:0:0:
144,36,294019,1,8,0:0:0:0:
171,68,294126,1,8,0:0:0:0:
210,83,294233,1,8,0:0:0:0:
251,78,294340,1,8,0:0:0:0:
286,53,294447,6,0,L|349:58,1,50.9999984436036,10|0,0:0|0:0,0:0:0:0:
298,187,294662,2,0,L|247:182,1,50.9999984436036,8|8,0:0|0:0,0:0:0:0:
414,143,294876,2,0,L|464:138,1,50.9999984436036,10|0,0:0|0:0,0:0:0:0:
337,316,295090,1,0,0:0:0:0:
337,316,295197,2,0,L|286:321,1,50.9999984436036,8|10,0:0|0:0,0:0:0:0:
187,205,295412,1,8,0:0:0:0:
218,177,295519,1,8,0:0:0:0:
260,171,295626,1,8,0:0:0:0:
298,187,295733,1,10,0:0:0:0:
286,320,295947,2,0,L|235:315,1,50.9999984436036,8|8,0:0|0:0,0:0:0:0:
145,206,296162,6,0,L|132:137,1,50.9999984436036,10|0,0:0|0:0,0:0:0:0:
94,306,296376,2,0,L|84:356,1,50.9999984436036,8|8,0:0|0:0,0:0:0:0:
49,206,296590,2,0,L|62:137,1,50.9999984436036,10|0,0:0|0:0,0:0:0:0:
218,65,296805,1,0,0:0:0:0:
218,65,296912,2,0,L|208:115,1,50.9999984436036,8|10,0:0|0:0,0:0:0:0:
262,212,297126,1,8,0:0:0:0:
301,198,297233,1,8,0:0:0:0:
330,167,297340,1,8,0:0:0:0:
340,126,297447,1,10,0:0:0:0:
208,14,297662,2,0,L|217:64,1,50.9999984436036,8|8,0:0|0:0,0:0:0:0:
340,126,297876,6,0,L|349:75,1,50.9999984436036,10|0,0:0|0:0,0:0:0:0:
476,185,298090,2,0,L|425:175,1,50.9999984436036,8|8,0:0|0:0,0:0:0:0:
291,248,298305,2,0,L|300:197,1,50.9999984436036,10|0,0:0|0:0,0:0:0:0:
151,274,298519,1,0,0:0:0:0:
151,274,298626,2,0,L|201:283,1,50.9999984436036,8|10,0:0|0:0,0:0:0:0:
142,85,298840,1,8,0:0:0:0:
116,117,298947,1,8,0:0:0:0:
111,159,299054,1,8,0:0:0:0:
129,197,299161,1,10,0:0:0:0:
299,197,299376,2,0,L|309:147,1,50.9999984436036,8|8,0:0|0:0,0:0:0:0:
362,256,299590,6,0,L|371:306,1,50.9999984436036,10|0,0:0|0:0,0:0:0:0:
221,164,299805,2,0,L|230:113,1,50.9999984436036,8|8,0:0|0:0,0:0:0:0:
387,129,300019,2,0,L|396:179,1,50.9999984436036,10|0,0:0|0:0,0:0:0:0:
270,328,300233,1,0,0:0:0:0:
270,328,300340,2,0,L|279:277,1,50.9999984436036,8|10,0:0|0:0,0:0:0:0:
267,130,300555,1,10,0:0:0:0:
230,113,300662,1,8,0:0:0:0:
188,115,300769,1,8,0:0:0:0:
150,137,300876,1,8,0:0:0:0:
219,318,301090,2,0,L|269:327,1,50.9999984436036,8|8,0:0|0:0,0:0:0:0:
350,212,301305,5,6,0:0:0:0:
128,272,301519,1,8,0:0:0:0:
286,146,301733,1,2,0:0:0:0:
350,299,301947,1,8,0:0:0:0:
350,299,302055,2,0,P|375:300|397:288,1,50.9999984436036,8|10,0:0|0:0,0:0:0:0:
286,146,302269,1,8,0:0:0:0:
243,147,302376,1,8,0:0:0:0:
201,148,302483,1,8,0:0:0:0:
158,149,302590,1,10,0:0:0:0:
332,64,302804,1,8,0:0:0:0:
192,272,303019,5,2,0:0:0:0:
84,56,303233,1,8,0:0:0:0:
286,146,303447,1,2,0:0:0:0:
109,279,303662,1,8,0:0:0:0:
109,279,303769,2,0,P|108:253|117:229,1,50.9999984436036,8|10,0:0|0:0,0:0:0:0:
211,64,303983,1,8,0:0:0:0:
206,106,304090,1,8,0:0:0:0:
201,148,304197,1,8,0:0:0:0:
197,190,304304,1,10,0:0:0:0:
360,168,304519,1,8,0:0:0:0:
208,356,304733,5,2,0:0:0:0:
120,136,304947,1,8,0:0:0:0:
308,248,305162,1,2,0:0:0:0:
248,112,305376,1,8,0:0:0:0:
248,112,305483,2,0,P|247:86|256:62,1,50.9999984436036,8|10,0:0|0:0,0:0:0:0:
445,176,305697,1,8,0:0:0:0:
402,172,305804,1,8,0:0:0:0:
360,168,305911,1,8,0:0:0:0:
317,165,306018,1,10,0:0:0:0:
456,92,306233,1,8,0:0:0:0:
139,225,306447,5,8,0:0:0:0:
255,62,306661,1,8,0:0:0:0:
240,328,306875,1,12,0:0:0:0:
357,0,307197,5,12,0:0:0:0:
32,192,307547,1,12,0:0:0:0:
414,238,307898,6,0,B|447:238|474:279|447:314|399:316|395:284|395:284|360:86|360:86|290:88|284:146,1,446.249986381531,12|0,0:0|0:0,0:0:0:0:
283,166,309456,2,0,P|287:188|299:206,2,42.5,8|8|4,0:0|0:0|3:0,0:0:0:0:
32,192,310303,5,4,0:0:0:0:
256,192,310409,12,8,312430,0:0:0:0:
