osu file format v14

[General]
AudioFilename: audio.mp3
AudioLeadIn: 0
PreviewTime: -1
Countdown: 1
SampleSet: None
StackLeniency: 0.7
Mode: 0
LetterboxInBreaks: 0
WidescreenStoryboard: 1

[Editor]
Bookmarks: 74827,80313,85798,91284,140655,146141,151627,157113,217455,222941,228427,233913,250370,255855,267341,268198
DistanceSpacing: 1
BeatDivisor: 4
GridSize: 32
TimelineZoom: 1.3

[Metadata]
Title:Naimono Nedari
TitleUnicode:ないものねだり
Artist:KANA-BOON
ArtistUnicode:KANA-BOON
Creator:bronco2p
Version:ending
Source:
Tags:
BeatmapID:1801278
BeatmapSetID:860945

[Difficulty]
HPDrainRate:7
CircleSize:5
OverallDifficulty:8
ApproachRate:9.5
SliderMultiplier:1.4
SliderTickRate:1

[Events]
//Background and Video events
//Break Periods
//Storyboard Layer 0 (Background)
//Storyboard Layer 1 (Fail)
//Storyboard Layer 2 (Pass)
//Storyboard Layer 3 (Foreground)
//Storyboard Sound Samples

[TimingPoints]
3513,342.857142857143,4,1,0,100,1,0
14484,-71.4285714285714,4,2,0,80,0,0
19970,-76.9230769230769,4,2,0,90,0,0
22713,-76.9230769230769,4,2,0,95,0,0
25455,-71.4285714285714,4,3,0,100,0,0
36427,-71.4285714285714,4,3,0,100,0,0
74827,-71.4285714285714,4,2,0,100,0,1
96770,-71.4285714285714,4,2,0,100,0,0
140655,-71.4285714285714,4,2,0,100,0,1
162598,-71.4285714285714,4,2,0,100,0,0
250370,-66.6666666666667,4,2,0,100,0,0
255855,-62.5,4,2,0,100,0,0
258598,-58.8235294117647,4,2,0,100,0,0
260484,-133.333333333333,4,2,0,100,0,0

[HitObjects]
114,85,250370,6,0,P|117:138|130:175,1,52.5000020027161
178,186,250541,2,0,P|175:132|162:95,1,52.5000020027161
238,84,250713,2,0,P|241:137|254:174,1,52.5000020027161
302,185,250884,2,0,P|299:131|286:94,1,52.5000020027161
364,87,251055,6,0,P|401:136|404:157,1,52.5000020027161
379,204,251227,2,0,P|336:167|327:149,1,52.5000020027161
276,122,251398,5,0,0:0:0:0:
276,153,251484,1,0,0:0:0:0:
276,184,251570,1,0,0:0:0:0:
277,215,251655,1,0,0:0:0:0:
277,246,251741,6,0,L|278:303,1,52.5000020027161
205,265,251913,2,0,P|207:218|225:190,1,52.5000020027161
262,155,252084,5,0,0:0:0:0:
282,130,252170,1,0,0:0:0:0:
292,100,252255,1,0,0:0:0:0:
289,68,252341,1,0,0:0:0:0:
270,42,252427,6,0,P|237:23|203:13,1,52.5000020027161
153,53,252598,2,0,P|203:103|226:117,1,52.5000020027161
209,115,252770,5,0,0:0:0:0:
224,142,252855,1,0,0:0:0:0:
230,172,252941,1,0,0:0:0:0:
227,203,253027,1,0,0:0:0:0:
221,234,253113,6,0,P|205:288|185:313,1,52.5000020027161
132,309,253284,2,0,P|118:247|121:232,1,52.5000020027161
120,227,253455,5,0,0:0:0:0:
128,196,253541,1,0,0:0:0:0:
140,166,253627,1,0,0:0:0:0:
159,140,253713,1,0,0:0:0:0:
184,121,253798,6,0,P|229:93|261:83,1,52.5000020027161
287,146,253970,2,0,P|255:197|225:215,1,52.5000020027161
235,208,254141,5,0,0:0:0:0:
210,228,254227,1,0,0:0:0:0:
202,258,254313,1,0,0:0:0:0:
207,288,254398,1,0,0:0:0:0:
225,313,254484,6,0,P|265:357|291:366,1,52.5000020027161
326,312,254655,2,0,P|322:282|301:252,1,52.5000020027161
286,242,254827,5,0,0:0:0:0:
263,219,254913,1,0,0:0:0:0:
255,188,254998,1,0,0:0:0:0:
260,156,255084,1,0,0:0:0:0:
267,125,255170,6,0,P|275:91|298:56,1,52.5000020027161
356,46,255341,2,0,P|360:86|353:113,1,52.5000020027161
347,128,255513,5,0,0:0:0:0:
332,155,255598,1,0,0:0:0:0:
305,172,255684,1,0,0:0:0:0:
274,180,255770,1,0,0:0:0:0:
242,190,255855,6,0,P|179:202|153:224,1,56
187,288,256027,2,0,P|244:298|287:286,1,56
285,289,256198,5,0,0:0:0:0:
323,265,256284,1,0,0:0:0:0:
356,234,256370,1,0,0:0:0:0:
377,195,256455,1,0,0:0:0:0:
391,152,256541,6,0,P|401:94|397:64,1,56
342,27,256713,2,0,P|319:84|316:117,1,56
313,122,256884,5,0,0:0:0:0:
309,166,256970,1,0,0:0:0:0:
295,208,257055,1,0,0:0:0:0:
265,242,257141,1,0,0:0:0:0:
228,268,257227,6,0,P|171:293|146:293,1,56
91,268,257398,2,0,P|133:231|178:214,1,56
174,213,257570,5,0,0:0:0:0:
210,187,257655,1,0,0:0:0:0:
237,151,257741,1,0,0:0:0:0:
260,112,257827,1,0,0:0:0:0:
290,78,257913,6,0,P|315:63|360:59,1,56
401,124,258084,2,0,P|356:164|318:170,1,56
318,175,258255,5,0,0:0:0:0:
287,208,258341,1,0,0:0:0:0:
257,242,258427,1,0,0:0:0:0:
244,285,258513,1,0,0:0:0:0:
220,325,258598,6,0,P|181:353|129:364,1,59.5000011348725
70,332,258770,6,0,P|107:284|135:273,1,59.5000011348725
158,259,258941,5,0,0:0:0:0:
215,243,259027,1,0,0:0:0:0:
266,212,259113,1,0,0:0:0:0:
309,172,259198,1,0,0:0:0:0:
351,130,259284,6,0,P|374:111|408:64,1,59.5000011348725
313,25,259455,2,0,P|287:50|271:83,1,59.5000011348725
251,125,259627,5,0,0:0:0:0:
237,183,259713,1,0,0:0:0:0:
218,239,259798,1,0,0:0:0:0:
176,282,259884,1,0,0:0:0:0:
125,314,259970,6,0,P|81:326|40:328,1,59.5000011348725
6,246,260141,2,0,P|53:228|101:217,1,59.5000011348725
118,205,260313,1,0,0:0:0:0:
173,184,260398,1,0,0:0:0:0:
197,175,260484,6,0,B|242:159|297:203|224:246|281:304|281:304|233:284|170:288|170:288|126:247|122:125|163:84|163:84|221:83|278:51|278:51|316:87|335:184|401:190|401:190|375:230|450:325|365:367|365:367|279:354|220:358|220:358|104:360|62:325|62:325|72:306|56:287,1,1365.00005207062
33,189,265113,5,0,0:0:0:0:
177,251,265541,5,0,0:0:0:0:
313,88,265970,5,0,0:0:0:0:
416,206,266484,5,0,0:0:0:0:
155,239,267341,6,0,L|113:268,2,26.2500010013581
256,192,268198,12,0,271455,0:0:0:0:
