osu file format v14

[General]
AudioFilename: KANA-BOON -Naimononedari.mp3
AudioLeadIn: 0
PreviewTime: 171
Countdown: 0
SampleSet: None
StackLeniency: 0.7
Mode: 0
LetterboxInBreaks: 0
WidescreenStoryboard: 0

[Editor]
DistanceSpacing: 1
BeatDivisor: 4
GridSize: 4
TimelineZoom: 1.5

[Metadata]
Title:Nai Mono Nedari
TitleUnicode:ないものねだり
Artist:KANA-BOON
ArtistUnicode:KANA-BOON
Creator:zhu
Version:Habi's Insane
Source:
Tags:frontier habiholic djulus walaowey kana boon
BeatmapID:1670366
BeatmapSetID:758923

[Difficulty]
HPDrainRate:6
CircleSize:4
OverallDifficulty:7
ApproachRate:9
SliderMultiplier:1.6
SliderTickRate:1

[Events]
//Background and Video events
0,0,"bg.jpg",0,0
//Break Periods
//Storyboard Layer 0 (Background)
//Storyboard Layer 1 (Fail)
//Storyboard Layer 2 (Pass)
//Storyboard Layer 3 (Foreground)
//Storyboard Sound Samples

[TimingPoints]
171,342.857142857143,4,2,2,40,1,0
5656,-133.333333333333,4,3,1,50,0,0
8656,-133.333333333333,4,3,1,10,0,0
8742,-133.333333333333,4,3,1,55,0,0
9085,-133.333333333333,4,3,1,60,0,0
9342,-133.333333333333,4,3,1,10,0,0
9428,-133.333333333333,4,3,1,65,0,0
9771,-133.333333333333,4,3,1,70,0,0
10028,-133.333333333333,4,3,1,10,0,0
10113,-133.333333333333,4,3,1,75,0,0
10285,-133.333333333333,4,3,1,5,0,0
11142,-100,4,2,1,70,0,0
11327,342.857142857143,4,2,1,70,1,0
12527,342.857142857143,4,2,1,70,1,0
16283,342.857142857143,4,2,1,70,1,0
16625,342.857142857143,4,2,1,70,1,0
22113,-100,4,3,1,60,0,0
28953,342.857142857143,4,3,1,60,1,0
30677,342.857142857143,4,3,1,60,1,0
31713,342.857142857143,4,3,1,60,1,0
33085,-100,4,2,1,70,0,0
38571,-100,4,3,1,60,0,0
42674,342.857142857143,4,3,1,60,1,0
44067,342.857142857143,4,3,1,60,1,0
46797,342.857142857143,4,3,1,60,1,0
49539,-133.333333333333,4,3,1,65,0,0
57759,342.857142857143,4,3,1,65,1,0
57759,-133.333333333333,4,3,1,65,0,0
60501,-100,4,2,1,80,0,1
82101,-100,4,2,1,70,0,1
82189,-100,4,2,1,65,0,1
82273,-100,4,2,1,60,0,1
82359,-100,4,2,1,55,0,1
82444,-100,4,2,1,50,0,0

[Colours]
Combo1 : 0,64,128
Combo2 : 192,192,192
Combo3 : 255,255,128
SliderBorder : 255,255,255
SliderTrackOverride : 0,0,0

[HitObjects]
36,108,171,5,2,0:0:0:0:
184,48,342,1,2,0:0:0:0:
44,88,856,5,2,0:0:0:0:
196,140,1028,1,2,0:0:0:0:
48,64,1542,5,2,0:0:0:0:
140,220,1713,1,2,0:0:0:0:
64,36,2228,5,2,0:0:0:0:
40,208,2399,1,2,0:0:0:0:
240,116,2913,5,2,0:0:0:0:
88,132,3085,1,2,0:0:0:0:
256,88,3599,5,2,0:0:0:0:
144,204,3771,1,2,0:0:0:0:
244,60,4285,5,2,0:0:0:0:
220,256,4456,1,2,0:0:0:0:
228,40,4971,5,2,0:0:0:0:
304,200,5142,1,2,0:0:0:0:
304,199,5656,6,0,P|305:140|324:83,1,120.000004577637,6|2,0:0|0:0,0:0:0:0:
396,24,6171,1,0,0:0:0:0:
236,71,6342,2,0,P|206:79|176:80,1,60.0000022888184,2|0,0:0|0:0,0:0:0:0:
80,168,6685,2,0,P|109:169|139:176,1,60.0000022888184,2|0,0:0|0:0,0:0:0:0:
232,260,7028,6,0,L|352:244,1,120.000004577637,2|2,0:0|0:0,0:0:0:0:
428,300,7542,1,0,0:0:0:0:
428,300,7713,2,0,L|412:364,1,60.0000022888184,2|0,0:0|0:0,0:0:0:0:
384,168,8056,2,0,L|400:104,1,60.0000022888184,2|0,0:0|0:0,0:0:0:0:
268,16,8399,6,0,L|280:112,1,90.0000034332277,2|0,0:0|0:0,0:0:0:0:
284,120,8742,2,0,L|224:108,1,60.0000022888184,6|0,0:0|0:0,0:0:0:0:
96,60,9085,2,0,P|114:101|120:145,1,90.0000034332277,2|0,0:0|0:0,0:0:0:0:
120,168,9428,2,0,L|104:232,1,60.0000022888184,6|0,0:0|0:0,0:0:0:0:
180,324,9771,6,0,L|280:312,1,90.0000034332277,2|0,0:0|0:0,0:0:0:0:
292,292,10113,2,0,L|360:300,1,60.0000022888184,6|0,0:0|0:0,0:0:0:0:
351,299,11142,5,6,0:0:0:0:
484,208,11327,1,0,0:0:0:0:
376,128,11498,2,0,L|392:216,1,80,10|2,0:0|0:0,0:0:0:0:
432,40,11841,1,2,0:0:0:0:
280,160,12012,2,0,P|240:160|196:144,1,80,2|8,0:0|0:0,0:0:0:0:
84,44,12355,6,0,P|105:120|98:199,1,160,2|2,0:0|0:0,0:0:0:0:
28,268,12869,1,8,0:0:0:0:
172,360,13041,2,0,L|260:348,1,80,2|0,0:0|0:0,0:0:0:0:
320,280,13384,1,2,0:0:0:0:
228,180,13555,1,10,0:0:0:0:
408,228,13727,1,2,0:0:0:0:
208,196,13898,6,0,P|168:196|124:184,1,80,2|0,0:0|0:0,0:0:0:0:
292,72,14241,2,0,P|332:72|376:84,1,80,10|2,0:0|0:0,0:0:0:0:
432,156,14584,1,2,0:0:0:0:
484,20,14755,1,2,0:0:0:0:
444,180,14927,1,8,0:0:0:0:
256,72,15098,6,0,B|280:124|280:124|256:224,1,160,2|2,0:0|0:0,0:0:0:0:
184,148,15612,1,8,0:0:0:0:
240,324,15784,2,0,B|324:312|304:364|400:344,1,160,2|2,0:0|0:0,0:0:0:0:
496,240,16283,1,10,0:0:0:0:
461,258,16368,1,8,0:0:0:0:
422,255,16454,1,10,0:0:0:0:
391,230,16540,1,8,0:0:0:0:
379,192,16625,6,0,L|396:108,1,80,6|0,0:0|0:0,0:0:0:0:
264,20,16967,2,0,L|247:104,1,80,10|2,0:0|0:0,0:0:0:0:
216,232,17310,1,2,0:0:0:0:
112,132,17482,1,2,0:0:0:0:
176,312,17653,1,8,0:0:0:0:
0,196,17825,6,0,P|51:251|125:231,1,160,2|2,0:0|0:0,0:0:0:0:
208,144,18339,1,8,0:0:0:0:
128,28,18510,1,2,0:0:0:0:
312,68,18682,2,0,L|232:56,1,80,0|2,0:0|0:0,0:0:0:0:
68,228,19025,2,0,L|148:216,1,80,10|2,0:0|0:0,0:0:0:0:
292,156,19367,5,2,0:0:0:0:
200,304,19539,1,0,0:0:0:0:
392,280,19710,2,0,L|308:264,1,80,10|2,0:0|0:0,0:0:0:0:
184,180,20053,1,2,0:0:0:0:
284,44,20225,2,0,P|291:83|290:123,1,80,2|8,0:0|0:0,0:0:0:0:
168,188,20567,6,0,B|112:204|112:204|88:236|88:236|24:252,1,160,2|2,0:0|0:0,0:0:0:0:
32,160,21082,1,8,0:0:0:0:
164,284,21253,1,2,0:0:0:0:
188,104,21425,6,0,P|237:136|296:134,1,120,0|0,0:0|0:0,0:0:0:0:
327,119,21767,1,10,0:0:0:0:
366,111,21853,1,8,0:0:0:0:
405,120,21939,1,10,0:0:0:0:
435,146,22025,1,8,0:0:0:0:
450,183,22110,6,0,L|475:23,1,160,6|10,0:0|0:0,0:0:0:0:
327,119,22625,1,2,0:0:0:0:
420,288,22796,2,0,L|500:276,1,80,2|0,0:0|0:0,0:0:0:0:
336,356,23139,2,0,L|252:344,1,80,10|0,0:0|0:0,0:0:0:0:
184,264,23482,5,2,0:0:0:0:
60,356,23653,1,2,0:0:0:0:
96,168,23825,2,0,P|88:208|84:248,1,80,10|2,0:0|0:0,0:0:0:0:
84,246,24082,1,0,0:0:0:0:
84,246,24167,1,2,0:0:0:0:
236,184,24339,1,0,0:0:0:0:
72,72,24510,2,0,L|160:88,1,80,10|2,0:0|0:0,0:0:0:0:
344,15,24853,6,0,P|317:89|346:162,1,160,2|10,0:0|0:0,0:0:0:0:
412,88,25367,1,0,0:0:0:0:
352,264,25539,2,0,B|268:256|284:308|196:292,1,160,2|10,0:0|0:0,0:0:0:0:
76,208,26053,1,0,0:0:0:0:
184,120,26225,6,0,L|168:204,1,80,2|0,0:0|0:0,0:0:0:0:
116,48,26567,1,10,0:0:0:0:
288,28,26739,1,0,0:0:0:0:
288,28,26825,1,0,0:0:0:0:
288,28,26910,2,0,L|296:112,1,80,2|0,0:0|0:0,0:0:0:0:
448,200,27253,2,0,L|455:120,1,80,8|0,0:0|0:0,0:0:0:0:
360,255,27596,6,0,P|436:242|494:292,1,160,6|10,0:0|0:0,0:0:0:0:
400,360,28110,1,2,0:0:0:0:
255,327,28282,2,0,P|236:251|270:180,1,160,2|10,0:0|0:0,0:0:0:0:
348,120,28796,1,0,0:0:0:0:
228,28,28953,5,2,0:0:0:0:
368,96,29124,1,2,0:0:0:0:
212,176,29295,2,0,L|124:164,1,80,10|2,0:0|0:0,0:0:0:0:
4,288,29638,2,0,B|52:320|52:320|156:300,1,160,2|10,0:0|0:0,0:0:0:0:
212,176,30153,1,2,0:0:0:0:
296,248,30324,6,0,P|304:292|304:340,1,80,2|0,0:0|0:0,0:0:0:0:
192,156,30677,2,0,P|193:116|200:76,1,80,10|0,0:0|0:0,0:0:0:0:
320,24,31019,2,0,L|480:52,1,160,2|10,0:0|0:0,0:0:0:0:
380,136,31534,1,0,0:0:0:0:
216,84,31713,6,0,P|224:128|228:172,1,80,2|0,0:0|0:0,0:0:0:0:
68,272,32055,2,0,P|72:232|79:192,1,80,10|0,0:0|0:0,0:0:0:0:
112,88,32398,1,2,0:0:0:0:
172,248,32570,1,0,0:0:0:0:
296,152,32741,5,10,0:0:0:0:
332,136,32827,1,8,0:0:0:0:
371,140,32913,1,10,0:0:0:0:
404,163,32998,1,8,0:0:0:0:
422,198,33084,6,0,L|412:280,1,80,6|0,0:0|0:0,0:0:0:0:
268,352,33427,2,0,L|278:270,1,80,10|2,0:0|0:0,0:0:0:0:
172,112,33770,1,2,0:0:0:0:
288,192,33941,1,2,0:0:0:0:
96,160,34113,1,8,0:0:0:0:
220,16,34284,6,0,P|276:70|354:73,1,160,2|2,0:0|0:0,0:0:0:0:
440,32,34798,1,8,0:0:0:0:
384,228,34970,1,2,0:0:0:0:
488,112,35141,1,0,0:0:0:0:
320,164,35313,1,2,0:0:0:0:
456,328,35484,2,0,L|472:240,1,80,10|2,0:0|0:0,0:0:0:0:
300,256,35827,5,2,0:0:0:0:
252,104,35998,1,0,0:0:0:0:
200,220,36170,2,0,L|212:308,1,80,10|2,0:0|0:0,0:0:0:0:
260,120,36513,1,2,0:0:0:0:
120,152,36684,2,0,L|100:236,1,80,2|8,0:0|0:0,0:0:0:0:
80,24,37027,6,0,P|141:72|219:69,1,160,2|2,0:0|0:0,0:0:0:0:
304,24,37541,1,8,0:0:0:0:
248,208,37713,1,2,0:0:0:0:
412,152,37884,2,0,L|328:136,1,80,0|2,0:0|0:0,0:0:0:0:
132,156,38227,1,10,0:0:0:0:
127,195,38313,1,8,0:0:0:0:
131,235,38398,1,10,0:0:0:0:
142,273,38484,1,8,0:0:0:0:
161,308,38570,6,0,L|324:288,1,160,6|10,0:0|0:0,0:0:0:0:
400,216,39084,1,2,0:0:0:0:
295,28,39255,2,0,P|288:87|302:145,1,120,2|0,0:0|0:0,0:0:0:0:
312,164,39598,2,0,L|224:148,1,80,10|2,0:0|0:0,0:0:0:0:
120,88,39941,6,0,P|135:145|122:203,1,120,2|0,0:0|0:0,0:0:0:0:
104,236,40284,2,0,L|16:224,1,80,10|2,0:0|0:0,0:0:0:0:
24,225,40541,1,0,0:0:0:0:
24,225,40627,1,2,0:0:0:0:
136,332,40798,1,0,0:0:0:0:
208,152,40970,1,10,0:0:0:0:
220,360,41141,1,2,0:0:0:0:
300,248,41313,6,0,B|380:240|372:296|456:288,1,160,2|10,0:0|0:0,0:0:0:0:
436,188,41827,1,0,0:0:0:0:
436,188,41913,1,0,0:0:0:0:
436,188,41998,2,0,L|424:108,1,80,2|0,0:0|0:0,0:0:0:0:
272,16,42341,2,0,L|284:96,1,80,10|0,0:0|0:0,0:0:0:0:
175,207,42674,6,0,P|100:193|43:245,1,160,2|10,0:0|0:0,0:0:0:0:
136,312,43188,1,2,0:0:0:0:
276,271,43359,2,0,P|291:235|293:195,1,80,2|0,0:0|0:0,0:0:0:0:
204,32,43702,2,0,P|188:68|186:108,1,80,8|4,0:0|0:0,0:0:0:0:
204,328,44067,6,0,L|368:308,1,160,2|10,0:0|0:0,0:0:0:0:
484,208,44581,1,2,0:0:0:0:
484,208,44667,1,0,0:0:0:0:
483,208,44752,2,0,P|406:207|356:148,1,160,2|10,0:0|0:0,0:0:0:0:
376,44,45267,1,0,0:0:0:0:
260,188,45438,6,0,L|128:168,1,120,2|0,0:0|0:0,0:0:0:0:
108,188,45781,1,10,0:0:0:0:
28,84,45952,1,2,0:0:0:0:
28,84,46038,1,0,0:0:0:0:
28,84,46124,1,2,0:0:0:0:
52,264,46295,1,0,0:0:0:0:
116,31,46467,2,0,P|155:31|193:44,1,80,10|2,0:0|0:0,0:0:0:0:
288,168,46797,6,0,L|448:144,2,160,2|10|2,0:0|0:0|0:0,0:0:0:0:
196,108,47654,1,0,0:0:0:0:
280,268,47825,1,10,0:0:0:0:
280,48,47997,1,0,0:0:0:0:
108,160,48168,6,0,L|124:244,1,80,2|0,0:0|0:0,0:0:0:0:
265,346,48511,2,0,L|279:267,1,80,10|2,0:0|0:0,0:0:0:0:
224,160,48854,1,10,0:0:0:0:
384,244,49025,1,10,0:0:0:0:
284,48,49197,1,8,0:0:0:0:
245,58,49282,1,8,0:0:0:0:
206,68,49368,1,8,0:0:0:0:
168,79,49454,1,8,0:0:0:0:
129,89,49539,6,0,L|64:76,1,60.0000022888184,4|0,1:2|0:0,0:0:0:0:
12,200,49882,2,0,L|72:188,1,60.0000022888184,8|0,0:0|0:0,0:0:0:0:
176,180,50225,2,0,L|160:300,1,120.000004577637,0|8,0:0|0:0,0:0:0:0:
80,352,50739,1,0,0:0:0:0:
264,276,50911,6,0,P|292:284|328:288,1,60.0000022888184,4|0,1:2|0:0,0:0:0:0:
456,208,51254,2,0,P|426:211|397:219,1,60.0000022888184,8|0,0:0|0:0,0:0:0:0:
304,180,51597,2,0,L|284:52,1,120.000004577637,0|8,0:0|0:0,0:0:0:0:
364,16,52111,1,0,0:0:0:0:
191,96,52282,6,0,P|133:99|90:59,1,120.000004577637,4|8,1:2|0:0,0:0:0:0:
248,24,52797,1,0,0:0:0:0:
224,232,52968,2,0,L|156:220,1,60.0000022888184,0|0,0:0|0:0,0:0:0:0:
64,324,53311,2,0,L|124:312,1,60.0000022888184,8|0,0:0|0:0,0:0:0:0:
280,296,53654,6,0,P|272:240|280:176,1,120.000004577637,4|8,1:2|0:0,0:0:0:0:
352,108,54168,1,0,0:0:0:0:
352,108,54339,2,0,L|472:128,1,120.000004577637,0|8,0:0|0:0,0:0:0:0:
496,236,54854,1,0,0:0:0:0:
496,236,54939,1,0,0:0:0:0:
496,236,55025,6,0,L|432:224,1,60.0000022888184,4|0,1:2|0:0,0:0:0:0:
304,308,55368,2,0,P|332:300|368:288,1,60.0000022888184,8|0,0:0|0:0,0:0:0:0:
208,240,55711,2,0,L|224:364,1,120.000004577637,0|8,0:0|0:0,0:0:0:0:
300,192,56225,1,0,0:0:0:0:
216,144,56397,6,0,B|152:136|160:164|88:152,1,120.000004577637,4|8,1:2|0:0,0:0:0:0:
120,72,56911,1,0,0:0:0:0:
272,32,57082,2,0,P|321:63|380:59,1,120.000004577637,0|8,0:0|0:0,0:0:0:0:
380,59,57759,6,0,L|368:184,1,120.000004577637,4|8,1:2|0:0,0:0:0:0:
352,272,58273,1,0,0:0:0:0:
248,184,58444,1,0,0:0:0:0:
340,300,58616,1,0,0:0:0:0:
188,328,58787,2,0,L|120:316,1,60.0000022888184,8|0,0:0|0:0,0:0:0:0:
31,251,59130,6,0,P|15:195|34:139,1,120.000004577637,4|8,1:2|0:0,0:0:0:0:
64,112,59559,1,8,0:0:0:0:
92,120,59644,1,8,0:0:0:0:
121,128,59730,1,8,0:0:0:0:
150,136,59816,1,8,0:0:0:0:
150,136,60501,5,6,0:0:0:0:
288,52,60673,1,2,0:0:0:0:
284,208,60844,2,0,L|368:196,1,80,10|2,0:0|0:0,0:0:0:0:
432,112,61187,1,2,0:0:0:0:
444,280,61359,1,2,0:0:0:0:
284,208,61530,2,0,P|276:168|284:124,1,80,10|2,0:0|0:0,0:0:0:0:
352,48,61873,5,2,0:0:0:0:
188,88,62044,1,2,0:0:0:0:
368,152,62216,2,0,L|456:136,1,80,10|2,0:0|0:0,0:0:0:0:
184,248,62559,2,0,L|24:220,1,160,2|10,0:0|0:0,0:0:0:0:
128,136,63073,1,0,0:0:0:0:
263,28,63244,6,0,P|238:102|267:174,1,160,2|10,0:0|0:0,0:0:0:0:
340,240,63759,1,0,0:0:0:0:
488,80,63930,2,0,B|400:72|424:120|328:104,1,160,2|10,0:0|0:0,0:0:0:0:
360,20,64444,1,0,0:0:0:0:
463,172,64616,6,0,P|436:246|434:326,1,160,2|10,0:0|0:0,0:0:0:0:
344,364,65130,1,0,0:0:0:0:
248,268,65301,2,0,P|209:276|172:291,1,80,2|0,0:0|0:0,0:0:0:0:
8,136,65644,5,8,0:0:0:0:
35,164,65730,1,8,0:0:0:0:
70,183,65816,1,8,0:0:0:0:
109,189,65901,1,8,0:0:0:0:
149,182,65987,6,0,L|164:92,1,80,6|2,0:0|0:0,0:0:0:0:
332,16,66330,2,0,L|344:94,1,80,10|2,0:0|0:0,0:0:0:0:
240,240,66673,2,0,L|254:149,1,80,2|2,0:0|0:0,0:0:0:0:
422,73,67016,2,0,L|434:151,1,80,10|2,0:0|0:0,0:0:0:0:
312,300,67359,5,2,0:0:0:0:
456,236,67530,1,2,0:0:0:0:
488,364,67701,2,0,L|392:352,1,80,10|2,0:0|0:0,0:0:0:0:
223,248,68044,2,0,P|163:297|85:292,1,160,2|10,0:0|0:0,0:0:0:0:
24,212,68559,1,0,0:0:0:0:
224,148,68730,6,0,B|280:168|280:168|300:200|300:200|360:224,1,160,2|10,0:0|0:0,0:0:0:0:
368,136,69244,1,0,0:0:0:0:
175,64,69416,2,0,P|133:129|150:205,1,160,2|8,0:0|0:0,0:0:0:0:
220,272,69930,1,0,0:0:0:0:
368,224,70101,6,0,P|328:216|284:204,1,80,2|0,0:0|0:0,0:0:0:0:
248,124,70444,1,10,0:0:0:0:
316,320,70616,1,0,0:0:0:0:
447,234,70787,2,0,L|359:222,1,80,6|0,0:0|0:0,0:0:0:0:
164,188,71130,5,8,0:0:0:0:
129,206,71216,1,8,0:0:0:0:
89,203,71301,1,8,0:0:0:0:
58,180,71387,1,8,0:0:0:0:
43,143,71473,6,0,P|44:104|36:64,1,80,6|2,0:0|0:0,0:0:0:0:
164,188,71816,2,0,P|156:227|156:267,1,80,10|2,0:0|0:0,0:0:0:0:
224,340,72159,1,2,0:0:0:0:
64,292,72330,1,2,0:0:0:0:
256,236,72501,2,0,L|336:252,1,80,10|2,0:0|0:0,0:0:0:0:
400,180,72844,5,2,0:0:0:0:
440,352,73016,1,2,0:0:0:0:
340,252,73187,1,10,0:0:0:0:
504,284,73359,1,2,0:0:0:0:
444,96,73530,2,0,B|400:124|400:124|288:100,1,160,2|10,0:0|0:0,0:0:0:0:
216,32,74044,1,0,0:0:0:0:
144,156,74216,6,0,P|160:213|146:271,1,120,2|0,0:0|0:0,0:0:0:0:
124,296,74559,2,0,L|36:280,1,80,10|0,0:0|0:0,0:0:0:0:
216,352,74901,2,0,B|276:344|276:344|312:356|312:356|376:344,1,160,2|10,0:0|0:0,0:0:0:0:
456,280,75416,1,0,0:0:0:0:
364,92,75587,6,0,P|333:163|365:234,1,160,2|10,0:0|0:0,0:0:0:0:
428,160,76101,1,0,0:0:0:0:
304,24,76273,2,0,L|212:48,1,80,2|0,0:0|0:0,0:0:0:0:
76,140,76616,5,8,0:0:0:0:
68,179,76701,1,8,0:0:0:0:
71,218,76787,1,8,0:0:0:0:
85,256,76873,1,8,0:0:0:0:
108,288,76959,6,0,L|192:272,1,80,6|2,0:0|0:0,0:0:0:0:
352,204,77301,2,0,L|268:187,1,80,10|2,0:0|0:0,0:0:0:0:
208,108,77644,1,2,0:0:0:0:
252,280,77816,1,2,0:0:0:0:
120,160,77987,2,0,P|108:124|108:76,1,80,10|2,0:0|0:0,0:0:0:0:
224,12,78330,6,0,L|304:32,1,80,2|2,0:0|0:0,0:0:0:0:
400,136,78673,2,0,L|488:124,1,80,10|2,0:0|0:0,0:0:0:0:
319,255,79016,2,0,P|259:206|182:215,1,160,2|10,0:0|0:0,0:0:0:0:
96,276,79530,1,0,0:0:0:0:
36,80,79701,6,0,P|96:129|173:120,1,160,2|8,0:0|0:0,0:0:0:0:
252,64,80216,1,0,0:0:0:0:
360,184,80387,2,0,P|312:176|272:164,1,80,2|0,0:0|0:0,0:0:0:0:
448,108,80730,2,0,L|464:236,1,120,8|0,0:0|0:0,0:0:0:0:
467,267,81073,6,0,P|390:267|335:322,1,160,2|8,0:0|0:0,0:0:0:0:
248,360,81587,1,2,0:0:0:0:
208,188,81759,1,2,0:0:0:0:
152,312,81930,1,2,0:0:0:0:
164,108,82101,5,8,0:0:0:0:
201,95,82187,1,8,0:0:0:0:
240,100,82273,1,8,0:0:0:0:
273,123,82359,1,8,0:0:0:0:
292,160,82444,1,12,0:0:0:0:
