osu file format v14

[General]
AudioFilename: KANA-BOON -Naimononedari.mp3
AudioLeadIn: 0
PreviewTime: 171
Countdown: 0
SampleSet: None
StackLeniency: 0.7
Mode: 0
LetterboxInBreaks: 0
WidescreenStoryboard: 1

[Editor]
Bookmarks: 171,5656,11142,22113,33085,38571,49542,60513,71485,82456
DistanceSpacing: 1
BeatDivisor: 4
GridSize: 32
TimelineZoom: 2

[Metadata]
Title:Nai Mono Nedari
TitleUnicode:ないものねだり
Artist:KANA-BOON
ArtistUnicode:KANA-BOON
Creator:zhu
Version:Djulus' Normal
Source:
Tags:frontier habiholic djulus walaowey kana boon
BeatmapID:1671552
BeatmapSetID:758923

[Difficulty]
HPDrainRate:4
CircleSize:3.4
OverallDifficulty:4
ApproachRate:5
SliderMultiplier:1
SliderTickRate:1

[Events]
//Background and Video events
0,0,"bg.jpg",0,0
//Break Periods
//Storyboard Layer 0 (Background)
//Storyboard Layer 1 (Fail)
//Storyboard Layer 2 (Pass)
//Storyboard Layer 3 (Foreground)
//Storyboard Sound Samples

[TimingPoints]
171,342.857142857143,4,2,2,40,1,0
5656,-100,4,3,1,50,0,0
5999,-100,4,3,1,50,0,0
6342,-100,4,3,1,50,0,0
6685,-100,4,3,1,50,0,0
7028,-100,4,3,1,50,0,0
7370,-100,4,3,1,50,0,0
7713,-100,4,3,1,50,0,0
8056,-100,4,3,1,50,0,0
8399,-100,4,3,1,50,0,0
8742,-100,4,3,1,50,0,0
9085,-100,4,3,1,50,0,0
9428,-100,4,3,1,50,0,0
9771,-100,4,3,1,50,0,0
10113,-100,4,3,1,50,0,0
11142,-100,4,2,1,50,0,0
11327,342.857142857143,4,2,1,70,1,0
12527,342.857142857143,4,2,1,70,1,0
16283,342.857142857143,4,2,1,70,1,0
16625,342.857142857143,4,2,1,70,1,0
22113,-100,4,3,1,50,0,0
28953,342.857142857143,4,3,1,60,1,0
30677,342.857142857143,4,3,1,60,1,0
31713,342.857142857143,4,3,1,60,1,0
33085,-100,4,2,1,50,0,0
38571,-100,4,3,1,50,0,0
42674,342.857142857143,4,3,1,60,1,0
44067,342.857142857143,4,3,1,60,1,0
46797,342.857142857143,4,3,1,60,1,0
49542,-100,4,3,1,65,0,0
57759,342.857142857143,4,3,1,65,1,0
60501,-100,4,2,1,80,0,1
82444,-100,4,2,1,70,0,0

[Colours]
Combo1 : 0,64,128
Combo2 : 192,192,192
Combo3 : 255,255,128
SliderBorder : 255,255,255
SliderTrackOverride : 0,0,0

[HitObjects]
102,85,5656,6,0,L|122:191,1,100,6|2,0:0|0:0,0:0:0:0:
197,247,6342,2,0,P|251:223|320:252,1,100,2|2,0:0|0:0,0:0:0:0:
371,287,7028,2,0,P|426:282|468:235,1,100,2|2,0:0|0:0,0:0:0:0:
478,155,7713,2,0,P|387:139|354:130,1,100,2|2,0:0|0:0,0:0:0:0:
290,91,8399,6,0,L|187:108,1,100,2|6,0:0|0:0,0:0:0:0:
135,190,9085,2,0,L|256:219,1,100,2|6,0:0|0:0,0:0:0:0:
296,290,9771,1,2,0:0:0:0:
213,345,10113,1,6,0:0:0:0:
213,345,11142,6,0,L|94:332,1,104,6|10,0:0|0:0,0:0:0:0:
63,328,11669,2,0,P|66:249|62:204,1,100,2|2,0:0|0:0,0:0:0:0:
117,142,12355,2,0,P|186:143|243:126,1,100,2|2,0:0|0:0,0:0:0:0:
303,185,13041,1,2,0:0:0:0:
386,129,13384,2,0,P|380:83|380:60,2,50,0|0|0,0:0|0:0|0:0,0:0:0:0:
426,158,13898,5,0,0:0:0:0:
471,246,14241,2,0,L|457:305,1,50,0|0,0:0|0:0,0:0:0:0:
426,332,14584,1,0,0:0:0:0:
426,332,14755,1,0,0:0:0:0:
327,316,15098,2,0,P|291:281|284:234,1,100,0|0,0:0|0:0,0:0:0:0:
291,132,15784,2,0,L|424:142,1,100,2|2,0:0|0:0,0:0:0:0:
436,120,16283,2,0,L|441:38,1,50,10|2,0:0|0:0,0:0:0:0:
403,34,16625,6,0,L|287:25,1,100,6|10,0:0|0:0,0:0:0:0:
253,34,17139,2,0,L|120:45,1,100,2|2,0:0|0:0,0:0:0:0:
56,69,17825,1,2,0:0:0:0:
26,164,18167,1,2,0:0:0:0:
90,239,18510,2,0,P|149:238|205:267,1,100,2|2,0:0|0:0,0:0:0:0:
220,295,19025,1,10,0:0:0:0:
319,300,19367,6,0,L|322:200,1,100,2|10,0:0|0:0,0:0:0:0:
312,150,19882,1,2,0:0:0:0:
312,150,20053,2,0,L|373:122,1,50,2|0,0:0|0:0,0:0:0:0:
457,140,20567,1,2,0:0:0:0:
498,230,20910,2,0,P|501:300|496:332,1,100,2|2,0:0|0:0,0:0:0:0:
472,374,21425,2,0,L|365:342,1,100,0|10,0:0|0:0,0:0:0:0:
283,307,22110,6,0,P|224:294|163:316,1,100,6|10,0:0|0:0,0:0:0:0:
136,308,22625,1,2,0:0:0:0:
136,308,22796,2,0,P|140:212|114:188,1,100,2|10,0:0|0:0,0:0:0:0:
90,128,23482,2,0,P|128:89|194:89,1,100,2|10,0:0|0:0,0:0:0:0:
216,59,23996,1,0,0:0:0:0:
216,59,24167,2,0,P|285:62|318:88,1,100,2|10,0:0|0:0,0:0:0:0:
394,129,24853,6,0,P|347:155|316:204,1,100,2|10,0:0|0:0,0:0:0:0:
268,277,25539,2,0,P|196:244|139:249,1,100,2|10,0:0|0:0,0:0:0:0:
102,306,26225,2,0,P|37:294|-5:311,2,100,2|10|2,0:0|0:0|0:0,0:0:0:0:
181,366,27253,1,8,0:0:0:0:
280,359,27596,6,0,L|403:332,1,100,6|8,0:0|0:0,0:0:0:0:
426,327,28110,1,2,0:0:0:0:
426,327,28282,2,0,P|435:252|390:200,1,100,2|10,0:0|0:0,0:0:0:0:
384,140,28953,2,0,P|312:114|279:114,1,100,2|10,0:0|0:0,0:0:0:0:
246,87,29467,1,2,0:0:0:0:
246,87,29638,2,0,P|172:73|134:78,1,100,2|10,0:0|0:0,0:0:0:0:
53,113,30324,5,2,0:0:0:0:
39,212,30677,1,10,0:0:0:0:
119,271,31019,2,0,P|185:253|237:267,1,100,2|10,0:0|0:0,0:0:0:0:
298,323,31713,2,0,P|355:341|413:327,1,100,2|10,0:0|0:0,0:0:0:0:
470,253,32398,2,0,P|422:211|367:203,1,100,2|10,0:0|0:0,0:0:0:0:
342,181,32913,1,2,0:0:0:0:
342,181,33084,6,0,P|315:103|323:54,1,100,6|10,0:0|0:0,0:0:0:0:
334,40,33598,2,0,L|230:27,1,100,2|2,0:0|0:0,0:0:0:0:
141,65,34284,2,0,P|115:135|121:176,1,100,2|2,0:0|0:0,0:0:0:0:
166,245,34970,2,0,P|226:243|265:267,1,100,2|2,0:0|0:0,0:0:0:0:
285,304,35484,1,10,0:0:0:0:
205,364,35827,6,0,P|128:345|96:348,1,100,2|10,0:0|0:0,0:0:0:0:
58,338,36341,1,2,0:0:0:0:
58,338,36513,2,0,P|38:272|51:228,1,100,2|8,0:0|0:0,0:0:0:0:
67,198,37027,1,2,0:0:0:0:
143,133,37370,2,0,P|203:131|248:123,1,100,2|2,0:0|0:0,0:0:0:0:
281,92,37884,1,0,0:0:0:0:
372,50,38227,1,2,0:0:0:0:
461,94,38570,6,0,P|479:161|458:197,1,100,6|10,0:0|0:0,0:0:0:0:
435,224,39084,1,2,0:0:0:0:
435,224,39255,2,0,L|317:251,1,100,2|10,0:0|0:0,0:0:0:0:
262,312,39941,1,2,0:0:0:0:
175,261,40284,1,10,0:0:0:0:
91,316,40627,2,0,P|80:254|63:207,1,100,2|10,0:0|0:0,0:0:0:0:
14,134,41313,6,0,P|63:102|125:96,1,100,2|10,0:0|0:0,0:0:0:0:
182,32,41998,2,0,P|249:39|286:68,1,100,2|10,0:0|0:0,0:0:0:0:
335,136,42674,2,0,P|405:115|446:121,2,100,2|10|2,0:0|0:0|0:0,0:0:0:0:
273,214,43702,1,8,0:0:0:0:
372,228,44067,6,0,P|433:224|472:246,1,100,2|10,0:0|0:0,0:0:0:0:
490,285,44581,1,2,0:0:0:0:
490,285,44752,2,0,P|468:345|459:380,1,100,2|10,0:0|0:0,0:0:0:0:
365,343,45438,1,2,0:0:0:0:
268,370,45781,1,10,0:0:0:0:
179,324,46124,2,0,P|159:272|180:216,1,100,2|10,0:0|0:0,0:0:0:0:
205,195,46638,1,2,0:0:0:0:
205,195,46797,6,0,P|219:133|202:84,1,100,2|10,0:0|0:0,0:0:0:0:
127,42,47482,2,0,P|70:51|35:91,1,100,2|10,0:0|0:0,0:0:0:0:
97,162,48168,1,2,0:0:0:0:
51,250,48511,1,10,0:0:0:0:
110,330,48854,2,0,L|229:309,1,100,10|8,0:0|0:0,0:0:0:0:
255,294,49368,1,8,0:0:0:0:
255,294,49539,6,0,P|264:231|185:123,1,200,4|0,1:2|0:0,0:0:0:0:
116,55,50568,1,8,0:0:0:0:
208,18,50911,2,0,P|269:11|404:60,1,200,4|0,1:2|0:0,0:0:0:0:
449,140,51939,1,8,0:0:0:0:
364,193,52282,6,0,P|279:182|165:222,1,200,4|0,1:2|0:0,0:0:0:0:
107,294,53311,1,8,0:0:0:0:
174,368,53654,2,0,P|224:343|366:320,1,200,4|0,1:2|0:0,0:0:0:0:
451,370,54682,1,8,0:0:0:0:
508,287,55025,6,0,P|506:217|442:83,1,200,4|0,1:2|0:0,0:0:0:0:
360,66,56054,1,8,0:0:0:0:
271,112,56397,2,0,P|197:105|75:176,1,200,4|0,1:2|0:0,0:0:0:0:
42,250,57425,1,8,0:0:0:0:
89,338,57759,6,0,L|205:324,1,100,4|8,1:2|0:0,0:0:0:0:
270,269,58444,2,0,P|276:214|244:166,1,100,0|8,0:0|0:0,0:0:0:0:
184,105,59130,1,4,1:2:0:0:
268,52,59473,2,0,L|388:33,1,100,8|8,0:0|0:0,0:0:0:0:
496,184,60501,6,0,P|459:190|411:239,1,100,6|10,0:0|0:0,0:0:0:0:
353,311,61187,1,2,0:0:0:0:
275,247,61530,1,10,0:0:0:0:
202,315,61873,2,0,L|100:341,1,100,2|10,0:0|0:0,0:0:0:0:
64,309,62387,1,2,0:0:0:0:
64,309,62559,2,0,P|51:245|70:207,1,100,2|10,0:0|0:0,0:0:0:0:
99,121,63244,5,2,0:0:0:0:
198,106,63587,1,10,0:0:0:0:
270,175,63930,1,2,0:0:0:0:
262,274,64273,1,10,0:0:0:0:
338,338,64616,2,0,L|435:304,1,100,2|10,0:0|0:0,0:0:0:0:
482,218,65301,2,0,P|488:161|462:119,1,100,2|8,0:0|0:0,0:0:0:0:
390,61,65987,6,0,L|272:72,1,100,6|10,0:0|0:0,0:0:0:0:
206,125,66673,1,2,0:0:0:0:
113,87,67016,1,10,0:0:0:0:
24,134,67359,2,0,P|19:186|46:230,1,100,2|10,0:0|0:0,0:0:0:0:
80,257,67873,1,2,0:0:0:0:
80,257,68044,2,0,L|195:270,1,100,2|10,0:0|0:0,0:0:0:0:
239,348,68730,5,2,0:0:0:0:
320,290,69073,1,10,0:0:0:0:
392,359,69416,2,0,P|442:337|494:321,1,100,2|8,0:0|0:0,0:0:0:0:
499,224,70101,1,2,0:0:0:0:
417,165,70444,1,10,0:0:0:0:
323,199,70787,2,0,L|214:208,1,100,6|8,0:0|0:0,0:0:0:0:
174,218,71301,1,8,0:0:0:0:
174,218,71473,6,0,P|154:162|176:110,1,100,6|10,0:0|0:0,0:0:0:0:
240,58,72159,1,2,0:0:0:0:
339,60,72501,1,10,0:0:0:0:
410,129,72844,2,0,L|393:236,1,100,2|10,0:0|0:0,0:0:0:0:
380,276,73359,1,2,0:0:0:0:
380,276,73530,2,0,L|278:310,1,100,2|10,0:0|0:0,0:0:0:0:
199,359,74216,5,2,0:0:0:0:
114,304,74559,1,10,0:0:0:0:
117,204,74901,1,2,0:0:0:0:
204,155,75244,1,10,0:0:0:0:
195,55,75587,2,0,P|163:37|86:31,1,100,2|10,0:0|0:0,0:0:0:0:
25,94,76273,2,0,P|37:158|30:204,1,100,2|8,0:0|0:0,0:0:0:0:
73,284,76959,6,0,P|137:269|181:277,1,100,6|10,0:0|0:0,0:0:0:0:
248,336,77644,1,2,0:0:0:0:
332,282,77987,1,10,0:0:0:0:
408,346,78330,2,0,P|438:289|428:247,1,100,2|10,0:0|0:0,0:0:0:0:
397,219,78844,1,2,0:0:0:0:
397,219,79016,2,0,L|383:113,1,100,2|10,0:0|0:0,0:0:0:0:
316,46,79701,6,0,P|262:45|213:62,1,100,2|8,0:0|0:0,0:0:0:0:
174,82,80216,1,0,0:0:0:0:
174,82,80387,2,0,P|218:130|239:179,1,100,2|10,0:0|0:0,0:0:0:0:
220,260,81073,1,2,0:0:0:0:
137,316,81416,1,10,0:0:0:0:
49,267,81759,2,0,P|48:195|36:162,1,100,2|10,0:0|0:0,0:0:0:0:
99,89,82444,5,12,0:0:0:0:
