osu file format v14

[General]
AudioFilename: audio.mp3
AudioLeadIn: 0
PreviewTime: 185
Countdown: 0
SampleSet: Soft
StackLeniency: 0.6
Mode: 0
LetterboxInBreaks: 0
WidescreenStoryboard: 1

[Editor]
Bookmarks: 11142,22110,32741,38570,40970,49539,57759,60501,65987,71473,76959,82444
DistanceSpacing: 1
BeatDivisor: 4
GridSize: 8
TimelineZoom: 1.000001

[Metadata]
Title:Nai Mono Nedari
TitleUnicode:ないものねだり
Artist:KANA-BOON
ArtistUnicode:KANA-BOON
Creator:iWaifu
Version:maki's Normal
Source:
Tags:japanese cut ver version [[Pika]] Asuka_- makisokk hanasaka yui takekii nana abe
BeatmapID:2014420
BeatmapSetID:951217

[Difficulty]
HPDrainRate:4
CircleSize:3
OverallDifficulty:4
ApproachRate:6
SliderMultiplier:1.3
SliderTickRate:1

[Events]
//Background and Video events
0,0,"cuteyanime.jpg",0,0
//Break Periods
//Storyboard Layer 0 (Background)
//Storyboard Layer 1 (Fail)
//Storyboard Layer 2 (Pass)
//Storyboard Layer 3 (Foreground)
//Storyboard Layer 4 (Overlay)
//Storyboard Sound Samples

[TimingPoints]
185,342.857142857143,4,2,2,80,1,0
185,-100,4,2,2,60,0,0
5670,-100,4,2,2,80,0,0
6013,-100,4,2,2,50,0,0
6185,-100,4,2,2,50,0,0
6356,-100,4,2,2,60,0,0
6699,-100,4,2,2,50,0,0
6870,-100,4,2,2,50,0,0
7042,-100,4,2,2,60,0,0
7385,-100,4,2,2,50,0,0
7556,-100,4,2,2,50,0,0
7727,-100,4,2,2,60,0,0
8070,-100,4,2,2,50,0,0
8242,-100,4,2,2,50,0,0
8413,-100,4,2,2,60,0,0
8756,-100,4,2,2,80,0,0
8927,-100,4,2,2,20,0,0
9099,-100,4,2,2,80,0,0
9613,-100,4,2,2,20,0,0
9785,-100,4,2,2,80,0,0
11156,344.827586206897,4,2,2,80,1,0
13914,338.983050847458,4,2,2,80,1,0
16625,344.827586206897,4,2,2,80,1,0
19383,338.983050847458,4,2,2,80,1,0
22094,342.857142857143,4,2,2,80,1,0
22094,-100,4,2,2,80,0,0
33065,344.827586206897,4,2,2,80,1,0
38582,340.909090909091,4,2,2,80,1,0
38582,-100,4,2,2,80,0,0
44036,342.857142857143,4,2,2,80,1,0
44036,-100,4,2,2,80,0,0
49521,-100,4,2,2,50,0,0
57749,340.909090909091,4,2,2,80,1,0
57749,-100,4,2,2,80,0,0
58089,-100,4,2,2,80,0,0
58430,-100,4,2,2,80,0,0
58771,-100,4,2,2,80,0,0
59112,-100,4,2,2,80,0,0
59453,-100,4,2,2,80,0,0
60476,346.820809248555,4,2,2,80,1,1
61863,-100,4,2,2,80,0,1
63250,342.857142857143,4,2,2,80,1,1
63250,-100,4,2,2,80,0,1
65992,-100,4,2,2,80,0,1
67364,-100,4,2,2,80,0,1
71477,346.820809248555,4,2,2,80,1,1
73211,-100,4,2,2,80,0,1
74251,340.909090909091,4,2,2,80,1,1
74251,-100,4,2,2,80,0,1
76978,342.857142857143,4,2,2,80,1,1
82463,-100,4,2,2,80,0,0

[Colours]
Combo1 : 150,205,67
Combo2 : 132,196,224
Combo3 : 242,104,103
Combo4 : 237,126,54
Combo5 : 253,221,36
Combo6 : 211,167,233

[HitObjects]
39,62,185,6,0,P|37:102|50:143,1,65,2|2,0:0|0:0,0:0:0:0:
120,304,870,2,0,P|153:327|194:337,1,65,2|2,0:0|0:0,0:0:0:0:
368,371,1556,2,0,P|399:345|421:309,1,65,2|2,0:0|0:0,0:0:0:0:
462,136,2242,1,2,0:0:0:0:
462,136,2413,1,2,0:0:0:0:
293,38,2927,6,0,L|354:86,1,65,2|2,0:0|0:0,0:0:0:0:
471,225,3613,2,0,L|435:294,1,65,2|2,0:0|0:0,0:0:0:0:
264,367,4299,2,0,L|195:329,1,65,2|2,0:0|0:0,0:0:0:0:
75,191,4985,1,2,0:0:0:0:
75,191,5156,1,2,0:0:0:0:
175,24,5670,6,0,L|310:48,1,130,6|0,3:2|3:0,0:0:0:0:
405,127,6356,2,0,L|278:156,1,130,2|0,3:2|3:0,0:0:0:0:
172,232,7042,2,0,P|191:305|253:346,1,130,2|0,3:2|3:0,0:0:0:0:
359,357,7727,2,0,P|426:323|453:254,1,130,2|0,3:2|3:2,0:0:0:0:
466,147,8413,6,0,P|457:110|431:80,1,65,0|0,3:0|0:0,0:0:0:0:
384,56,8756,1,8,3:0:0:0:
254,41,9099,2,0,P|218:55|192:84,1,65,0|0,3:0|0:0,0:0:0:0:
183,136,9442,1,8,3:0:0:0:
210,263,9785,2,0,P|231:294|266:313,1,65,0|0,3:0|0:0,0:0:0:0:
318,310,10128,1,4,3:2:0:0:
410,37,11156,6,0,P|396:90|411:188,1,130,4|10,0:0|0:0,0:0:0:0:
455,202,11673,2,0,P|465:246|461:284,1,65,2|0,0:0|3:0,0:0:0:0:
434,323,12018,1,0,0:0:0:0:
306,347,12362,2,0,L|241:338,1,65,2|0,0:0|3:0,0:0:0:0:
200,287,12707,2,0,L|135:296,1,65,2|8,0:0|0:0,0:0:0:0:
87,340,13052,2,0,B|94:278|94:278|66:222|66:222|73:142,1,195,2|10,0:0|0:0,0:0:0:0:
129,33,13914,6,0,P|166:95|230:136,1,130,0|10,3:2|0:0,0:0:0:0:
262,169,14422,2,0,P|299:157|340:125,1,65,2|2,0:0|3:2,0:0:0:0:
386,147,14761,2,0,P|395:115|396:83,1,65,2|8,0:0|0:0,0:0:0:0:
412,20,15100,1,2,0:2:0:0:
291,68,15439,1,2,0:0:0:0:
169,21,15778,1,2,0:0:0:0:
122,142,16117,2,0,P|123:210|158:287,1,130,2|8,0:0|0:0,0:0:0:0:
207,282,16625,6,0,P|241:232|255:140,1,130,6|10,3:2|0:0,0:0:0:0:
272,101,17142,2,0,P|250:88|210:77,1,65,2|0,0:0|3:0,0:0:0:0:
147,88,17487,1,2,0:0:0:0:
35,150,17831,2,0,P|35:185|39:215,1,65,2|0,0:0|3:0,0:0:0:0:
92,252,18176,2,0,P|92:284|87:316,1,65,2|8,0:0|0:0,0:0:0:0:
38,359,18521,2,0,B|133:311|132:380|257:338,1,195,2|10,0:0|0:0,0:0:0:0:
360,334,19383,6,0,P|426:342|496:306,1,130,0|10,3:2|0:0,0:0:0:0:
505,256,19891,2,0,L|488:183,1,65,2|2,0:0|3:2,0:0:0:0:
431,163,20230,2,0,L|448:90,1,65,2|8,0:0|0:0,0:0:0:0:
472,40,20569,1,2,0:0:0:0:
348,81,20908,1,2,0:0:0:0:
224,40,21247,2,0,P|161:54|100:97,1,130,2|0,0:0|0:0,0:0:0:0:
57,132,21755,2,0,P|56:179|73:216,1,65,8|8,0:0|0:0,0:0:0:0:
116,229,22094,6,0,L|133:373,1,130,6|8,0:0|0:0,0:0:0:0:
256,322,22779,2,0,L|271:192,1,130,2|8,3:2|0:0,0:0:0:0:
327,75,23465,1,2,3:2:0:0:
457,77,23808,1,10,0:0:0:0:
502,198,24151,2,0,P|492:242|472:275,1,65,2|0,3:2|0:0,0:0:0:0:
468,322,24494,2,0,P|424:333|385:331,1,65,10|2,0:0|0:0,0:0:0:0:
343,310,24836,6,0,P|274:303|201:326,1,130,2|10,3:2|0:0,0:0:0:0:
97,373,25522,2,0,P|123:309|123:232,1,130,2|10,3:2|0:0,0:0:0:0:
67,132,26208,1,2,3:2:0:0:
134,20,26551,2,0,L|206:33,1,65,10|0,0:0|3:0,0:0:0:0:
253,65,26894,2,0,L|382:38,1,130,2|8,3:2|0:0,0:0:0:0:
477,124,27579,6,0,L|349:150,1,130,6|8,0:0|0:0,0:0:0:0:
253,65,28265,2,0,L|125:38,1,130,2|8,3:2|0:0,0:0:0:0:
3,83,28951,1,2,3:2:0:0:
57,201,29294,1,10,0:0:0:0:
12,322,29636,2,0,L|85:340,1,65,2|0,3:2|0:0,0:0:0:0:
136,360,29979,2,0,L|199:344,1,65,10|2,0:0|0:0,0:0:0:0:
256,313,30322,6,0,L|385:327,1,130,2|10,3:2|0:0,0:0:0:0:
470,228,31008,1,2,3:2:0:0:
340,223,31351,1,10,0:0:0:0:
272,112,31694,1,2,3:2:0:0:
170,192,32036,2,0,P|130:184|95:158,1,65,10|0,0:0|0:0,0:0:0:0:
44,165,32379,2,0,P|25:102|41:23,1,130,2|10,3:2|0:0,0:0:0:0:
163,42,33065,6,0,L|297:26,1,130,6|10,3:2|0:0,0:0:0:0:
341,69,33582,2,0,L|411:87,1,65,2|0,0:0|3:0,0:0:0:0:
463,58,33927,1,2,0:0:0:0:
490,184,34271,2,0,P|488:221|468:273,1,65,2|0,0:0|3:0,0:0:0:0:
481,312,34616,2,0,P|454:337|404:362,1,65,2|8,0:0|0:0,0:0:0:0:
370,326,34961,2,0,B|271:304|272:370|172:344,1,195,0|10,0:0|0:0,0:0:0:0:
68,341,35823,6,0,L|56:211,1,130,2|10,3:2|0:0,0:0:0:0:
8,166,36340,2,0,L|34:101,1,65,2|2,0:0|3:2,0:0:0:0:
26,40,36685,2,0,L|90:13,1,65,2|8,0:0|0:0,0:0:0:0:
148,34,37030,1,2,0:0:0:0:
206,150,37375,1,2,0:0:0:0:
85,198,37720,2,0,P|69:263|103:313,1,130,2|0,0:0|0:0,0:0:0:0:
152,353,38237,2,0,P|195:351|234:335,1,65,8|8,0:0|0:0,0:0:0:0:
242,283,38582,6,0,P|314:272|384:311,1,130,6|8,3:2|0:0,0:0:0:0:
469,370,39263,2,0,P|425:311|427:231,1,130,2|10,3:2|0:0,0:0:0:0:
457,131,39945,1,2,3:2:0:0:
375,29,40286,1,10,0:0:0:0:
259,88,40627,2,0,L|169:78,1,65,2|0,3:2|0:0,0:0:0:0:
149,33,40968,2,0,L|84:40,1,65,10|0,0:0|0:0,0:0:0:0:
20,25,41309,6,0,L|35:183,1,130,2|10,3:2|0:0,0:0:0:0:
145,219,41991,2,0,L|132:348,1,130,2|10,3:2|0:0,0:0:0:0:
260,374,42672,1,2,3:2:0:0:
390,371,43013,2,0,P|402:338|400:279,1,65,10|2,0:0|0:0,0:0:0:0:
355,265,43354,2,0,P|345:201|366:125,1,130,2|0,3:2|3:0,0:0:0:0:
416,106,43866,1,8,0:0:0:0:
467,66,44036,6,0,L|335:37,1,130,4|8,0:0|0:0,0:0:0:0:
210,26,44721,2,0,L|83:53,1,130,2|8,3:2|0:0,0:0:0:0:
4,157,45407,1,2,3:2:0:0:
101,242,45750,1,10,0:0:0:0:
210,171,46093,2,0,L|357:202,1,130,2|10,3:2|0:0,0:0:0:0:
402,191,46607,1,2,0:0:0:0:
442,242,46778,6,0,P|474:225|523:221,2,65,2|0|10,3:2|0:0|0:0,0:0:0:0:
404,296,47293,1,0,0:0:0:0:
293,365,47636,1,0,0:0:0:0:
246,320,47807,2,0,L|256:402,2,65,10|0|2,0:0|0:0|3:2,0:0:0:0:
192,283,48321,1,0,0:0:0:0:
248,165,48664,1,2,0:0:0:0:
245,99,48836,2,0,B|180:94|180:94|121:121|121:121|45:109,1,195,2|8,3:2|0:0,0:0:0:0:
21,56,49521,6,0,L|6:203,2,130,4|0|0,0:0|3:0|3:0,0:0:0:0:
146,20,50550,1,0,3:0:0:0:
199,56,50721,1,0,0:0:0:0:
264,52,50893,2,0,P|330:39|402:46,2,130,4|0|0,0:0|3:0|3:0,0:0:0:0:
198,168,51921,6,0,L|228:226,1,65,0|0,3:0|0:0,0:0:0:0:
285,256,52264,2,0,L|230:377,2,130,4|0|0,0:0|3:0|3:0,0:0:0:0:
407,210,53293,2,0,P|435:252|443:282,1,65,0|0,3:0|0:0,0:0:0:0:
455,328,53636,2,0,P|404:355|312:356,2,130,4|0|0,0:0|3:0|3:0,0:0:0:0:
342,262,54664,5,0,3:0:0:0:
278,249,54836,1,0,0:0:0:0:
220,278,55007,2,0,L|80:299,2,130,4|0|0,0:0|3:0|3:0,0:0:0:0:
225,147,56036,1,0,3:0:0:0:
177,102,56207,1,0,0:0:0:0:
112,101,56378,2,0,P|46:80|8:15,2,130,4|0|0,0:0|3:1|3:1,0:0:0:0:
221,30,57407,1,0,3:1:0:0:
350,48,57749,6,0,L|366:127,1,65,4|0,0:0|0:0,0:0:0:0:
421,138,58089,2,0,L|408:201,1,65,8|0,0:0|3:0,0:0:0:0:
432,262,58430,2,0,L|382:304,1,65,8|0,0:0|0:0,0:0:0:0:
256,192,58771,12,8,59794,0:0:0:0:
57,66,60476,6,0,L|75:147,1,65,14|2,0:2|3:2,0:0:0:0:
130,154,60822,2,0,L|115:217,1,65,10|2,0:2|3:2,0:0:0:0:
72,266,61169,2,0,L|86:329,1,65,10|2,0:2|3:2,0:0:0:0:
145,356,61516,1,10,0:2:0:0:
249,279,61863,2,0,P|315:262|396:269,1,130,6|10,3:2|0:0,0:0:0:0:
439,281,62383,1,2,0:0:0:0:
480,331,62556,1,2,3:2:0:0:
510,204,62903,1,10,0:0:0:0:
424,104,63250,6,0,P|461:58|524:12,2,130,6|10|2,0:0|0:0|3:2,0:0:0:0:
391,160,64107,1,0,0:0:0:0:
335,193,64278,2,0,P|294:196|262:187,1,65,10|0,0:0|0:0,0:0:0:0:
229,140,64621,2,0,P|170:131|79:138,1,130,2|10,3:2|0:0,0:0:0:0:
15,233,65307,1,2,3:2:0:0:
15,233,65478,2,0,L|23:78,1,130,2|8,0:0|0:0,0:0:0:0:
63,53,65992,6,0,P|94:41|137:36,1,65,14|2,3:2|3:2,0:0:0:0:
189,24,66335,2,0,P|218:39|251:67,1,65,10|2,0:0|3:2,0:0:0:0:
308,59,66678,2,0,P|323:88|332:130,1,65,10|2,0:0|3:2,0:0:0:0:
364,174,67021,1,10,0:0:0:0:
493,166,67364,2,0,L|474:302,1,130,10|10,0:0|0:0,0:0:0:0:
422,334,67878,1,10,0:0:0:0:
362,306,68050,1,10,3:2:0:0:
240,350,68392,1,10,0:0:0:0:
114,315,68735,6,0,L|0:379,2,130,6|10|2,3:2|0:2|3:2,0:0:0:0:
169,281,69592,1,0,0:0:0:0:
197,223,69763,2,0,L|201:135,1,65,10|2,0:0|0:0,0:0:0:0:
222,96,70107,2,0,L|86:115,1,130,6|2,0:0|3:2,0:0:0:0:
28,226,70792,1,4,0:0:0:0:
28,226,70964,2,0,L|156:243,1,130,2|8,0:0|0:0,0:0:0:0:
200,289,71477,6,0,L|281:266,1,65,14|2,0:0|3:2,0:0:0:0:
326,279,71823,2,0,L|383:217,1,65,10|2,0:0|3:2,0:0:0:0:
435,235,72170,2,0,L|459:154,1,65,10|2,0:0|3:2,0:0:0:0:
499,126,72517,1,10,0:0:0:0:
407,34,72864,2,0,P|341:58|267:61,1,130,10|10,0:0|0:0,0:0:0:0:
221,38,73384,1,10,0:0:0:0:
156,44,73557,1,10,0:0:0:0:
88,155,73904,1,10,0:0:0:0:
206,213,74251,6,0,P|274:191|325:157,2,130,6|10|2,3:2|0:0|3:2,0:0:0:0:
143,237,75103,1,0,0:0:0:0:
77,237,75273,2,0,P|59:263|48:295,1,65,10|0,0:0|0:0,0:0:0:0:
76,353,75614,2,0,P|147:358|204:335,1,130,6|10,0:0|0:0,0:0:0:0:
289,241,76296,1,2,3:2:0:0:
289,241,76466,2,0,P|352:247|408:281,1,130,2|8,0:0|0:0,0:0:0:0:
448,332,76978,6,0,P|451:301|476:247,1,65,14|2,0:0|3:2,0:0:0:0:
502,218,77320,2,0,P|503:184|497:152,1,65,10|2,0:0|3:2,0:0:0:0:
435,133,77663,2,0,P|439:100|449:69,1,65,10|2,0:0|3:2,0:0:0:0:
468,7,78006,1,10,0:0:0:0:
354,74,78349,2,0,L|214:61,1,130,10|10,0:0|0:0,0:0:0:0:
159,53,78863,1,10,0:0:0:0:
100,81,79035,1,10,0:0:0:0:
33,192,79378,1,10,0:0:0:0:
144,257,79720,6,0,L|112:393,1,130,6|8,0:0|0:0,0:0:0:0:
234,333,80406,1,2,3:2:0:0:
359,366,80749,1,10,0:0:0:0:
475,308,81092,2,0,P|484:215|465:157,1,130,2|8,3:2|0:0,0:0:0:0:
437,127,81606,1,2,0:0:0:0:
431,62,81778,2,0,L|365:76,1,65,2|0,3:2|0:0,0:0:0:0:
317,113,82120,2,0,L|235:97,1,65,8|8,0:0|0:0,0:0:0:0:
191,120,82463,5,6,0:0:0:0:
