osu file format v14

[General]
AudioFilename: audio.mp3
AudioLeadIn: 0
PreviewTime: 66097
Countdown: 0
SampleSet: Soft
StackLeniency: 0.4
Mode: 0
LetterboxInBreaks: 0
WidescreenStoryboard: 1

[Editor]
DistanceSpacing: 0.8
BeatDivisor: 4
GridSize: 32
TimelineZoom: 2.3

[Metadata]
Title:Nai Mono Nedari
TitleUnicode:ないものねだり
Artist:KANA-BOON
ArtistUnicode:KANA-BOON
Creator:Nevo
Version:Yukiyo's Extra
Source:
Tags:yukiyo agatsu iyiyo nikakis hanasaka yui boruto naruto uzumaki sasuke uchiha sarada kanaboon cut ver version takeki
BeatmapID:1676233
BeatmapSetID:795000

[Difficulty]
HPDrainRate:5.5
CircleSize:4
OverallDifficulty:8.2
ApproachRate:9
SliderMultiplier:1.76
SliderTickRate:1

[Events]
//Background and Video events
0,0,"borutoaqwer.jpg",0,0
//Break Periods
//Storyboard Layer 0 (Background)
//Storyboard Layer 1 (Fail)
//Storyboard Layer 2 (Pass)
//Storyboard Layer 3 (Foreground)
//Storyboard Sound Samples

[TimingPoints]
465,342.857142857143,4,2,1,40,1,0
5950,-86.9565217391304,4,2,1,40,0,0
11436,344.827586206897,4,2,1,60,1,0
11436,-86.9565217391304,4,2,1,60,0,0
14194,340.909090909091,4,2,1,60,1,0
15387,-86.9565217391304,4,2,1,60,0,0
16921,341.394025604552,4,2,1,40,1,0
18115,-86.9565217391304,4,2,1,60,0,0
22041,357.142857142857,4,2,1,40,1,0
22398,342.857142857143,4,2,1,60,1,0
22398,-100,4,2,1,60,0,0
27883,337.078651685393,4,2,1,60,1,0
29231,345.821325648415,4,2,1,60,1,0
30614,342.857142857143,4,2,1,60,1,0
32671,349.854227405248,4,2,1,60,1,0
33370,342.857142857143,4,2,1,60,1,0
33370,-86.9565217391304,4,2,1,60,0,0
38855,341.880341880342,4,2,1,40,1,0
38855,-100,4,2,1,40,0,0
44328,355.029585798817,4,2,1,40,1,0
45038,331.95020746888,4,2,1,40,1,0
45701,342.857142857143,4,2,1,40,1,0
49815,342.857142857143,4,2,1,40,1,0
49815,-133.333333333333,4,2,1,40,0,0
58043,-100,4,2,1,80,0,0
58729,-100,4,2,1,85,0,0
59415,-100,4,2,1,85,0,0
59586,-100,4,2,1,80,0,0
59757,326.086956521739,4,2,1,80,1,0
59920,-100,4,2,1,95,0,0
60083,352.941176470588,4,2,1,100,1,0
60083,-100,4,2,1,100,0,0
60788,342.857142857143,4,2,1,80,1,1
60788,-83.3333333333333,4,2,1,80,0,1
71416,368.098159509202,4,2,1,80,1,1
71784,342.857142857143,4,2,1,80,1,1
73841,-83.3333333333333,4,2,1,80,0,1
81384,336.605890603086,4,2,1,80,1,1
81384,-83.3333333333333,4,2,1,80,0,1
82730,342.857142857143,4,2,1,60,1,0
82730,-100,4,2,1,60,0,0
93701,-100,4,2,1,70,0,0
98844,353.982300884956,4,2,1,70,1,0
99197,342.857142857143,4,2,1,80,1,0
99197,-100,4,2,1,80,0,0
101939,338.983050847458,4,2,1,80,1,0
103972,344.827586206897,4,2,1,80,1,0
117420,-100,4,2,1,5,0,0

[Colours]
Combo1 : 192,192,192
Combo2 : 255,244,51
Combo3 : 128,128,255
Combo4 : 185,0,4

[HitObjects]
40,37,465,5,2,0:0:0:0:
40,37,636,1,2,0:0:0:0:
40,347,1150,5,2,0:0:0:0:
40,347,1322,1,2,0:0:0:0:
281,36,1836,5,2,0:0:0:0:
281,36,2007,1,2,0:0:0:0:
308,336,2522,5,2,0:0:0:0:
308,336,2693,1,2,0:0:0:0:
40,37,3207,5,2,0:0:0:0:
83,113,3379,1,2,0:0:0:0:
40,347,3893,5,2,0:0:0:0:
83,271,4065,1,2,0:0:0:0:
281,36,4579,5,2,0:0:0:0:
238,111,4750,1,2,0:0:0:0:
308,336,5265,5,2,0:0:0:0:
246,274,5436,1,2,0:0:0:0:
90,144,5950,6,0,P|130:115|180:116,1,101.200001930237,6|0,3:2|0:0,0:0:0:0:
268,166,6293,1,4,3:2:0:0:
280,178,6636,1,6,3:2:0:0:
293,191,6979,1,4,3:2:0:0:
307,225,7322,6,0,P|266:253|216:252,1,101.200001930237,6|2,3:2|0:2,0:0:0:0:
129,203,7665,1,4,3:2:0:0:
117,191,8007,1,6,3:2:0:0:
104,178,8350,1,4,3:2:0:0:
90,144,8693,6,0,P|130:115|180:116,1,101.200001930237,6|2,3:2|0:2,0:0:0:0:
268,166,9036,1,4,3:2:0:0:
280,178,9379,1,6,3:2:0:0:
293,191,9722,1,4,3:2:0:0:
310,207,10065,1,6,3:2:0:0:
149,60,10407,1,4,3:2:0:0:
110,64,11436,6,0,L|115:189,1,101.200001930237,4|2,3:1|0:0,0:0:0:0:
122,343,11780,1,10,0:0:0:0:
203,212,11953,1,2,0:0:0:0:
24,118,12125,1,2,3:2:0:0:
119,252,12298,1,2,0:0:0:0:
188,37,12470,1,10,0:0:0:0:
43,206,12642,6,0,P|33:256|49:303,1,101.200001930237,2|0,0:0|3:0,0:0:0:0:
203,212,12987,2,0,P|212:162|196:115,1,101.200001930237,2|8,0:0|0:0,0:0:0:0:
36,110,13332,2,0,P|26:159|42:206,1,101.200001930237,2|0,0:0|3:0,0:0:0:0:
196,115,13677,2,0,P|205:65|189:18,1,101.200001930237,2|10,0:0|0:2,0:0:0:0:
107,152,14022,1,2,0:0:0:0:
165,296,14194,5,2,3:2:0:0:
265,176,14364,1,0,0:0:0:0:
180,206,14534,1,10,0:0:0:0:
322,326,14705,1,2,0:0:0:0:
355,144,14875,1,2,3:2:0:0:
254,268,15046,1,2,0:0:0:0:
196,115,15216,1,8,0:0:0:0:
340,239,15387,6,0,L|441:245,1,101.200001930237,2|0,0:0|3:0,0:0:0:0:
512,61,15728,2,0,L|410:67,1,101.200001930237,2|8,0:0|0:0,0:0:0:0:
238,232,16069,2,0,L|339:238,1,101.200001930237,2|0,0:0|3:0,0:0:0:0:
410,67,16409,2,0,L|308:70,1,101.200001930237,2|8,0:0|0:0,0:0:0:0:
156,154,16750,1,8,0:0:0:0:
308,157,16921,5,4,3:1:0:0:
245,32,17091,1,2,0:0:0:0:
228,207,17262,1,10,0:0:0:0:
160,68,17433,1,2,0:0:0:0:
78,186,17603,1,2,3:2:0:0:
233,118,17774,1,2,0:0:0:0:
311,249,17945,1,10,0:0:0:0:
161,334,18115,6,0,B|140:288|140:288|149:238,1,101.200001930237,2|0,0:0|3:0,0:0:0:0:
299,153,18457,2,0,B|320:199|320:199|310:248,1,101.200001930237,2|8,0:0|0:0,0:0:0:0:
149,238,18798,2,0,B|128:192|128:192|137:142,1,101.200001930237,2|0,0:0|3:0,0:0:0:0:
287,57,19140,2,0,B|308:103|308:103|298:152,1,101.200001930237,2|10,0:0|0:0,0:0:0:0:
144,64,19481,1,2,0:2:0:0:
222,195,19652,5,2,3:2:0:0:
287,57,19822,1,2,0:0:0:0:
310,248,19993,1,10,0:0:0:0:
215,108,20164,1,2,0:0:0:0:
149,238,20334,1,2,3:2:0:0:
298,152,20505,1,2,0:0:0:0:
227,329,20676,1,10,0:0:0:0:
125,153,20847,6,0,P|83:181|63:227,1,101.200001930237,2|0,0:0|3:0,0:0:0:0:
324,240,21188,2,0,P|365:212|385:166,1,101.200001930237,2|8,0:0|0:0,0:0:0:0:
220,18,21529,6,0,B|198:78|198:78|232:139|232:139|215:205,1,202.400003860474,2|0,0:0|0:0,0:0:0:0:
106,343,22041,5,8,0:0:0:0:
149,317,22130,1,8,0:0:0:0:
199,309,22219,1,8,0:0:0:0:
249,317,22308,1,8,0:0:0:0:
291,342,22398,6,0,L|388:330,1,88,4|4,3:1|0:0,0:0:0:0:
405,244,22740,2,0,L|308:256,1,88,8|6,0:0|0:0,0:0:0:0:
462,312,23083,2,0,P|487:277|491:233,1,88,2|4,3:2|0:0,0:0:0:0:
346,176,23426,2,0,P|320:210|316:253,1,88,8|6,0:0|0:0,0:0:0:0:
438,158,23769,5,2,3:2:0:0:
380,94,23940,1,6,0:0:0:0:
262,195,24112,1,10,0:0:0:0:
346,176,24283,1,4,0:0:0:0:
316,25,24455,2,0,L|290:115,1,88,2|4,3:2|0:0,0:0:0:0:
206,296,24798,2,0,L|181:211,1,88,10|6,0:0|0:0,0:0:0:0:
146,356,25140,6,0,P|182:379|226:381,1,88,2|4,3:2|0:0,0:0:0:0:
364,297,25483,2,0,P|327:273|283:271,1,88,10|4,0:0|0:0,0:0:0:0:
384,383,25826,2,0,P|422:363|446:326,1,88,2|4,3:2|0:0,0:0:0:0:
405,162,26169,2,0,P|366:181|342:218,1,88,14|4,0:2|0:0,0:0:0:0:
486,183,26512,2,0,P|488:139|468:100,1,88,2|4,3:2|0:0,0:0:0:0:
276,75,26855,2,0,P|273:118|293:157,1,88,10|4,0:0|0:0,0:0:0:0:
318,185,27112,1,0,0:0:0:0:
341,217,27198,2,0,P|261:249|175:238,1,176,2|8,3:2|0:0,0:0:0:0:
103,185,27712,1,0,0:0:0:0:
165,70,27883,6,0,L|178:156,1,88,2|0,3:2|0:0,0:0:0:0:
81,349,28220,2,0,L|94:262,1,88,8|6,0:0|0:0,0:0:0:0:
259,155,28557,2,0,B|246:202|246:202|215:227,1,88,2|4,3:2|0:0,0:0:0:0:
15,258,28894,2,0,B|28:211|28:211|58:185,1,88,8|6,0:0|0:0,0:0:0:0:
161,320,29231,5,2,3:2:0:0:
94,261,29403,1,6,0:0:0:0:
196,145,29576,1,10,0:0:0:0:
178,232,29749,1,6,0:0:0:0:
119,110,29922,2,0,P|146:76|188:64,1,88,2|4,3:2|0:0,0:0:0:0:
328,164,30268,2,0,P|300:197|258:209,1,88,10|6,0:0|0:0,0:0:0:0:
327,81,30614,6,0,L|414:89,1,88,2|4,3:2|0:0,0:0:0:0:
512,194,30956,2,0,L|424:185,1,88,10|4,0:0|0:0,0:0:0:0:
233,174,31299,2,0,L|320:182,1,88,2|4,3:2|0:0,0:0:0:0:
418,287,31642,2,0,L|330:278,1,88,10|4,0:0|0:0,0:0:0:0:
141,265,31985,6,0,L|228:273,1,88,2|4,3:2|0:0,0:0:0:0:
326,378,32328,2,0,L|238:369,1,88,10|4,0:0|0:0,0:0:0:0:
57,156,32671,2,0,L|188:169,1,132,2|0,3:2|0:0,0:0:0:0:
231,172,33020,5,8,0:0:0:0:
273,160,33108,1,8,0:0:0:0:
310,136,33195,1,8,0:0:0:0:
334,99,33283,1,8,0:0:0:0:
336,48,33370,6,0,L|362:146,1,101.200001930237,4|2,3:1|0:0,0:0:0:0:
413,322,33712,1,10,0:0:0:0:
301,212,33884,1,2,0:0:0:0:
433,93,34055,1,2,3:2:0:0:
383,227,34227,1,2,0:0:0:0:
217,190,34398,1,10,0:0:0:0:
362,146,34570,6,0,P|412:151|451:182,1,101.200001930237,2|0,0:0|3:2,0:0:0:0:
231,272,34912,2,0,P|181:266|142:235,1,101.200001930237,2|8,0:0|0:0,0:0:0:0:
274,109,35255,2,0,P|323:114|362:145,1,101.200001930237,2|0,0:0|3:2,0:0:0:0:
142,235,35598,2,0,P|92:229|53:198,1,101.200001930237,2|10,0:0|0:0,0:0:0:0:
195,84,35941,1,2,0:0:0:0:
214,180,36112,5,2,3:2:0:0:
107,63,36284,1,0,0:0:0:0:
53,198,36455,1,10,0:0:0:0:
195,84,36627,1,2,0:0:0:0:
292,214,36798,1,2,3:2:0:0:
132,148,36970,1,2,0:0:0:0:
56,287,37141,1,8,0:0:0:0:
214,180,37312,6,0,L|314:168,1,101.200001930237,2|0,0:0|3:2,0:0:0:0:
429,335,37655,2,0,L|329:323,1,101.200001930237,2|8,0:0|0:0,0:0:0:0:
56,287,37998,2,0,L|256:262,1,202.400003860474,2|2,0:0|0:0,0:0:0:0:
389,102,38512,5,8,0:0:0:0:
380,138,38598,1,8,0:0:0:0:
384,176,38684,1,8,0:0:0:0:
399,210,38770,1,8,0:0:0:0:
425,238,38855,6,0,L|337:248,1,88,4|0,3:1|0:0,0:0:0:0:
191,194,39196,2,0,L|306:179,1,88,8|6,0:0|0:0,0:0:0:0:
295,333,39538,2,0,P|261:305|245:265,1,88,2|4,3:2|0:0,0:0:0:0:
305,106,39880,1,10,0:0:0:0:
361,169,40051,1,6,0:0:0:0:
191,194,40222,5,2,3:2:0:0:
227,117,40393,1,6,0:0:0:0:
329,251,40564,1,10,0:0:0:0:
245,265,40735,1,6,0:0:0:0:
361,169,40906,2,0,L|470:186,1,88,2|4,3:2|0:0,0:0:0:0:
305,106,41248,2,0,L|196:123,1,88,10|6,0:0|0:0,0:0:0:0:
85,210,41590,6,0,P|117:181|160:172,1,88,2|4,3:2|0:0,0:0:0:0:
302,253,41931,2,0,P|269:224|226:215,1,88,10|4,0:0|0:0,0:0:0:0:
104,327,42273,2,0,P|122:287|157:261,1,88,2|4,3:2|0:0,0:0:0:0:
281,370,42615,2,0,P|263:330|229:304,1,88,10|4,0:0|0:0,0:0:0:0:
105,376,42957,6,0,L|193:384,1,88,2|4,3:2|0:0,0:0:0:0:
316,296,43299,2,0,L|228:303,1,88,10|6,0:0|0:0,0:0:0:0:
378,369,43641,2,0,P|414:293|374:219,1,176,2|4,3:2|3:2,0:0:0:0:
316,296,44154,1,8,0:0:0:0:
154,200,44328,6,0,L|241:207,1,88,4|4,3:1|0:0,0:0:0:0:
380,123,44683,2,0,L|292:130,1,88,8|6,0:0|0:0,0:0:0:0:
316,296,45038,2,0,L|323:208,1,88,2|4,3:2|0:0,0:0:0:0:
205,39,45369,2,0,L|212:126,1,88,8|6,0:0|0:0,0:0:0:0:
406,212,45701,5,2,3:2:0:0:
292,130,45872,1,6,0:0:0:0:
270,278,46043,1,10,0:0:0:0:
323,208,46215,1,6,0:0:0:0:
185,278,46386,2,0,P|194:320|223:352,1,88,2|0,3:2|0:0,0:0:0:0:
361,282,46729,2,0,P|352:239|323:208,1,88,10|6,0:0|0:0,0:0:0:0:
229,182,46986,5,0,0:0:0:0:
204,194,47072,2,0,B|164:206|164:206|117:197,1,88,2|6,3:2|0:0,0:0:0:0:
110,50,47415,2,0,B|140:78|140:78|156:123,1,88,10|6,0:0|0:0,0:0:0:0:
27,200,47758,2,0,B|36:159|36:159|67:123,1,88,2|6,3:2|0:0,0:0:0:0:
203,207,48101,2,0,B|163:218|163:218|116:210,1,88,10|6,0:0|0:0,0:0:0:0:
256,118,48443,6,0,B|286:146|286:146|302:191,1,88,2|6,3:2|0:0,0:0:0:0:
155,122,48786,2,0,B|164:81|164:81|195:45,1,88,10|6,0:0|0:0,0:0:0:0:
343,118,49129,1,2,3:2:0:0:
203,207,49301,1,6,0:0:0:0:
278,53,49472,5,8,0:0:0:0:
316,32,49558,1,8,0:0:0:0:
359,30,49643,1,8,0:0:0:0:
399,49,49729,1,8,0:0:0:0:
426,83,49815,6,0,P|431:137|414:173,1,66.0000025177003,4|0,3:1|0:0,0:0:0:0:
373,208,50157,1,2,3:2:0:0:
310,248,50329,2,0,P|372:230|433:253,1,132.000005035401,0|0,0:0|0:0,0:0:0:0:
340,324,50843,2,0,P|308:331|276:322,1,66.0000025177003,2|0,3:2|0:0,0:0:0:0:
162,249,51186,6,0,L|247:257,1,66.0000025177003,4|0,3:1|0:0,0:0:0:0:
310,248,51529,1,2,3:2:0:0:
287,64,51700,2,0,B|255:104|255:104|260:184,1,132.000005035401,0|0,0:0|0:0,0:0:0:0:
339,131,52215,2,0,L|378:72,1,66.0000025177003,2|0,3:2|0:0,0:0:0:0:
265,5,52557,6,0,P|286:37|281:81,1,66.0000025177003,4|0,3:1|0:0,0:0:0:0:
226,118,52900,1,2,3:2:0:0:
154,165,53072,2,0,P|92:148|60:93,1,132.000005035401,0|0,0:0|0:0,0:0:0:0:
114,22,53586,2,0,P|136:46|146:78,1,66.0000025177003,2|0,3:2|0:0,0:0:0:0:
66,227,53929,6,0,L|85:145,1,66.0000025177003,4|0,3:1|0:0,0:0:0:0:
147,245,54272,1,2,3:2:0:0:
0,290,54443,2,0,L|128:319,1,132.000005035401,0|0,0:0|0:0,0:0:0:0:
271,288,54957,2,0,L|206:302,1,66.0000025177003,2|0,3:2|0:0,0:0:0:0:
282,369,55300,6,0,P|313:359|335:335,1,66.0000025177003,4|0,3:1|0:0,0:0:0:0:
349,260,55643,1,2,3:2:0:0:
297,204,55815,2,0,P|353:235|417:224,1,132.000005035401,0|0,0:0|0:0,0:0:0:0:
401,94,56329,2,0,L|367:151,1,66.0000025177003,2|0,3:2|0:0,0:0:0:0:
231,133,56672,6,0,L|302:117,1,66.0000025177003,4|0,3:1|0:0,0:0:0:0:
213,212,57015,1,2,3:2:0:0:
27,166,57186,2,0,B|75:145|75:145|153:157,1,132.000005035401,0|0,0:0|0:0,0:0:0:0:
315,279,57700,1,8,0:2:0:0:
315,278,58043,6,0,P|358:230|355:165,2,132,4|2|2,0:1|0:0|0:0,0:0:0:0:
273,199,58729,2,0,P|229:246|232:311,2,132,2|2|2,3:2|0:0|0:0,0:0:0:0:
299,357,59415,1,8,3:2:0:0:
299,357,59757,5,8,0:0:0:0:
331,360,59838,1,8,0:0:0:0:
364,363,59920,1,8,0:0:0:0:
397,366,60001,1,8,0:0:0:0:
430,370,60083,1,8,0:0:0:0:
499,218,60788,5,4,3:1:0:0:
430,370,60959,1,6,0:2:0:0:
360,154,61130,1,10,0:2:0:0:
383,303,61302,1,6,0:2:0:0:
488,70,61473,1,2,3:2:0:0:
414,222,61645,1,6,0:2:0:0:
224,101,61816,1,10,0:2:0:0:
328,234,61988,1,6,0:2:0:0:
242,22,62159,5,2,3:2:0:0:
143,122,62330,1,6,0:2:0:0:
274,169,62502,1,10,0:2:0:0:
160,40,62673,1,6,0:2:0:0:
196,189,62845,2,0,B|205:247|205:247|186:290,1,105.599996777344,2|4,3:2|0:0,0:0:0:0:
0,382,63188,2,0,B|-9:324|-9:324|9:280,1,105.599996777344,10|4,0:2|0:0,0:0:0:0:
177,384,63530,6,0,P|127:369|96:327,1,105.599996777344,2|4,3:2|0:2,0:0:0:0:
266,248,63873,2,0,P|278:298|257:345,1,105.599996777344,10|4,0:2|0:2,0:0:0:0:
109,239,64216,2,0,P|146:203|197:197,1,105.599996777344,2|4,3:2|0:2,0:0:0:0:
370,295,64559,6,0,P|320:281|290:239,1,105.599996777344,10|4,0:2|0:2,0:0:0:0:
383,103,64902,2,0,P|395:153|374:200,1,105.599996777344,2|4,3:2|0:2,0:0:0:0:
214,189,65245,2,0,P|251:153|302:147,1,105.599996777344,10|4,0:2|0:2,0:0:0:0:
446,249,65588,1,2,3:2:0:0:
290,239,65759,1,4,0:2:0:0:
152,317,65930,1,8,0:2:0:0:
105,307,66016,1,8,0:2:0:0:
65,280,66102,1,8,0:2:0:0:
44,237,66188,1,8,0:2:0:0:
45,189,66273,5,4,3:1:0:0:
241,124,66445,1,6,0:2:0:0:
1,116,66616,1,10,0:2:0:0:
271,206,66788,1,6,0:2:0:0:
85,112,66959,1,2,3:2:0:0:
328,142,67130,1,6,0:2:0:0:
78,251,67302,1,10,0:2:0:0:
299,66,67473,1,6,0:2:0:0:
118,331,67645,5,2,3:2:0:0:
127,181,67816,1,6,0:2:0:0:
252,263,67988,1,10,0:2:0:0:
164,256,68159,1,6,0:2:0:0:
328,211,68330,2,0,B|344:263|344:263|330:312,1,105.599996777344,2|4,3:2|0:2,0:0:0:0:
45,178,68673,2,0,B|29:126|29:126|42:76,1,105.599996777344,10|4,0:2|0:2,0:0:0:0:
299,66,69016,6,0,L|193:73,1,105.599996777344,2|4,3:2|0:2,0:0:0:0:
433,176,69359,2,0,L|327:168,1,105.599996777344,10|4,0:2|0:2,0:0:0:0:
468,17,69702,2,0,L|257:32,1,211.199993554688,2|8,3:2|0:2,0:0:0:0:
280,232,70216,1,0,0:0:0:0:
369,98,70388,5,10,0:2:0:0:
352,287,70559,1,12,0:2:0:0:
293,142,70730,1,2,3:2:0:0:
197,266,70902,1,4,3:2:0:0:
361,200,71073,1,14,0:2:0:0:
221,90,71245,1,4,3:2:0:0:
266,313,71416,5,8,0:2:0:0:
224,344,71508,1,8,0:2:0:0:
171,343,71600,1,8,0:2:0:0:
128,311,71692,1,8,0:2:0:0:
116,259,71784,5,4,3:1:0:0:
45,111,71955,1,6,0:2:0:0:
197,266,72126,1,10,0:2:0:0:
301,62,72298,1,6,0:2:0:0:
85,185,72469,1,2,3:2:0:0:
16,35,72641,1,6,0:2:0:0:
246,202,72812,1,10,0:2:0:0:
371,18,72984,1,6,0:2:0:0:
164,188,73155,5,2,3:2:0:0:
284,279,73326,1,6,0:2:0:0:
299,131,73498,1,10,0:2:0:0:
197,266,73669,1,6,0:2:0:0:
433,216,73841,2,0,B|384:196|384:196|331:206,1,105.599996777344,2|4,3:2|0:2,0:0:0:0:
75,337,74184,2,0,B|123:356|123:356|176:346,1,105.599996777344,10|4,0:2|0:2,0:0:0:0:
257,97,74526,6,0,L|244:215,1,105.599996777344,2|4,3:2|0:2,0:0:0:0:
104,11,74869,2,0,L|117:129,1,105.599996777344,10|4,0:2|0:2,0:0:0:0:
354,0,75212,2,0,L|341:118,1,105.599996777344,2|4,3:2|0:2,0:0:0:0:
154,255,75555,6,0,P|194:222|246:220,1,105.599996777344,10|4,0:2|0:2,0:0:0:0:
302,378,75898,2,0,P|253:358|225:315,1,105.599996777344,2|4,3:2|0:2,0:0:0:0:
331,185,76241,2,0,P|338:236|314:282,1,105.599996777344,10|4,0:2|0:2,0:0:0:0:
148,337,76584,1,2,3:2:0:0:
261,143,76755,1,4,0:2:0:0:
367,353,76926,5,8,0:2:0:0:
430,351,77012,1,8,0:2:0:0:
478,310,77098,1,8,0:2:0:0:
495,248,77184,1,8,0:2:0:0:
473,189,77269,5,4,3:1:0:0:
245,219,77441,1,6,0:2:0:0:
490,109,77612,1,10,0:2:0:0:
222,306,77784,1,6,0:2:0:0:
412,128,77955,1,2,3:2:0:0:
164,243,78126,1,6,0:2:0:0:
419,241,78298,1,10,0:2:0:0:
184,164,78469,1,6,0:2:0:0:
457,316,78641,5,2,3:2:0:0:
336,246,78812,1,6,0:2:0:0:
476,177,78984,1,10,0:2:0:0:
375,312,79155,1,6,0:2:0:0:
396,154,79326,2,0,L|513:162,1,105.599996777344,2|4,3:2|0:2,0:0:0:0:
412,384,79669,2,0,L|295:376,1,105.599996777344,10|4,0:2|0:2,0:0:0:0:
5,355,80012,5,2,3:2:0:0:
5,355,80355,1,8,0:2:0:0:
110,286,80526,1,6,0:2:0:0:
54,120,80698,2,0,P|41:170|59:219,1,105.599996777344,2|4,3:2|0:2,0:0:0:0:
224,119,81041,2,0,P|187:82|135:73,1,105.599996777344,10|4,0:2|0:2,0:0:0:0:
213,245,81384,6,0,B|312:265|314:205|419:224,1,211.199993554688,2|8,3:2|0:2,0:0:0:0:
374,316,81888,1,4,0:2:0:0:
253,164,82057,2,0,P|259:99|310:59,1,105.599996777344,0|4,3:2|0:2,0:0:0:0:
304,259,82393,1,8,0:2:0:0:
288,280,82477,1,8,0:2:0:0:
271,300,82562,1,8,0:2:0:0:
254,320,82646,1,8,0:2:0:0:
235,343,82730,6,0,L|130:353,1,88,4|2,3:1|0:0,0:0:0:0:
8,290,83072,1,10,0:0:0:0:
64,356,83244,1,2,0:0:0:0:
180,265,83415,1,2,3:2:0:0:
96,272,83587,1,2,0:0:0:0:
235,183,83758,1,10,0:0:0:0:
380,255,83930,6,0,L|292:243,1,88,2|0,0:0|3:0,0:0:0:0:
68,196,84272,2,0,L|155:184,1,88,2|8,0:0|0:0,0:0:0:0:
467,266,84615,2,0,L|379:254,1,88,2|0,0:0|3:0,0:0:0:0:
155,184,84958,2,0,L|242:172,1,88,2|10,0:0|0:0,0:0:0:0:
330,159,85301,1,2,0:0:0:0:
208,257,85472,5,2,3:2:0:0:
265,87,85644,1,0,0:0:0:0:
292,243,85815,1,10,0:0:0:0:
181,103,85987,1,2,0:0:0:0:
260,321,86158,1,2,3:2:0:0:
155,184,86330,1,2,0:0:0:0:
210,384,86501,1,8,0:0:0:0:
75,201,86672,6,0,P|77:157|101:122,1,88,2|0,0:0|3:0,0:0:0:0:
265,87,87015,2,0,P|263:130|238:166,1,88,2|8,0:0|0:0,0:0:0:0:
101,122,87358,2,0,P|102:78|127:42,1,88,2|0,0:0|3:0,0:0:0:0:
291,7,87701,2,0,P|289:50|264:86,1,88,2|8,0:0|0:0,0:0:0:0:
244,95,87958,1,8,0:0:0:0:
225,105,88044,1,8,0:0:0:0:
208,120,88130,1,8,0:0:0:0:
197,139,88215,6,0,L|202:257,1,88,4|2,3:1|0:0,0:0:0:0:
207,314,88558,1,10,0:0:0:0:
280,178,88730,1,2,0:0:0:0:
116,99,88901,1,2,3:2:0:0:
284,261,89072,1,2,0:0:0:0:
374,40,89244,5,10,0:0:0:0:
200,226,89415,2,0,L|208:320,1,88,2|0,0:0|3:0,0:0:0:0:
360,216,89758,2,0,L|368:122,1,88,2|8,0:0|0:0,0:0:0:0:
192,138,90101,2,0,L|200:232,1,88,2|0,0:0|3:0,0:0:0:0:
367,128,90444,2,0,L|375:34,1,88,2|10,0:0|0:0,0:0:0:0:
281,177,90787,1,2,0:0:0:0:
444,161,90958,5,4,3:1:0:0:
290,98,91130,1,2,0:0:0:0:
307,256,91301,1,10,0:0:0:0:
367,128,91472,1,2,0:0:0:0:
228,248,91644,1,2,3:2:0:0:
392,272,91815,1,2,0:0:0:0:
197,169,91987,1,10,0:0:0:0:
209,387,92158,6,0,P|244:361|261:322,1,88,2|0,0:0|3:0,0:0:0:0:
171,87,92501,2,0,P|136:112|118:152,1,88,2|8,0:0|0:0,0:0:0:0:
261,322,92844,2,0,P|295:296|313:256,1,88,2|0,0:0|3:0,0:0:0:0:
118,152,93187,2,0,P|83:177|65:217,1,88,0|8,0:0|0:0,0:0:0:0:
108,314,93530,1,10,0:0:0:0:
319,173,93701,6,0,L|406:179,1,88,4|0,0:1|0:0,0:0:0:0:
248,113,94044,2,0,L|204:116,3,44,8|8|8|8,0:0|0:0|0:0|0:0,0:0:0:0:
171,87,94387,6,0,L|83:93,1,88,4|0,0:1|0:0,0:0:0:0:
332,25,94730,2,0,L|375:28,3,44,8|8|8|8,0:0|0:0|0:0|0:0,0:0:0:0:
394,61,95072,6,0,L|481:67,1,88,4|0,0:1|0:0,0:0:0:0:
411,242,95415,2,0,P|400:222|395:201,3,44,8|8|8|8,0:0|0:0|0:0|0:0,0:0:0:0:
445,270,95758,6,0,P|457:311|441:378,1,88,4|0,0:1|0:0,0:0:0:0:
225,315,96101,2,0,P|235:334|240:355,3,44,8|8|8|8,0:0|0:0|0:0|0:0,0:0:0:0:
191,287,96444,6,0,P|179:246|195:179,1,88,4|0,0:1|0:0,0:0:0:0:
289,40,96787,2,0,P|278:20|273:0,3,44,8|8|8|8,0:0|0:0|0:0|0:0,0:0:0:0:
323,68,97130,6,0,P|335:109|319:176,1,88,4|0,0:1|0:0,0:0:0:0:
72,161,97472,2,0,P|52:171|31:176,3,44,8|8|8|8,0:0|0:0|0:0|0:0,0:0:0:0:
100,127,97815,6,0,P|141:115|208:131,1,88,4|0,0:1|0:0,0:0:0:0:
391,243,98158,2,0,P|410:232|431:227,3,44,8|8|8|8,0:0|0:0|0:0|0:0,0:0:0:0:
363,277,98501,6,0,P|322:289|255:273,1,88,4|0,0:1|0:0,0:0:0:0:
129,206,98844,1,8,0:0:0:0:
115,217,98932,1,8,0:0:0:0:
102,229,99020,1,8,0:0:0:0:
91,242,99109,1,8,0:0:0:0:
82,257,99197,6,0,L|69:356,1,88,4|0,0:1|0:0,0:0:0:0:
214,160,99539,1,8,0:0:0:0:
228,171,99625,1,8,0:0:0:0:
241,183,99711,1,8,0:0:0:0:
252,196,99797,1,8,0:0:0:0:
261,211,99882,6,0,L|274:310,1,88,4|0,0:1|0:0,0:0:0:0:
134,80,100225,1,8,0:0:0:0:
120,91,100311,1,8,0:0:0:0:
107,103,100397,1,8,0:0:0:0:
96,116,100482,1,8,0:0:0:0:
87,131,100568,6,0,L|74:230,1,88,4|0,0:1|0:0,0:0:0:0:
232,38,100911,1,8,0:0:0:0:
246,49,100997,1,8,0:0:0:0:
259,61,101082,1,8,0:0:0:0:
270,74,101168,1,8,0:0:0:0:
279,89,101254,6,0,L|292:188,1,88,4|0,0:1|0:0,0:0:0:0:
160,324,101597,1,8,0:0:0:0:
184,302,101682,1,8,0:0:0:0:
217,291,101768,1,8,0:0:0:0:
251,291,101854,1,8,0:0:0:0:
284,301,101939,6,0,P|338:300|399:259,1,88,4|0,0:1|0:0,0:0:0:0:
504,103,102277,1,8,0:0:0:0:
480,125,102362,1,8,0:0:0:0:
447,136,102447,1,8,0:0:0:0:
413,136,102532,1,8,0:0:0:0:
380,126,102616,6,0,P|326:127|265:168,1,88,4|0,0:1|0:0,0:0:0:0:
242,222,102955,1,0,3:0:0:0:
401,218,103125,1,8,0:0:0:0:
256,65,103294,1,0,3:0:0:0:
324,229,103464,1,8,0:0:0:0:
429,41,103633,1,8,0:0:0:0:
44,91,103803,5,4,3:1:0:0:
256,192,103972,12,2,110868,0:0:0:0:
73,118,111558,5,4,0:1:0:0:
256,192,111644,12,0,117592,0:0:0:0:
