osu file format v14

[General]
AudioFilename: audio.mp3
AudioLeadIn: 0
PreviewTime: 66097
Countdown: 0
SampleSet: Soft
StackLeniency: 0.4
Mode: 0
LetterboxInBreaks: 0
WidescreenStoryboard: 1

[Editor]
DistanceSpacing: 1
BeatDivisor: 4
GridSize: 32
TimelineZoom: 1.5

[Metadata]
Title:Nai Mono Nedari
TitleUnicode:ないものねだり
Artist:KANA-BOON
ArtistUnicode:KANA-BOON
Creator:Nevo
Version:Agatsu's Insane
Source:
Tags:yukiyo agatsu iyiyo nikakis hanasaka yui boruto naruto uzumaki sasuke uchiha sarada kanaboon cut ver version takeki
BeatmapID:1674588
BeatmapSetID:795000

[Difficulty]
HPDrainRate:6
CircleSize:4
OverallDifficulty:8
ApproachRate:9
SliderMultiplier:1.7
SliderTickRate:1

[Events]
//Background and Video events
0,0,"borutoaqwer.jpg",0,0
//Break Periods
//Storyboard Layer 0 (Background)
//Storyboard Layer 1 (Fail)
//Storyboard Layer 2 (Pass)
//Storyboard Layer 3 (Foreground)
//Storyboard Sound Samples

[TimingPoints]
465,342.857142857143,4,2,1,40,1,0
465,-125,4,2,1,40,0,0
5950,-111.111111111111,4,2,1,40,0,0
11436,344.827586206897,4,2,1,60,1,0
11436,-100,4,2,1,60,0,0
14194,340.909090909091,4,2,1,60,1,0
16921,341.394025604552,4,2,1,40,1,0
22041,357.142857142857,4,2,1,40,1,0
22398,342.857142857143,4,2,1,40,1,0
27883,337.078651685393,4,2,1,60,1,0
29231,345.821325648415,4,2,1,60,1,0
30614,342.857142857143,4,2,1,60,1,0
32671,349.854227405248,4,2,1,60,1,0
33370,342.857142857143,4,2,1,60,1,0
33370,-100,4,2,1,60,0,0
38855,341.880341880342,4,2,1,40,1,0
38855,-100,4,2,1,40,0,0
44328,355.029585798817,4,2,1,40,1,0
45038,331.95020746888,4,2,1,40,1,0
45701,342.857142857143,4,2,1,40,1,0
49815,342.857142857143,4,2,1,40,1,0
58043,-100,4,2,1,60,0,0
59243,-100,4,2,1,65,0,0
59415,-100,4,2,1,70,0,0
59586,-100,4,2,1,80,0,0
59757,326.086956521739,4,2,1,80,1,0
59920,-100,4,2,1,95,0,0
60083,352.941176470588,4,2,1,100,1,0
60788,342.857142857143,4,2,1,80,1,1
71416,368.098159509202,4,2,1,80,1,1
71784,342.857142857143,4,2,1,80,1,1
80270,-100,4,2,1,80,0,1
80356,-100,4,2,1,80,0,1
81384,336.605890603086,4,2,1,80,1,1
82730,342.857142857143,4,2,1,60,1,0
82756,-100,4,2,1,60,0,0
93701,-100,4,2,1,70,0,0
98844,353.982300884956,4,2,1,70,1,0
99197,342.857142857143,4,2,1,80,1,0
99197,-100,4,2,1,80,0,0
101939,338.983050847458,4,2,1,80,1,0
103972,344.827586206897,4,2,1,80,1,0
117075,-100,4,2,1,5,0,0

[Colours]
Combo1 : 192,192,192
Combo2 : 255,244,51
Combo3 : 128,128,255
Combo4 : 185,0,4

[HitObjects]
124,94,465,6,0,P|121:51|116:15,2,68,2|2|0,0:0|0:0|0:0,0:0:0:0:
227,182,1150,2,0,P|224:225|219:261,2,68,2|2|0,0:0|0:0|0:0,0:0:0:0:
217,84,1836,2,0,P|250:81|284:77,2,68,2|2|0,0:0|0:0|0:0,0:0:0:0:
129,187,2522,2,0,P|86:184|50:179,2,68,2|2|0,0:0|0:0|0:0,0:0:0:0:
290,145,3207,6,0,P|287:102|282:66,2,68,2|2|0,0:0|0:0|0:0,0:0:0:0:
393,233,3893,2,0,P|390:276|385:312,2,68,2|2|0,0:0|0:0|0:0,0:0:0:0:
383,135,4579,2,0,P|416:132|450:128,2,68,2|2|0,0:0|0:0|0:0,0:0:0:0:
295,238,5265,2,0,P|252:235|216:230,2,68,2|2|0,0:0|0:0|0:0,0:0:0:0:
140,343,5950,6,0,P|133:254|128:185,1,152.999995330811,6|4,3:2|3:2,0:0:0:0:
165,31,6465,1,0,0:0:0:0:
234,62,6636,2,0,P|231:97|222:144,1,76.4999976654053,6|2,3:2|0:2,0:0:0:0:
342,234,6979,2,0,P|334:196|331:158,1,76.4999976654053,4|0,3:2|0:0,0:0:0:0:
263,275,7322,6,0,P|327:268|398:322,1,152.999995330811,6|4,3:2|3:2,0:0:0:0:
225,354,7836,1,0,0:0:0:0:
155,323,8007,2,0,P|117:324|71:328,1,76.4999976654053,6|2,3:2|0:2,0:0:0:0:
6,191,8350,2,0,P|43:192|90:196,1,76.4999976654053,4|0,3:2|0:0,0:0:0:0:
175,50,8693,6,0,P|169:85|162:135,1,76.4999976654053,6|2,3:2|0:2,0:0:0:0:
309,285,9036,2,0,P|303:247|297:209,1,76.4999976654053,4|0,3:2|0:0,0:0:0:0:
115,232,9379,2,0,P|153:235|191:238,1,76.4999976654053,6|2,3:2|0:2,0:0:0:0:
347,102,9722,2,0,P|308:104|270:108,1,76.4999976654053,4|0,3:2|0:0,0:0:0:0:
418,265,10065,6,0,P|456:267|494:271,1,76.4999976654053,6|2,3:2|0:2,0:0:0:0:
295,354,10407,1,4,3:2:0:0:
295,354,11436,5,4,3:1:0:0:
206,177,11608,1,2,0:0:0:0:
105,303,11780,2,0,P|148:306|190:320,1,85,10|2,0:0|0:0,0:0:0:0:
348,128,12125,1,2,3:2:0:0:
326,260,12298,1,2,0:0:0:0:
458,164,12470,1,10,0:0:0:0:
401,335,12642,6,0,P|329:306|231:301,1,170,2|2,0:0|0:0,0:0:0:0:
110,216,13160,2,0,P|84:251|81:291,1,85,8|2,0:0|0:0,0:0:0:0:
218,131,13504,1,0,3:0:0:0:
311,187,13677,1,2,0:0:0:0:
236,25,13849,1,10,0:2:0:0:
92,109,14022,1,2,0:0:0:0:
231,268,14194,6,0,P|273:272|319:285,1,85,2|0,3:2|0:0,0:0:0:0:
218,131,14534,1,10,0:0:0:0:
113,293,14705,1,2,0:0:0:0:
0,220,14875,2,0,P|42:216|88:203,1,85,2|2,3:2|0:0,0:0:0:0:
235,330,15216,1,8,0:0:0:0:
218,131,15387,6,0,P|211:170|203:223,1,85,2|0,0:0|3:0,0:0:0:0:
365,360,15728,2,0,P|358:318|351:276,1,85,2|8,0:0|0:0,0:0:0:0:
495,147,16069,1,2,0:0:0:0:
450,260,16239,1,0,3:0:0:0:
335,156,16409,1,2,0:0:0:0:
436,31,16580,2,0,P|432:54|430:83,1,42.5,8|8,0:0|0:0,0:0:0:0:
312,175,16750,2,0,P|315:198|318:227,1,42.5,8|8,0:0|0:0,0:0:0:0:
325,47,16921,5,4,3:1:0:0:
183,151,17091,1,2,0:0:0:0:
124,21,17262,2,0,P|167:26|209:34,1,85,10|2,0:0|0:0,0:0:0:0:
77,142,17603,1,2,3:2:0:0:
214,248,17774,1,2,0:0:0:0:
41,295,17945,1,10,0:0:0:0:
241,341,18115,6,0,P|257:249|272:167,1,170,2|2,0:0|0:0,0:0:0:0:
127,90,18627,2,0,P|133:128|141:173,1,85,8|2,0:0|0:0,0:0:0:0:
297,26,18969,1,0,3:0:0:0:
181,9,19140,1,2,0:0:0:0:
282,139,19310,1,10,0:0:0:0:
407,24,19481,1,2,0:2:0:0:
502,168,19652,6,0,P|461:170|418:178,1,85,2|2,3:2|0:0,0:0:0:0:
289,298,19993,1,10,0:0:0:0:
311,186,20164,1,2,0:0:0:0:
439,273,20334,1,2,3:2:0:0:
360,90,20505,1,2,0:0:0:0:
207,187,20676,1,10,0:0:0:0:
143,94,20847,6,0,P|184:86|227:83,1,85,2|0,0:0|3:0,0:0:0:0:
145,279,21188,2,0,P|186:287|229:290,1,85,2|8,0:0|0:0,0:0:0:0:
403,202,21529,1,2,0:0:0:0:
327,384,21700,2,0,P|334:337|338:299,1,85,0|0,3:0|0:0,0:0:0:0:
484,128,22041,6,0,P|486:148|489:176,1,42.5,8|8,0:0|0:0,0:0:0:0:
411,4,22219,2,0,P|408:24|406:52,1,42.5,8|8,0:0|0:0,0:0:0:0:
303,98,22398,6,0,P|237:61|138:65,1,170,4|8,3:1|0:0,0:0:0:0:
161,260,22912,1,6,0:0:0:0:
94,222,23083,2,0,P|89:174|80:132,1,85,2|4,3:2|0:0,0:0:0:0:
241,196,23426,1,8,0:0:0:0:
156,368,23598,1,6,0:0:0:0:
312,254,23769,5,2,3:2:0:0:
433,356,23940,1,6,0:0:0:0:
259,354,24112,1,10,0:0:0:0:
441,240,24283,1,4,0:0:0:0:
441,240,24369,1,0,0:0:0:0:
441,240,24455,2,0,P|445:192|452:155,1,85,2|4,3:2|0:0,0:0:0:0:
341,27,24798,1,10,0:0:0:0:
173,75,24969,1,6,0:0:0:0:
251,173,25140,6,0,P|293:177|339:190,1,85,2|4,3:2|0:0,0:0:0:0:
151,252,25483,2,0,P|147:294|134:340,1,85,10|4,0:0|0:0,0:0:0:0:
87,147,25826,2,0,P|45:143|-1:130,1,85,2|4,3:2|0:0,0:0:0:0:
176,22,26169,1,14,0:2:0:0:
228,180,26340,1,4,0:0:0:0:
346,88,26512,6,0,P|388:92|429:103,1,85,2|4,3:2|0:0,0:0:0:0:
326,228,26855,1,10,0:0:0:0:
409,350,27026,1,4,0:0:0:0:
409,350,27112,1,0,0:0:0:0:
409,350,27198,2,0,P|368:361|325:365,1,85,2|4,3:2|0:0,0:0:0:0:
181,301,27540,1,8,0:0:0:0:
326,228,27712,1,0,0:0:0:0:
195,126,27883,6,0,P|261:89|360:93,1,170,2|8,3:2|0:0,0:0:0:0:
512,175,28388,1,6,0:0:0:0:
451,128,28557,2,0,P|449:81|441:42,1,85,2|4,3:2|0:0,0:0:0:0:
363,214,28894,1,8,0:0:0:0:
482,309,29062,1,6,0:0:0:0:
303,295,29231,5,2,3:2:0:0:
306,140,29403,1,6,0:0:0:0:
390,297,29576,1,10,0:0:0:0:
251,371,29749,1,6,0:0:0:0:
162,203,29922,2,0,P|209:208|249:219,1,85,2|4,3:2|0:0,0:0:0:0:
454,170,30268,1,10,0:0:0:0:
381,25,30441,1,6,0:0:0:0:
227,30,30614,6,0,P|225:71|216:118,1,85,2|4,3:2|0:0,0:0:0:0:
368,246,30956,2,0,P|360:204|358:161,1,85,10|4,0:0|0:0,0:0:0:0:
148,238,31299,2,0,P|190:240|232:247,1,85,2|4,3:2|0:0,0:0:0:0:
344,363,31642,1,10,0:0:0:0:
498,290,31814,1,4,0:0:0:0:
400,148,31985,6,0,P|408:190|411:233,1,85,2|4,3:2|0:0,0:0:0:0:
221,331,32328,2,0,P|229:289|232:247,1,85,10|4,0:0|0:0,0:0:0:0:
178,109,32671,1,2,3:2:0:0:
56,234,32845,1,4,0:0:0:0:
69,28,33020,6,0,P|70:45|73:77,1,42.5,8|8,0:0|0:0,0:0:0:0:
201,124,33195,2,0,P|199:141|197:173,1,42.5,8|8,0:0|0:0,0:0:0:0:
182,6,33370,5,4,3:1:0:0:
322,168,33541,1,2,0:0:0:0:
398,32,33712,2,0,P|355:29|308:18,1,85,10|2,0:0|0:0,0:0:0:0:
260,253,34055,1,2,3:2:0:0:
203,100,34227,1,2,0:0:0:0:
203,100,34312,1,0,0:0:0:0:
203,100,34398,1,10,0:0:0:0:
191,324,34570,6,0,P|268:296|363:297,1,170,2|2,0:0|0:0,0:0:0:0:
506,168,35084,2,0,P|461:163|418:149,1,85,8|2,0:0|0:0,0:0:0:0:
277,180,35427,1,0,3:2:0:0:
440,44,35598,1,2,0:0:0:0:
459,262,35770,1,10,0:0:0:0:
334,93,35941,1,2,0:0:0:0:
189,234,36112,6,0,P|187:182|179:146,1,85,2|0,3:2|0:0,0:0:0:0:
277,320,36455,1,10,0:0:0:0:
51,369,36627,1,2,0:0:0:0:
11,303,36798,2,0,P|57:289|100:289,1,85,2|2,3:2|0:0,0:0:0:0:
274,225,37141,1,8,0:0:0:0:
97,135,37312,6,0,P|143:149|186:149,1,85,2|0,0:0|3:2,0:0:0:0:
312,73,37655,1,2,0:0:0:0:
409,181,37827,1,8,0:0:0:0:
284,308,37998,2,0,P|282:260|271:215,1,85,2|0,0:0|3:2,0:0:0:0:
408,84,38341,1,2,0:0:0:0:
509,208,38512,6,0,P|510:186|513:165,1,42.5,8|8,0:0|0:0,0:0:0:0:
428,62,38684,2,0,P|426:40|423:19,1,42.5,8|8,0:0|0:0,0:0:0:0:
298,69,38855,6,0,B|194:67|242:120|117:111,1,170,4|8,3:1|0:0,0:0:0:0:
74,264,39367,1,6,0:0:0:0:
126,320,39538,2,0,P|171:326|217:339,1,85,2|4,3:2|0:0,0:0:0:0:
331,230,39880,1,10,0:0:0:0:
454,311,40051,1,6,0:0:0:0:
319,349,40222,6,0,P|317:301|308:260,1,85,2|6,3:2|0:0,0:0:0:0:
403,108,40564,1,10,0:0:0:0:
512,189,40735,1,6,0:0:0:0:
512,189,40820,1,8,0:0:0:0:
512,189,40906,1,2,3:2:0:0:
439,215,41077,1,4,0:0:0:0:
305,161,41248,1,10,0:0:0:0:
158,256,41419,1,6,0:0:0:0:
250,84,41590,6,0,P|255:155|264:263,1,170,2|10,3:2|0:0,0:0:0:0:
397,123,42102,1,4,0:0:0:0:
397,123,42188,1,8,0:0:0:0:
397,123,42273,2,0,P|400:73|409:37,1,85,2|4,3:2|0:0,0:0:0:0:
305,161,42615,1,10,0:0:0:0:
456,263,42786,1,4,0:0:0:0:
329,362,42957,6,0,P|289:365|242:382,1,85,2|4,3:2|0:0,0:0:0:0:
185,178,43299,1,10,0:0:0:0:
59,244,43470,1,6,0:0:0:0:
59,244,43555,1,8,0:0:0:0:
59,244,43641,1,2,3:2:0:0:
219,287,43812,1,8,0:0:0:0:
224,61,43983,1,4,3:2:0:0:
79,114,44154,1,8,0:0:0:0:
281,200,44328,6,0,B|377:199|340:247|446:244,1,170,4|8,3:1|0:0,0:0:0:0:
395,43,44860,1,6,0:0:0:0:
395,43,44949,1,8,0:0:0:0:
395,43,45038,2,0,P|421:78|424:118,1,85,2|4,3:2|0:0,0:0:0:0:
238,22,45369,1,8,0:0:0:0:
114,154,45535,1,6,0:0:0:0:
255,129,45701,5,2,3:2:0:0:
135,69,45872,1,6,0:0:0:0:
47,218,46043,1,10,0:0:0:0:
266,241,46215,1,6,0:0:0:0:
266,241,46301,1,8,0:0:0:0:
266,241,46386,2,0,P|270:193|279:157,1,85,2|0,3:2|0:0,0:0:0:0:
114,154,46729,1,10,0:0:0:0:
202,340,46901,1,6,0:0:0:0:
202,340,46986,1,0,0:0:0:0:
202,340,47072,6,0,P|245:346|285:357,1,85,2|6,3:2|0:0,0:0:0:0:
278,157,47415,2,0,P|251:191|221:220,1,85,10|6,0:0|0:0,0:0:0:0:
397,313,47758,2,0,P|381:272|370:232,1,85,2|6,3:2|0:0,0:0:0:0:
398,37,48101,1,10,0:0:0:0:
278,157,48272,1,6,0:0:0:0:
482,150,48443,6,0,P|441:138|398:136,1,85,2|6,3:2|0:0,0:0:0:0:
243,55,48786,1,10,0:0:0:0:
93,164,48958,1,6,0:0:0:0:
191,207,49129,1,2,3:2:0:0:
108,63,49301,1,6,0:0:0:0:
0,165,49472,6,0,P|1:185|7:219,1,42.5,8|8,0:0|0:0,0:0:0:0:
121,277,49643,2,0,P|120:297|114:331,1,42.5,8|8,0:0|0:0,0:0:0:0:
99,353,49815,6,0,P|162:337|226:336,1,127.5,4|0,3:1|0:0,0:0:0:0:
260,347,50157,2,0,P|263:302|275:260,1,85,2|0,3:2|0:0,0:0:0:0:
509,136,50500,2,0,B|414:146|461:196|351:203,1,170,0|2,3:0|3:2,0:0:0:0:
246,134,51015,1,0,0:0:0:0:
120,176,51186,6,0,P|93:117|96:52,1,127.5,4|0,3:1|0:0,0:0:0:0:
115,23,51529,2,0,P|157:20|200:6,1,85,2|0,3:2|0:0,0:0:0:0:
357,145,51872,2,0,P|274:150|220:213,1,170,0|2,3:0|3:2,0:0:0:0:
447,240,52386,1,0,0:0:0:0:
447,240,52472,1,0,0:0:0:0:
447,240,52557,6,0,P|451:170|462:113,1,127.5,4|0,3:1|0:0,0:0:0:0:
475,77,52900,2,0,P|433:74|390:60,1,85,2|0,3:2|0:0,0:0:0:0:
170,111,53243,2,0,B|268:106|227:162|342:158,1,170,0|2,3:0|3:2,0:0:0:0:
217,240,53757,1,0,0:0:0:0:
308,375,53929,6,0,P|244:348|175:357,1,127.5,4|0,3:1|0:0,0:0:0:0:
153,368,54272,2,0,P|153:319|143:283,1,85,2|0,3:2|0:0,0:0:0:0:
256,126,54615,2,0,P|245:167|246:209,1,85,0|0,3:0|0:0,0:0:0:0:
51,137,54957,1,2,3:2:0:0:
155,22,55129,1,0,0:0:0:0:
155,22,55215,1,0,0:0:0:0:
155,22,55300,6,0,L|148:155,1,127.5,4|0,3:1|0:0,0:0:0:0:
130,183,55643,2,0,P|170:186|217:203,1,85,2|0,3:2|0:0,0:0:0:0:
272,350,55986,2,0,P|319:278|308:187,1,170,0|2,3:0|3:2,0:0:0:0:
394,139,56500,1,0,0:0:0:0:
394,139,56586,1,0,0:0:0:0:
394,139,56672,6,0,P|434:136|481:119,1,85,4|0,3:1|0:0,0:0:0:0:
264,58,57015,2,0,P|224:55|177:38,1,85,2|0,3:2|0:0,0:0:0:0:
373,42,57357,2,0,P|412:27|455:24,1,85,0|0,3:0|0:0,0:0:0:0:
263,151,57700,2,0,P|223:165|180:168,1,85,8|0,0:2|0:0,0:0:0:0:
23,258,58043,6,0,P|91:261|137:300,1,127.5,4|0,0:1|0:0,0:0:0:0:
149,332,58386,5,0,3:0:0:0:
343,291,58557,1,0,0:0:0:0:
241,264,58729,5,0,3:0:0:0:
442,322,58900,1,0,0:0:0:0:
363,186,59072,5,0,3:0:0:0:
257,368,59243,1,0,0:0:0:0:
282,99,59415,5,8,3:2:0:0:
343,291,59586,1,8,0:0:0:0:
154,181,59757,6,0,P|183:178|201:173,1,42.5,8|8,0:0|0:0,0:0:0:0:
301,80,59920,2,0,P|330:83|348:88,1,42.5,8|8,0:0|0:0,0:0:0:0:
477,197,60083,1,8,0:0:0:0:
477,197,60788,5,4,3:1:0:0:
363,241,60959,1,6,0:2:0:0:
309,110,61130,1,10,0:2:0:0:
427,130,61302,1,6,0:2:0:0:
464,285,61473,1,2,3:2:0:0:
323,347,61645,1,6,0:2:0:0:
177,278,61816,1,10,0:2:0:0:
43,334,61988,1,6,0:2:0:0:
194,204,62159,5,2,3:2:0:0:
357,268,62330,1,6,0:2:0:0:
207,128,62502,1,10,0:2:0:0:
75,195,62673,1,6,0:2:0:0:
20,141,62845,2,0,P|17:93|8:51,1,85,2|4,3:2|0:0,0:0:0:0:
126,259,63188,2,0,P|123:307|114:349,1,85,10|4,0:2|0:0,0:0:0:0:
276,177,63530,6,0,P|324:180|366:189,1,85,2|4,3:2|0:2,0:0:0:0:
148,84,63873,2,0,P|151:36|160:-6,1,85,10|4,0:2|0:2,0:0:0:0:
293,64,64216,1,2,3:2:0:0:
122,190,64388,1,4,0:2:0:0:
269,260,64559,2,0,P|272:308|281:350,1,85,10|4,0:2|0:2,0:0:0:0:
442,204,64902,6,0,P|399:200|359:187,1,85,2|4,3:2|0:2,0:0:0:0:
260,20,65245,2,0,P|217:23|177:36,1,85,10|4,0:2|0:2,0:0:0:0:
81,165,65588,1,2,3:2:0:0:
173,313,65759,1,4,0:2:0:0:
252,194,65930,6,0,P|253:168|255:152,1,42.5,8|8,0:2|0:2,0:0:0:0:
152,340,66102,2,0,P|150:314|149:298,1,42.5,8|8,0:2|0:2,0:0:0:0:
0,231,66273,5,4,3:1:0:0:
109,87,66445,1,6,0:2:0:0:
252,194,66616,1,10,0:2:0:0:
97,215,66788,1,6,0:2:0:0:
300,122,66959,1,2,3:2:0:0:
436,200,67130,1,6,0:2:0:0:
352,41,67302,1,10,0:2:0:0:
163,101,67473,1,6,0:2:0:0:
327,207,67645,5,2,3:2:0:0:
417,115,67816,1,6,0:2:0:0:
197,177,67988,1,10,0:2:0:0:
343,299,68159,1,6,0:2:0:0:
280,343,68330,2,0,P|237:347|192:360,1,85,2|4,3:2|0:2,0:0:0:0:
292,98,68673,2,0,P|249:94|204:81,1,85,10|4,0:2|0:2,0:0:0:0:
389,161,69016,6,0,P|393:113|403:76,1,85,2|4,3:2|0:2,0:0:0:0:
218,230,69359,2,0,P|228:271|231:313,1,85,10|4,0:2|0:2,0:0:0:0:
421,283,69702,2,0,P|380:271|337:267,1,85,2|4,3:2|0:2,0:0:0:0:
149,359,70045,1,8,0:2:0:0:
23,202,70216,1,0,0:0:0:0:
220,109,70388,6,0,P|209:150|206:192,1,85,10|12,0:2|0:2,0:0:0:0:
218,230,70645,1,8,0:0:0:0:
218,230,70730,1,2,3:2:0:0:
359,297,70902,1,4,3:2:0:0:
480,176,71073,1,14,0:2:0:0:
406,154,71245,1,4,3:2:0:0:
269,302,71416,6,8,P|267:322|264:347,1,42.5,8|8,0:2|0:0,0:0:0:0:
449,264,71600,2,0,P|450:284|454:309,1,42.5,8|8,0:2|0:2,0:0:0:0:
359,297,71784,5,4,3:1:0:0:
321,167,71955,1,6,0:2:0:0:
130,269,72126,1,10,0:2:0:0:
251,260,72298,1,0,0:0:0:0:
114,158,72469,1,2,3:2:0:0:
3,239,72641,1,0,0:0:0:0:
37,59,72812,1,10,0:2:0:0:
186,101,72984,1,0,0:0:0:0:
350,48,73155,5,2,3:2:0:0:
220,5,73326,1,6,0:2:0:0:
321,169,73498,1,10,0:2:0:0:
451,62,73669,1,6,0:2:0:0:
510,111,73841,2,0,P|502:151|499:199,1,85,2|4,3:2|0:2,0:0:0:0:
290,266,74184,2,0,P|298:307|301:350,1,85,10|4,0:2|0:2,0:0:0:0:
509,310,74526,6,0,P|465:306|419:290,1,85,2|4,3:2|0:2,0:0:0:0:
335,91,74869,2,0,P|291:95|245:111,1,85,10|4,0:2|0:2,0:0:0:0:
434,164,75212,1,2,3:2:0:0:
290,266,75384,1,4,0:2:0:0:
130,199,75555,2,0,P|125:152|115:114,1,85,10|4,0:2|0:2,0:0:0:0:
305,5,75898,6,0,P|294:46|290:88,1,85,2|4,3:2|0:2,0:0:0:0:
410,228,76241,1,10,0:2:0:0:
340,259,76412,1,4,0:2:0:0:
397,118,76584,1,2,3:2:0:0:
512,217,76755,1,4,0:2:0:0:
355,361,76926,6,0,P|331:358|302:355,1,42.5,8|8,0:2|0:2,0:0:0:0:
253,204,77098,2,0,P|231:206|210:208,1,42.5,8|8,0:2|0:2,0:0:0:0:
82,312,77269,5,4,3:1:0:0:
151,133,77441,1,6,0:2:0:0:
21,211,77612,1,10,0:2:0:0:
195,301,77784,1,6,0:2:0:0:
359,196,77955,1,2,3:2:0:0:
475,265,78126,1,6,0:2:0:0:
317,321,78298,1,10,0:2:0:0:
266,151,78469,1,6,0:2:0:0:
423,103,78641,5,2,3:2:0:0:
345,237,78812,1,6,0:2:0:0:
177,115,78984,1,10,0:2:0:0:
391,19,79155,1,6,0:2:0:0:
316,2,79326,2,0,P|305:42|305:93,1,85,2|4,3:2|0:2,0:0:0:0:
454,199,79669,6,8,P|456:171|461:145,1,42.5,10|8,0:2|0:0,0:0:0:0:
306,260,79841,2,8,P|304:238|301:217,1,42.5,12|8,0:2|0:0,0:0:0:0:
512,372,80012,6,0,P|455:342|391:345,1,127.5,4|0,3:1|0:0,0:0:0:0:
358,361,80355,1,8,0:2:0:0:
136,295,80526,1,6,0:2:0:0:
207,269,80698,2,0,P|215:310|218:353,1,85,2|4,3:2|0:2,0:0:0:0:
31,172,81041,2,0,P|23:213|20:256,1,85,10|4,0:2|0:2,0:0:0:0:
217,149,81384,5,2,3:2:0:0:
70,33,81552,1,0,0:0:0:0:
275,64,81720,2,0,P|234:53|192:49,1,85,8|4,0:2|0:2,0:0:0:0:
282,238,82057,2,0,P|241:249|199:254,1,85,0|4,3:2|0:2,0:0:0:0:
392,115,82393,6,0,P|394:88|396:73,1,42.5,8|8,0:2|0:2,0:0:0:0:
493,249,82562,2,0,P|490:222|489:207,1,42.5,8|8,0:2|0:2,0:0:0:0:
380,359,82730,5,4,3:1:0:0:
198,254,82901,1,2,0:0:0:0:
388,241,83072,2,0,P|345:241|304:250,1,85,10|2,0:0|0:0,0:0:0:0:
174,144,83415,1,2,3:2:0:0:
70,268,83587,1,2,0:0:0:0:
75,79,83758,1,10,0:0:0:0:
224,223,83930,6,0,P|218:132|200:51,1,170,2|2,0:0|0:0,0:0:0:0:
343,151,84444,2,0,P|388:155|432:161,1,85,8|2,0:0|0:0,0:0:0:0:
480,332,84787,1,0,3:0:0:0:
374,264,84958,1,2,0:0:0:0:
233,320,85130,1,10,0:0:0:0:
350,373,85301,1,2,0:0:0:0:
260,223,85472,6,0,P|214:227|171:233,1,85,2|0,3:2|0:0,0:0:0:0:
329,90,85815,1,10,0:0:0:0:
374,264,85987,1,2,0:0:0:0:
512,153,86158,2,0,P|469:149|427:143,1,85,2|2,3:2|0:0,0:0:0:0:
323,2,86501,1,8,0:0:0:0:
180,110,86672,6,0,P|160:67|167:22,1,85,2|0,0:0|3:0,0:0:0:0:
298,177,87015,2,0,P|290:214|287:265,1,85,2|8,0:0|0:0,0:0:0:0:
87,313,87358,1,2,0:0:0:0:
170,233,87530,1,0,3:0:0:0:
286,371,87701,1,2,0:0:0:0:
407,277,87872,6,0,P|409:247|411:227,1,42.5,8|8,0:0|0:0,0:0:0:0:
298,177,88044,2,0,P|296:147|294:127,1,42.5,8|8,0:0|0:0,0:0:0:0:
344,36,88215,5,4,3:1:0:0:
186,140,88387,1,2,0:0:0:0:
311,277,88558,2,0,P|302:319|299:369,1,85,10|2,0:0|0:0,0:0:0:0:
184,237,88901,1,2,3:2:0:0:
17,280,89072,1,2,0:0:0:0:
205,358,89244,1,10,0:0:0:0:
79,366,89415,6,0,P|61:282|50:192,1,170,2|2,0:0|0:0,0:0:0:0:
299,224,89930,2,0,P|256:223|215:211,1,85,8|2,0:0|0:0,0:0:0:0:
192,30,90272,1,0,3:0:0:0:
76,73,90444,1,2,0:0:0:0:
241,109,90615,1,10,0:0:0:0:
332,1,90787,1,2,0:0:0:0:
465,92,90958,6,0,P|423:95|381:106,1,85,4|2,3:1|0:0,0:0:0:0:
257,263,91301,1,10,0:0:0:0:
386,217,91472,1,2,0:0:0:0:
475,325,91644,1,2,3:2:0:0:
408,363,91815,2,0,P|366:352|324:349,1,85,2|10,0:0|0:0,0:0:0:0:
456,148,92158,6,0,B|352:146|400:199|275:190,1,170,2|2,0:0|0:0,0:0:0:0:
198,81,92672,1,8,0:0:0:0:
123,98,92844,2,0,P|118:57|106:13,1,85,2|0,0:0|3:0,0:0:0:0:
303,67,93187,1,0,0:0:0:0:
163,190,93358,1,8,0:0:0:0:
309,302,93530,1,8,0:0:0:0:
415,167,93701,6,0,P|418:115|425:81,1,85,4|0,0:1|0:0,0:0:0:0:
495,263,94044,2,0,P|473:266|452:271,3,42.5,8|8|8|8,0:0|0:0|0:0|0:0,0:0:0:0:
428,300,94387,6,0,P|390:296|341:280,1,85,4|0,0:1|0:0,0:0:0:0:
244,366,94730,2,0,P|240:336|240:307,3,42.5,8|8|8|8,0:0|0:0|0:0|0:0,0:0:0:0:
211,298,95072,6,0,P|220:253|223:210,1,85,4|0,0:1|0:0,0:0:0:0:
135,101,95415,1,8,0:0:0:0:
167,81,95501,1,8,0:0:0:0:
200,99,95587,1,8,0:0:0:0:
235,84,95672,1,8,0:0:0:0:
235,84,95758,6,0,P|280:85|319:76,1,85,4|0,0:1|0:0,0:0:0:0:
222,214,96101,2,0,P|219:235|218:256,3,42.5,8|8|8|8,0:0|0:0|0:0|0:0,0:0:0:0:
190,282,96444,6,0,P|198:320|199:368,1,85,4|0,0:1|0:0,0:0:0:0:
322,335,96787,2,0,P|346:331|370:331,3,42.5,8|8|8|8,0:0|0:0|0:0|0:0,0:0:0:0:
398,348,97130,6,0,P|398:305|407:263,1,85,4|0,0:1|0:0,0:0:0:0:
503,189,97472,1,8,0:0:0:0:
483,157,97558,1,8,0:0:0:0:
501,124,97644,1,8,0:0:0:0:
486,89,97730,1,8,0:0:0:0:
486,89,97815,6,0,P|487:44|478:5,1,85,4|0,0:1|0:0,0:0:0:0:
371,135,98158,2,0,P|371:156|366:185,3,42.5,8|8|8|8,0:0|0:0|0:0|0:0,0:0:0:0:
379,213,98501,6,0,P|337:200|289:199,1,85,4|0,0:1|0:0,0:0:0:0:
190,287,98844,2,0,P|169:290|145:291,3,42.5,8|8|8|8,0:0|0:0|0:0|0:0,0:0:0:0:
113,307,99197,6,0,P|111:255|100:218,1,85,4|0,0:1|0:0,0:0:0:0:
202,122,99539,1,8,0:0:0:0:
189,86,99625,1,8,0:0:0:0:
203,50,99711,1,8,0:0:0:0:
237,31,99797,1,8,0:0:0:0:
237,31,99882,6,0,P|284:27|323:15,1,85,4|0,0:1|0:0,0:0:0:0:
439,85,100225,2,0,P|435:103|433:130,3,42.5,8|8|8|8,0:0|0:0|0:0|0:0,0:0:0:0:
403,151,100568,6,0,P|412:188|414:235,1,85,4|0,0:1|0:0,0:0:0:0:
297,309,100911,2,0,P|275:305|253:304,3,42.5,8|8|8|8,0:0|0:0|0:0|0:0,0:0:0:0:
228,331,101254,6,0,P|190:340|140:338,1,85,4|0,0:1|0:0,0:0:0:0:
42,205,101597,1,8,0:0:0:0:
69,178,101682,1,8,0:0:0:0:
106,184,101768,1,8,0:0:0:0:
133,157,101854,1,8,0:0:0:0:
133,157,101939,6,0,P|134:105|143:70,1,85,4|0,0:1|0:0,0:0:0:0:
248,187,102277,2,0,P|248:207|251:231,3,42.5,8|8|8|8,0:0|0:0|0:0|0:0,0:0:0:0:
281,252,102616,6,0,P|279:303|271:339,1,85,4|0,0:1|0:0,0:0:0:0:
394,201,102955,1,0,3:0:0:0:
299,66,103125,1,8,0:0:0:0:
425,80,103294,5,0,3:0:0:0:
281,158,103464,1,8,0:0:0:0:
191,30,103633,1,8,0:0:0:0:
26,123,103803,5,4,3:1:0:0:
256,192,103888,12,2,110868,0:0:0:0:
256,192,111558,5,4,0:1:0:0:
256,192,111644,12,0,117592,0:0:0:0:
