osu file format v14

[General]
AudioFilename: audio.mp3
AudioLeadIn: 0
PreviewTime: 66097
Countdown: 0
SampleSet: Soft
StackLeniency: 0.4
Mode: 0
LetterboxInBreaks: 0
WidescreenStoryboard: 1

[Editor]
DistanceSpacing: 1.6
BeatDivisor: 4
GridSize: 32
TimelineZoom: 1.5

[Metadata]
Title:Nai Mono Nedari
TitleUnicode:ないものねだり
Artist:KANA-BOON
ArtistUnicode:KANA-BOON
Creator:Nevo
Version:Affection
Source:
Tags:yukiyo agatsu iyiyo nikakis hanasaka yui boruto naruto uzumaki sasuke uchiha sarada kanaboon cut ver version takeki
BeatmapID:1669719
BeatmapSetID:795000

[Difficulty]
HPDrainRate:6
CircleSize:4
OverallDifficulty:9
ApproachRate:9.2
SliderMultiplier:1.7
SliderTickRate:1

[Events]
//Background and Video events
0,0,"borutoaqwer.jpg",0,0
//Break Periods
//Storyboard Layer 0 (Background)
//Storyboard Layer 1 (Fail)
//Storyboard Layer 2 (Pass)
//Storyboard Layer 3 (Foreground)
//Storyboard Sound Samples

[TimingPoints]
465,342.857142857143,4,2,1,40,1,0
5950,-86.9565217391304,4,2,1,40,0,0
11436,344.827586206897,4,2,1,60,1,0
11436,-86.9565217391304,4,2,1,60,0,0
14194,340.909090909091,4,2,1,60,1,0
14194,-86.9565217391304,4,2,1,60,0,0
16579,-86.9565217391304,4,2,1,40,0,0
16921,341.394025604552,4,2,1,40,1,0
18115,-86.9565217391304,4,2,1,40,0,0
22041,357.142857142857,4,2,1,40,1,0
22398,342.857142857143,4,2,1,60,1,0
22398,-100,4,2,1,60,0,0
27883,337.078651685393,4,2,1,60,1,0
29231,345.821325648415,4,2,1,60,1,0
30614,342.857142857143,4,2,1,60,1,0
32671,349.854227405248,4,2,1,60,1,0
33370,342.857142857143,4,2,1,60,1,0
33370,-100,4,2,1,60,0,0
38855,341.880341880342,4,2,1,40,1,0
38855,-100,4,2,1,40,0,0
44328,355.029585798817,4,2,1,40,1,0
45038,331.95020746888,4,2,1,40,1,0
45701,342.857142857143,4,2,1,40,1,0
49815,342.857142857143,4,2,1,40,1,0
58043,-100,4,2,1,60,0,0
59072,-100,4,2,1,60,0,0
59243,-100,4,2,1,65,0,0
59415,-100,4,2,1,70,0,0
59586,-100,4,2,1,80,0,0
59757,326.086956521739,4,2,1,90,1,0
59757,-100,4,2,1,90,0,0
59920,-100,4,2,1,95,0,0
60081,-100,4,2,1,100,0,0
60083,352.941176470588,4,2,1,100,1,0
60788,342.857142857143,4,2,1,80,1,1
60788,-83.3333333333333,4,2,1,80,0,1
71416,368.098159509202,4,2,1,80,1,1
71784,342.857142857143,4,2,1,80,1,1
73841,-83.3333333333333,4,2,1,80,0,1
81384,336.605890603086,4,2,1,80,1,1
81384,-83.3333333333333,4,2,1,80,0,1
82730,342.857142857143,4,2,1,60,1,0
82756,-100,4,2,1,60,0,0
83930,-86.9565217391304,4,2,1,60,0,0
93701,-86.9565217391304,4,2,1,70,0,0
98844,353.982300884956,4,2,1,70,1,0
99197,342.857142857143,4,2,1,80,1,0
99197,-86.9565217391304,4,2,1,80,0,0
99883,-86.9565217391304,4,2,1,80,0,0
101939,338.983050847458,4,2,1,80,1,0
101939,-86.9565217391304,4,2,1,80,0,0
103972,344.827586206897,4,2,1,80,1,0
117075,-100,4,2,1,5,0,0

[Colours]
Combo1 : 192,192,192
Combo2 : 255,244,51
Combo3 : 128,128,255
Combo4 : 185,0,4

[HitObjects]
99,284,465,6,0,L|113:407,2,85,2|2|0,0:0|0:0|0:0,0:0:0:0:
204,194,1150,2,0,L|190:317,2,85,2|2|0,0:0|0:0|0:0,0:0:0:0:
99,104,1836,2,0,L|113:227,2,85,2|2|0,0:0|0:0|0:0,0:0:0:0:
204,14,2522,2,0,L|190:137,2,85,2|2|0,0:0|0:0|0:0,0:0:0:0:
338,173,3207,6,0,P|298:178|248:162,2,85,2|2|0,0:0|0:0|0:0,0:0:0:0:
409,107,3893,2,0,P|450:103|491:114,2,85,2|2|0,0:0|0:0|0:0,0:0:0:0:
440,287,4579,2,0,P|451:246|446:204,2,85,2|2|0,0:0|0:0|0:0,0:0:0:0:
306,90,5265,2,0,P|301:48|312:7,2,85,2|2|0,0:0|0:0|0:0,0:0:0:0:
280,243,5950,6,0,B|226:234|226:234|174:278|102:230,1,146.62500279665,6|0,3:2|0:2,0:2:0:0:
170,173,6293,2,0,L|187:341,1,146.62500279665,4|0,3:2|0:2,0:2:0:0:
189,359,6636,1,6,3:2:0:0:
266,328,6807,1,2,0:2:0:0:
107,335,6979,1,4,3:2:0:0:
107,335,7322,5,6,3:2:0:0:
96,252,7493,1,2,0:2:0:0:
189,359,7665,1,4,3:2:0:0:
189,359,8007,5,6,3:2:0:0:
282,252,8179,1,2,0:2:0:0:
266,328,8350,1,4,3:2:0:0:
266,328,8693,5,6,3:2:0:0:
232,187,8865,1,2,0:2:0:0:
282,252,9036,1,4,3:2:0:0:
282,252,9379,5,6,3:2:0:0:
279,118,9550,1,2,0:2:0:0:
232,187,9722,1,4,3:2:0:0:
232,187,10065,5,6,3:2:0:0:
227,54,10236,1,2,0:2:0:0:
279,118,10407,1,4,3:2:0:0:
279,118,11436,5,4,3:1:0:0:
419,18,11608,1,2,0:0:0:0:
358,142,11780,1,10,0:0:0:0:
429,99,11953,1,2,0:0:0:0:
275,36,12125,1,2,3:2:0:0:
296,197,12298,1,2,0:0:0:0:
354,60,12470,1,10,0:0:0:0:
218,170,12642,6,0,L|113:163,1,97.7500018644333,2|0,0:0|3:0,0:0:0:0:
266,275,12987,2,0,L|363:268,1,97.7500018644333,2|8,0:0|0:0,0:0:0:0:
218,380,13332,2,0,L|120:373,1,97.7500018644333,2|0,0:0|3:0,0:0:0:0:
0,365,13677,1,2,0:0:0:0:
134,293,13849,1,10,0:2:0:0:
0,280,14022,1,2,0:0:0:0:
141,211,14194,6,0,P|195:236|213:276,1,97.7500018644333,2|0,3:2|0:0,0:0:0:0:
56,220,14534,1,10,0:0:0:0:
168,133,14705,1,2,0:0:0:0:
134,293,14875,1,2,3:2:0:0:
86,141,15046,1,2,0:0:0:0:
141,211,15216,1,8,0:0:0:0:
100,44,15387,6,0,L|84:153,1,97.7500018644333,2|0,0:0|3:0,0:0:0:0:
269,91,15728,2,0,L|192:30,1,97.7500018644333,2|8,0:0|0:0,0:0:0:0:
141,211,16069,2,0,L|231:174,1,97.7500018644333,2|0,0:0|3:0,0:0:0:0:
369,103,16409,1,2,0:0:0:0:
429,232,16580,1,8,0:0:0:0:
393,235,16665,1,8,0:0:0:0:
358,226,16750,1,8,0:0:0:0:
330,204,16836,1,8,0:0:0:0:
312,173,16921,5,4,3:1:0:0:
498,162,17091,1,2,0:0:0:0:
340,321,17262,1,10,0:0:0:0:
403,137,17433,1,2,0:0:0:0:
437,331,17603,1,2,3:2:0:0:
429,232,17774,1,2,0:0:0:0:
278,265,17945,1,10,0:0:0:0:
500,281,18115,6,0,P|512:227|472:160,1,97.7500018644333,2|0,0:0|3:0,0:0:0:0:
347,186,18457,2,0,P|387:223|465:222,1,97.7500018644333,2|8,0:0|0:0,0:0:0:0:
502,98,18798,2,0,P|449:114|411:182,1,97.7500018644333,2|0,0:0|3:0,0:0:0:0:
437,331,19140,1,2,0:0:0:0:
498,183,19310,1,10,0:0:0:0:
340,321,19481,1,2,0:2:0:0:
351,103,19652,1,2,3:2:0:0:
428,231,19822,1,2,0:0:0:0:
432,47,19993,5,10,0:0:0:0:
347,186,20164,1,2,0:0:0:0:
354,21,20334,1,2,3:2:0:0:
422,145,20505,1,2,0:0:0:0:
269,141,20676,1,10,0:0:0:0:
338,283,20847,6,0,L|348:164,1,97.7500018644333,2|0,0:0|3:0,0:0:0:0:
261,342,21188,2,0,L|251:223,1,97.7500018644333,2|8,0:0|0:0,0:0:0:0:
419,328,21529,2,0,L|429:209,1,97.7500018644333,2|0,0:0|3:0,0:0:0:0:
438,58,21871,1,0,0:0:0:0:
269,141,22041,1,8,0:0:0:0:
235,155,22130,1,8,0:0:0:0:
200,157,22219,1,8,0:0:0:0:
165,146,22308,1,8,0:0:0:0:
137,123,22398,6,0,L|152:305,1,170,4|8,3:1|0:0,0:0:0:0:
240,334,22912,1,6,0:0:0:0:
64,243,23083,2,0,L|56:158,1,85,2|4,3:2|0:0,0:0:0:0:
145,39,23426,2,0,L|137:123,1,85,8|6,0:0|0:0,0:0:0:0:
110,313,23769,5,2,3:2:0:0:
64,243,23940,1,6,0:0:0:0:
103,331,24112,1,10,0:0:0:0:
197,308,24283,1,4,0:0:0:0:
197,308,24369,1,0,0:0:0:0:
197,308,24455,2,0,L|295:304,1,85,2|4,3:2|0:0,0:0:0:0:
394,300,24798,1,10,0:0:0:0:
333,244,24969,1,6,0:0:0:0:
384,384,25140,6,0,L|396:273,1,85,2|4,3:2|0:0,0:0:0:0:
323,159,25483,2,0,L|335:270,1,85,10|4,0:0|0:0,0:0:0:0:
383,102,25826,2,0,L|393:18,1,85,2|4,3:2|0:0,0:0:0:0:
251,116,26169,1,14,0:2:0:0:
323,159,26340,1,4,0:0:0:0:
262,32,26512,6,0,P|205:46|178:76,1,85,2|4,3:2|0:0,0:0:0:0:
162,225,26855,2,0,P|177:186|173:145,1,85,10|4,0:0|0:0,0:0:0:0:
44,41,27198,2,0,P|69:74|108:90,1,85,2|4,3:2|0:0,0:0:0:0:
251,116,27540,1,8,0:0:0:0:
251,116,27883,6,0,B|322:113|322:113|363:131|363:131|446:126,1,170,2|8,3:2|0:0,0:0:0:0:
376,48,28388,1,6,0:0:0:0:
306,195,28557,2,0,L|198:199,1,85,2|4,3:2|0:0,0:0:0:0:
361,257,28894,2,0,L|445:253,1,85,8|6,0:0|0:0,0:0:0:0:
337,337,29231,5,2,3:2:0:0:
281,275,29403,1,6,0:0:0:0:
417,318,29576,1,10,0:0:0:0:
256,355,29749,1,6,0:0:0:0:
361,257,29922,2,0,P|335:207|281:190,1,85,2|4,3:2|0:0,0:0:0:0:
154,246,30268,1,10,0:0:0:0:
281,275,30441,1,6,0:0:0:0:
110,315,30614,6,0,L|-7:305,1,85,2|4,3:2|0:0,0:0:0:0:
154,246,30956,2,0,P|190:295|186:348,1,85,10|4,0:0|0:0,0:0:0:0:
73,228,31299,2,0,L|83:111,1,85,2|4,3:2|0:0,0:0:0:0:
216,111,31642,2,0,L|223:195,1,85,10|4,0:0|0:0,0:0:0:0:
110,315,31985,6,0,L|179:266,1,85,2|4,3:2|0:0,0:0:0:0:
340,305,32328,2,0,L|263:268,1,85,10|4,0:0|0:0,0:0:0:0:
136,196,32671,1,2,3:2:0:0:
304,197,32845,1,4,0:0:0:0:
168,86,33020,1,8,0:0:0:0:
144,107,33108,1,8,0:0:0:0:
131,135,33195,1,8,0:0:0:0:
128,166,33283,1,8,0:0:0:0:
136,196,33370,5,4,3:1:0:0:
252,86,33541,1,2,0:0:0:0:
103,35,33712,1,10,0:0:0:0:
212,157,33884,1,2,0:0:0:0:
57,104,34055,1,2,3:2:0:0:
168,86,34227,1,2,0:0:0:0:
16,177,34398,1,10,0:0:0:0:
201,239,34570,6,0,L|313:225,1,85,2|0,0:0|3:2,0:0:0:0:
424,301,34912,2,0,L|340:291,1,85,2|8,0:0|0:0,0:0:0:0:
333,161,35255,2,0,L|417:171,1,85,2|0,0:0|3:2,0:0:0:0:
285,228,35598,1,2,0:0:0:0:
290,90,35770,1,10,0:0:0:0:
333,161,35941,1,2,0:0:0:0:
339,24,36112,6,0,P|279:9|236:28,1,85,2|0,3:2|0:0,0:0:0:0:
130,114,36455,1,10,0:0:0:0:
290,90,36627,1,2,0:0:0:0:
160,36,36798,1,2,3:2:0:0:
178,181,36970,1,2,0:0:0:0:
241,24,37141,1,8,0:0:0:0:
260,168,37312,6,0,L|277:281,1,85,2|0,0:0|3:2,0:0:0:0:
153,347,37655,2,0,L|166:263,1,85,2|8,0:0|0:0,0:0:0:0:
342,174,37998,2,0,L|359:287,1,85,2|0,0:0|3:2,0:0:0:0:
377,363,38341,1,2,0:0:0:0:
272,252,38512,1,8,0:0:0:0:
245,235,38598,1,8,0:0:0:0:
215,225,38684,1,8,0:0:0:0:
184,223,38770,1,8,0:0:0:0:
153,227,38855,6,0,B|104:253|54:234|73:220|22:205|-19:226,1,170,4|8,3:1|0:0,0:0:0:0:
20,299,39367,1,6,0:0:0:0:
109,158,39538,2,0,L|122:43,1,85,2|4,3:2|0:0,0:0:0:0:
29,185,39880,1,10,0:0:0:0:
153,227,40051,1,6,0:0:0:0:
46,16,40222,6,0,L|37:101,1,85,2|6,3:2|0:0,0:0:0:0:
21,268,40564,1,10,0:0:0:0:
109,158,40735,1,6,0:0:0:0:
143,311,40906,2,0,L|152:226,1,85,2|4,3:2|0:0,0:0:0:0:
171,83,41248,1,10,0:0:0:0:
109,158,41419,1,6,0:0:0:0:
245,148,41590,6,0,L|330:139,1,85,2|4,3:2|0:0,0:0:0:0:
473,223,41931,2,0,L|388:214,1,85,10|4,0:0|0:0,0:0:0:0:
240,296,42273,2,0,L|325:287,1,85,2|4,3:2|0:0,0:0:0:0:
173,245,42615,1,10,0:0:0:0:
164,329,42786,1,4,0:0:0:0:
248,214,42957,6,0,L|333:205,1,85,2|4,3:2|0:0,0:0:0:0:
240,64,43299,2,0,L|206:143,1,85,10|6,0:0|0:0,0:0:0:0:
372,132,43641,1,2,3:2:0:0:
339,42,43812,1,8,0:0:0:0:
240,64,43983,1,4,3:2:0:0:
436,57,44154,1,8,0:0:0:0:
248,148,44328,6,0,L|239:63,1,85,4|4,3:1|0:0,0:0:0:0:
89,14,44683,1,8,0:0:0:0:
160,57,44860,1,6,0:0:0:0:
141,223,45038,2,0,L|150:138,1,85,2|4,3:2|0:0,0:0:0:0:
60,234,45369,1,8,0:0:0:0:
191,288,45535,1,6,0:0:0:0:
68,149,45701,6,0,L|59:234,1,85,2|6,3:2|0:0,0:0:0:0:
44,364,46043,1,10,0:0:0:0:
191,288,46215,1,6,0:0:0:0:
191,288,46301,1,0,0:0:0:0:
191,288,46386,2,0,L|276:297,1,85,2|0,3:2|0:0,0:0:0:0:
434,322,46729,1,10,0:0:0:0:
344,228,46901,1,6,0:0:0:0:
344,228,46986,1,0,0:0:0:0:
344,228,47072,6,0,L|353:313,1,85,2|6,3:2|0:0,0:0:0:0:
455,155,47415,2,0,L|446:240,1,85,10|6,0:0|0:0,0:0:0:0:
344,60,47758,2,0,L|353:145,1,85,2|6,3:2|0:0,0:0:0:0:
512,4,48101,1,10,0:0:0:0:
412,8,48272,1,6,0:0:0:0:
455,155,48443,6,0,L|464:70,1,85,2|6,3:2|0:0,0:0:0:0:
352,144,48786,1,10,0:0:0:0:
446,239,48958,1,6,0:0:0:0:
334,227,49129,1,2,3:2:0:0:
455,155,49301,1,6,0:0:0:0:
381,313,49472,1,8,0:0:0:0:
339,321,49558,1,8,0:0:0:0:
298,312,49643,1,8,0:0:0:0:
263,288,49729,1,8,0:0:0:0:
241,252,49815,6,0,L|108:256,1,127.5,4|0,3:1|0:0,0:0:0:0:
87,271,50157,2,0,P|78:223|98:181,1,85,2|0,3:2|0:0,0:0:0:0:
194,167,50500,2,0,L|321:163,1,127.5,0|0,3:0|0:0,0:0:0:0:
344,178,50843,1,2,3:2:0:0:
149,81,51015,1,0,0:0:0:0:
149,81,51100,1,0,0:0:0:0:
149,81,51186,6,0,B|118:116|118:116|120:235,1,127.5,4|0,3:1|0:0,0:0:0:0:
103,227,51529,2,0,L|107:318,1,85,2|0,3:2|0:0,0:0:0:0:
216,368,51872,2,0,L|343:371,1,127.5,0|0,3:0|0:0,0:0:0:0:
366,357,52215,1,2,3:2:0:0:
459,207,52386,1,0,0:0:0:0:
459,207,52472,1,0,0:0:0:0:
459,207,52557,6,0,B|424:176|424:176|305:178,1,127.5,4|0,3:1|0:0,0:0:0:0:
313,161,52900,2,0,L|222:165,1,85,2|0,3:2|0:0,0:0:0:0:
344,85,53243,2,0,L|428:81,1,85,0|0,3:0|0:0,0:0:0:0:
294,19,53586,1,2,3:2:0:0:
262,94,53757,1,0,0:0:0:0:
127,24,53929,6,0,L|212:28,1,85,4|0,3:1|0:0,0:0:0:0:
228,164,54272,2,0,L|143:160,1,85,2|0,3:2|0:0,0:0:0:0:
262,94,54615,2,0,L|346:97,1,85,0|0,3:0|0:0,0:0:0:0:
468,106,54957,1,2,3:2:0:0:
410,234,55129,1,0,0:0:0:0:
410,234,55215,1,0,0:0:0:0:
410,234,55300,6,0,P|345:196|274:221,1,127.5,4|0,3:1|0:0,0:0:0:0:
233,256,55643,2,0,P|182:276|129:256,1,85,2|0,3:2|0:0,0:0:0:0:
73,199,55986,2,0,L|57:296,1,85,0|0,3:0|0:0,0:0:0:0:
202,357,56329,1,2,3:2:0:0:
181,190,56500,1,0,0:0:0:0:
181,190,56586,1,0,0:0:0:0:
181,190,56672,6,0,L|167:106,1,85,4|0,3:1|0:0,0:0:0:0:
264,42,57015,2,0,L|250:125,1,85,2|0,3:2|0:0,0:0:0:0:
82,110,57357,2,0,L|95:26,1,85,0|0,3:0|0:0,0:0:0:0:
181,190,57700,5,8,0:2:0:0:
181,190,58043,6,0,B|235:186|235:186|259:201|259:201|329:196,1,127.5,4|0,0:1|0:0,0:0:0:0:
331,214,58386,5,0,3:0:0:0:
213,270,58557,1,0,0:0:0:0:
275,117,58729,5,0,3:0:0:0:
344,295,58900,1,0,0:0:0:0:
370,89,59072,5,0,3:0:0:0:
181,190,59243,1,0,0:0:0:0:
231,30,59415,5,8,3:2:0:0:
331,214,59586,1,8,0:0:0:0:
380,0,59757,1,8,0:0:0:0:
418,17,59838,1,8,0:0:0:0:
446,49,59920,1,8,0:0:0:0:
459,89,60001,1,8,0:0:0:0:
455,131,60083,5,8,0:0:0:0:
455,131,60788,5,4,3:1:0:0:
189,106,60959,1,6,0:2:0:0:
461,214,61130,5,10,0:2:0:0:
164,186,61302,1,6,0:2:0:0:
450,297,61473,5,2,3:2:0:0:
137,265,61645,1,6,0:2:0:0:
429,376,61816,5,10,0:2:0:0:
112,345,61988,1,6,0:2:0:0:
283,93,62159,5,2,3:2:0:0:
312,353,62330,1,6,0:2:0:0:
374,67,62502,1,10,0:2:0:0:
252,285,62673,1,6,0:2:0:0:
189,106,62845,2,0,P|192:59|231:10,1,101.999996887207,2|4,3:2|0:0,0:0:0:0:
344,169,63188,2,0,P|301:189|239:180,1,101.999996887207,10|4,0:2|0:0,0:0:0:0:
315,11,63530,6,0,L|455:0,1,101.999996887207,2|4,3:2|0:2,0:2:0:0:
189,106,63873,2,0,L|87:98,1,101.999996887207,10|4,0:2|0:2,0:2:0:0:
315,201,64216,2,0,L|416:193,1,101.999996887207,2|4,3:2|0:2,0:2:0:0:
189,296,64559,2,0,L|87:288,1,101.999996887207,10|4,0:2|0:2,0:2:0:0:
237,31,64902,6,0,P|278:82|279:128,1,101.999996887207,2|4,3:2|0:2,0:2:0:0:
136,186,65245,2,0,P|159:124|199:101,1,101.999996887207,10|4,0:2|0:2,0:2:0:0:
321,196,65588,2,0,P|256:206|215:183,1,101.999996887207,2|4,3:2|0:2,0:2:0:0:
368,111,65930,1,8,0:2:0:0:
404,145,66016,1,8,0:2:0:0:
419,193,66102,1,8,0:2:0:0:
407,242,66188,1,8,0:2:0:0:
372,279,66273,5,4,3:1:0:0:
293,64,66445,1,6,0:2:0:0:
302,341,66616,5,10,0:2:0:0:
368,111,66788,1,6,0:2:0:0:
391,375,66959,5,2,3:2:0:0:
219,110,67130,1,6,0:2:0:0:
211,373,67302,5,10,0:2:0:0:
293,64,67473,1,6,0:2:0:0:
84,239,67645,5,2,3:2:0:0:
321,196,67816,1,6,0:2:0:0:
106,140,67988,1,10,0:2:0:0:
232,293,68159,1,6,0:2:0:0:
121,39,68330,2,0,L|105:139,1,101.999996887207,2|4,3:2|0:2,0:2:0:0:
321,196,68673,2,0,L|305:95,1,101.999996887207,10|4,0:2|0:2,0:2:0:0:
138,276,69016,6,0,P|180:300|246:283,1,101.999996887207,2|4,3:2|0:2,0:2:0:0:
284,17,69359,2,0,P|242:41|223:107,1,101.999996887207,10|4,0:2|0:2,0:2:0:0:
435,272,69702,2,0,P|434:223|387:174,1,101.999996887207,2|4,3:2|0:2,0:2:0:0:
121,39,70045,1,8,0:2:0:0:
121,39,70388,6,0,L|132:165,1,101.999996887207,10|12,0:2|0:2,0:2:0:0:
351,18,70730,2,0,L|340:144,1,101.999996887207,2|4,3:2|3:2,0:2:0:0:
31,3,71073,2,0,L|42:129,1,101.999996887207,14|4,0:2|3:2,0:2:0:0:
185,296,71416,1,8,0:2:0:0:
201,248,71508,1,8,0:2:0:0:
196,197,71600,1,8,0:2:0:0:
170,154,71692,1,8,0:2:0:0:
128,126,71784,5,4,3:1:0:0:
25,368,71955,1,6,0:2:0:0:
53,68,72126,5,10,0:2:0:0:
185,296,72298,1,6,0:2:0:0:
201,59,72469,5,2,3:2:0:0:
8,270,72641,1,6,0:2:0:0:
123,0,72812,5,10,0:2:0:0:
270,253,72984,1,6,0:2:0:0:
0,159,73155,5,2,3:2:0:0:
333,138,73326,1,6,0:2:0:0:
99,320,73498,1,10,0:2:0:0:
201,59,73669,1,6,0:2:0:0:
334,326,73841,2,0,L|460:310,1,101.999996887207,2|4,3:2|0:2,0:2:0:0:
496,73,74184,2,0,L|394:60,1,101.999996887207,10|4,0:2|0:2,0:2:0:0:
214,227,74526,6,0,P|290:166|296:121,1,101.999996887207,2|4,3:2|0:2,0:2:0:0:
83,84,74869,2,0,P|97:180|133:208,1,101.999996887207,10|4,0:2|0:2,0:2:0:0:
272,42,75212,2,0,P|181:6|139:23,1,101.999996887207,2|4,3:2|0:2,0:2:0:0:
3,145,75555,1,10,0:2:0:0:
196,102,75726,1,4,0:2:0:0:
5,246,75898,6,0,L|2:117,1,101.999996887207,2|4,3:2|0:2,0:2:0:0:
185,292,76241,2,0,L|188:163,1,101.999996887207,10|4,0:2|0:2,0:2:0:0:
76,384,76584,2,0,L|73:255,1,101.999996887207,2|4,3:2|0:2,0:2:0:0:
196,102,76926,1,8,0:2:0:0:
244,112,77012,1,8,0:2:0:0:
280,147,77098,1,8,0:2:0:0:
294,196,77184,1,8,0:2:0:0:
281,244,77269,5,4,3:1:0:0:
1,297,77441,1,6,0:2:0:0:
280,147,77612,5,10,0:2:0:0:
0,199,77784,1,6,0:2:0:0:
285,49,77955,5,2,3:2:0:0:
0,101,78126,1,6,0:2:0:0:
281,244,78298,5,10,0:2:0:0:
1,297,78469,1,6,0:2:0:0:
191,14,78641,5,2,3:2:0:0:
179,310,78812,1,6,0:2:0:0:
78,12,78984,1,10,0:2:0:0:
281,244,79155,1,6,0:2:0:0:
0,101,79326,2,0,L|122:88,1,101.999996887207,2|4,3:2|0:2,0:2:0:0:
208,202,79669,2,0,L|86:189,1,101.999996887207,10|4,0:2|0:2,0:2:0:0:
162,14,80012,6,0,P|192:63|191:111,1,101.999996887207,2|4,3:2|0:2,0:2:0:0:
81,277,80355,1,8,0:2:0:0:
101,90,80526,1,6,0:2:0:0:
281,244,80698,2,0,L|403:231,1,101.999996887207,2|4,3:2|0:2,0:2:0:0:
263,24,81041,2,0,L|161:13,1,101.999996887207,10|4,0:2|0:2,0:2:0:0:
310,160,81384,6,0,B|400:153|400:153|439:174|439:174|520:168,1,203.999993774414,2|8,3:2|0:2,0:2:0:0:
457,91,81888,1,4,0:2:0:0:
382,233,82057,1,0,3:2:0:0:
377,66,82225,1,4,0:2:0:0:
464,254,82393,1,8,0:2:0:0:
435,295,82477,1,8,0:2:0:0:
388,314,82562,1,8,0:2:0:0:
339,305,82646,1,8,0:2:0:0:
302,271,82730,5,4,3:1:0:0:
442,377,82901,1,2,0:0:0:0:
382,233,83072,1,10,0:0:0:0:
512,323,83244,1,2,0:0:0:0:
322,384,83415,1,2,3:2:0:0:
311,191,83587,1,2,0:0:0:0:
388,314,83758,1,10,0:0:0:0:
227,219,83930,6,0,L|122:226,1,97.7500018644333,2|0,0:0|3:0,0:0:0:0:
275,114,84272,2,0,L|372:121,1,97.7500018644333,2|8,0:0|0:0,0:0:0:0:
227,9,84615,2,0,L|129:16,1,97.7500018644333,2|0,0:0|3:0,0:0:0:0:
9,24,84958,1,2,0:0:0:0:
143,96,85130,1,10,0:0:0:0:
9,109,85301,1,2,0:0:0:0:
150,178,85472,6,0,P|204:153|222:113,1,97.7500018644333,2|0,3:2|0:0,0:0:0:0:
65,169,85815,1,10,0:0:0:0:
177,256,85987,1,2,0:0:0:0:
143,96,86158,1,2,3:2:0:0:
95,248,86330,1,2,0:0:0:0:
150,178,86501,1,8,0:0:0:0:
109,345,86672,6,0,L|93:236,1,97.7500018644333,2|0,0:0|3:0,0:0:0:0:
278,298,87015,2,0,L|201:359,1,97.7500018644333,2|8,0:0|0:0,0:0:0:0:
150,178,87358,2,0,L|240:215,1,97.7500018644333,2|0,0:0|3:0,0:0:0:0:
378,286,87701,1,2,0:0:0:0:
438,157,87872,1,8,0:0:0:0:
402,154,87958,1,8,0:0:0:0:
367,163,88044,1,8,0:0:0:0:
339,185,88130,1,8,0:0:0:0:
321,216,88215,5,4,3:1:0:0:
507,227,88387,1,2,0:0:0:0:
349,68,88558,1,10,0:0:0:0:
412,252,88730,1,2,0:0:0:0:
446,58,88901,1,2,3:2:0:0:
438,157,89072,1,2,0:0:0:0:
287,124,89244,1,10,0:0:0:0:
509,112,89415,6,0,P|521:166|481:233,1,97.7500018644333,2|0,0:0|3:0,0:0:0:0:
356,203,89758,2,0,P|396:166|474:167,1,97.7500018644333,2|8,0:0|0:0,0:0:0:0:
511,291,90101,2,0,P|458:275|420:207,1,97.7500018644333,2|0,0:0|3:0,0:0:0:0:
446,58,90444,1,2,0:0:0:0:
507,206,90615,1,10,0:0:0:0:
349,68,90787,1,2,0:0:0:0:
360,286,90958,5,4,3:1:0:0:
437,158,91130,1,2,0:0:0:0:
441,342,91301,1,10,0:0:0:0:
356,203,91472,1,2,0:0:0:0:
363,368,91644,1,2,3:2:0:0:
431,244,91815,1,2,0:0:0:0:
278,248,91987,1,10,0:0:0:0:
347,106,92158,6,0,L|357:225,1,97.7500018644333,2|0,0:0|3:0,0:0:0:0:
270,47,92501,2,0,L|260:166,1,97.7500018644333,2|8,0:0|0:0,0:0:0:0:
428,61,92844,2,0,L|438:180,1,97.7500018644333,2|0,0:0|3:0,0:0:0:0:
447,331,93187,1,0,0:0:0:0:
278,248,93358,1,8,0:0:0:0:
244,234,93444,1,8,0:0:0:0:
209,232,93530,1,8,0:0:0:0:
174,243,93615,1,8,0:0:0:0:
146,266,93701,6,0,L|156:141,1,97.7500018644333,4|0,0:1|0:0,0:0:0:0:
164,32,94044,1,8,0:0:0:0:
193,17,94130,1,8,0:0:0:0:
225,12,94215,1,8,0:0:0:0:
257,17,94301,1,8,0:0:0:0:
285,34,94387,6,0,L|274:168,1,97.7500018644333,4|0,0:1|0:0,0:0:0:0:
146,266,94730,1,8,0:0:0:0:
117,281,94815,1,8,0:0:0:0:
85,286,94901,1,8,0:0:0:0:
53,281,94987,1,8,0:0:0:0:
25,264,95072,6,0,L|36:130,1,97.7500018644333,4|0,0:1|0:0,0:0:0:0:
48,41,95415,2,8,L|-22:53,3,48.8750009322167
127,17,95758,6,0,L|260:28,1,97.7500018644333,4|0,0:1|0:0,0:0:0:0:
372,58,96101,2,8,L|442:70,3,48.8750009322167
306,110,96444,6,0,L|172:121,1,97.7500018644333,4|0,0:1|0:0,0:0:0:0:
71,139,96787,2,8,L|1:151,3,48.8750009322167
137,191,97130,6,0,L|270:202,1,97.7500018644333,4|0,0:1|0:0,0:0:0:0:
382,234,97472,2,8,L|452:246,3,48.8750009322167
317,281,97815,6,0,L|183:292,1,97.7500018644333,4|0,0:1|0:0,0:0:0:0:
72,324,98158,2,8,L|2:336,3,48.8750009322167
148,365,98501,6,0,L|281:376,1,97.7500018644333,4|0,0:1|0:0,0:0:0:0:
400,384,98844,1,8,0:0:0:0:
420,354,98932,1,8,0:0:0:0:
430,319,99020,1,8,0:0:0:0:
429,283,99109,1,8,0:0:0:0:
418,249,99197,6,0,P|400:194|417:133,1,97.7500018644333,4|0,0:1|0:0,0:0:0:0:
485,41,99539,1,8,0:0:0:0:
456,61,99625,1,8,0:0:0:0:
421,71,99711,1,8,0:0:0:0:
385,70,99797,1,8,0:0:0:0:
351,59,99882,6,0,P|295:40|234:57,1,97.7500018644333,4|0,0:1|0:0,0:0:0:0:
109,145,100225,1,8,0:0:0:0:
138,165,100311,1,8,0:0:0:0:
173,175,100397,1,8,0:0:0:0:
209,174,100482,1,8,0:0:0:0:
243,163,100568,6,0,P|298:144|359:161,1,97.7500018644333,4|0,0:1|0:0,0:0:0:0:
485,249,100911,1,8,0:0:0:0:
456,269,100997,1,8,0:0:0:0:
421,279,101082,1,8,0:0:0:0:
385,278,101168,1,8,0:0:0:0:
351,267,101254,6,0,P|295:248|234:265,1,97.7500018644333,4|0,0:1|0:0,0:0:0:0:
109,353,101597,1,8,0:0:0:0:
138,373,101682,1,8,0:0:0:0:
173,383,101768,1,8,0:0:0:0:
209,382,101854,1,8,0:0:0:0:
243,371,101939,6,0,P|298:352|359:369,1,97.7500018644333,4|0,0:1|0:0,0:0:0:0:
184,302,102277,1,8,0:0:0:0:
166,270,102362,1,8,0:0:0:0:
156,235,102447,1,8,0:0:0:0:
157,199,102532,1,8,0:0:0:0:
167,165,102616,6,0,P|207:99|145:3,1,195.500003728867,4|0,0:1|3:0,0:0:0:0:
7,174,103125,1,8,0:0:0:0:
252,228,103294,5,0,3:0:0:0:
119,89,103464,1,8,0:0:0:0:
67,295,103633,1,8,0:0:0:0:
16,6,103803,5,4,3:1:0:0:
256,192,103888,12,2,110868,0:0:0:0:
273,130,111558,5,4,0:1:0:0:
256,192,111644,12,0,117592,0:0:0:0:
