osu file format v14

[General]
AudioFilename: audio.mp3
AudioLeadIn: 0
PreviewTime: 60792
Countdown: 0
SampleSet: Soft
StackLeniency: 0.5
Mode: 0
LetterboxInBreaks: 0
WidescreenStoryboard: 1

[Editor]
DistanceSpacing: 0.8
BeatDivisor: 4
GridSize: 32
TimelineZoom: 3.199999

[Metadata]
Title:Nai Mono Nedari
TitleUnicode:ないものねだり
Artist:KANA-BOON
ArtistUnicode:KANA-BOON
Creator:Fatfan Kolek
Version:YURAYURA YURAYURA
Source:
Tags:kanaboon kana boon japanese cut ver version square
BeatmapID:2179560
BeatmapSetID:1041915

[Difficulty]
HPDrainRate:5.5
CircleSize:4.1
OverallDifficulty:8.5
ApproachRate:9.2
SliderMultiplier:1.7
SliderTickRate:1

[Events]
//Background and Video events
0,0,"sasuke wp.jpg",0,0
//Break Periods
//Storyboard Layer 0 (Background)
//Storyboard Layer 1 (Fail)
//Storyboard Layer 2 (Pass)
//Storyboard Layer 3 (Foreground)
//Storyboard Layer 4 (Overlay)
//Storyboard Sound Samples

[TimingPoints]
526,342.857142857143,4,2,1,40,1,0
611,-100,4,2,1,5,0,0
697,-66.6666666666667,4,2,1,40,0,0
1211,-100,4,2,1,40,0,0
1297,-100,4,2,1,5,0,0
1383,-66.6666666666667,4,2,1,40,0,0
1897,-100,4,2,1,40,0,0
1983,-100,4,2,1,5,0,0
2068,-66.6666666666667,4,2,1,40,0,0
2583,-100,4,2,1,40,0,0
2668,-100,4,2,1,5,0,0
2754,-66.6666666666667,4,2,1,40,0,0
3268,-100,4,2,1,40,0,0
3354,-100,4,2,1,5,0,0
3440,-66.6666666666667,4,2,1,40,0,0
3954,-100,4,2,1,40,0,0
4040,-100,4,2,1,5,0,0
4126,-66.6666666666667,4,2,1,40,0,0
4640,-100,4,2,1,40,0,0
4726,-100,4,2,1,5,0,0
4811,-66.6666666666667,4,2,1,40,0,0
5326,-100,4,2,1,40,0,0
5411,-100,4,2,1,5,0,0
5497,-66.6666666666667,4,2,1,40,0,0
6268,-66.6666666666667,4,2,1,5,0,0
6354,-222.222222222221,4,2,1,40,0,0
7383,-133.333333333333,4,2,1,40,0,0
8754,-86.9565217391303,4,2,1,40,0,0
9011,-86.9565217391303,4,2,1,5,0,0
9097,-80,4,2,1,50,0,0
9354,-80,4,2,1,5,0,0
9440,-74.0740740740741,4,2,1,60,0,0
9697,-74.0740740740741,4,2,1,5,0,0
9783,-68.9655172413793,4,2,1,70,0,0
10040,-68.9655172413793,4,2,1,5,0,0
10126,-64.5161290322581,4,2,1,80,0,0
10383,-64.5161290322581,4,2,1,5,0,0
10447,342.857142857143,4,2,1,80,1,0
10447,-64.5161290322581,4,2,1,80,0,0
11497,342.368045649073,4,2,1,60,1,0
11497,-100,4,2,1,60,0,0
22452,342.857142857143,4,2,1,60,1,0
22452,-100,4,2,1,60,0,0
22794,-125,4,2,1,60,0,0
27937,336.134453781513,4,2,1,60,1,0
27937,-100,4,2,1,60,0,0
28280,-125,4,2,1,60,0,0
29281,349.344978165939,4,2,1,60,1,0
30154,-125,4,2,1,60,0,0
30680,342.857142857143,4,2,1,60,1,0
30680,-100,4,2,1,60,0,0
31194,-100,4,2,11,60,0,0
33423,-100,4,2,1,60,0,0
39252,-125,4,2,1,60,0,0
43023,-125,4,2,11,60,0,0
44394,-100,4,2,1,60,0,0
45766,-125,4,2,1,60,0,0
47137,-100,4,2,11,60,0,0
49194,-49.5049504950495,4,2,1,60,0,0
49880,-181.818181818181,4,2,1,60,0,0
58108,340.425531914894,4,2,1,70,1,0
58108,-50,4,2,1,70,0,0
58452,-133.333333333333,4,2,1,70,0,0
58794,-100,4,2,1,70,0,0
59137,-80,4,2,1,70,0,0
59469,-50,4,2,1,70,0,0
59737,-50,4,2,1,5,0,0
59807,342.857142857143,4,2,1,80,1,0
60835,343.24942791762,4,2,1,80,1,1
60835,-50,4,2,1,80,0,1
62894,-80,4,2,1,80,0,1
71132,-60.6060606060606,4,2,1,80,0,1
71389,-60.6060606060606,4,2,1,5,0,1
71475,-60.6060606060606,4,2,1,80,0,1
71818,-60.6060606060606,4,2,2,80,0,1
73878,-80,4,2,2,80,0,1
81429,339.366515837104,4,2,2,80,1,1
81429,-80,4,2,2,80,0,1
82373,-80,4,2,1,5,0,1
82447,342.368045649073,4,2,1,60,1,1
82789,342.368045649073,4,2,1,60,1,0
92888,352.941176470588,4,2,1,60,1,0
93770,342.857142857143,4,2,1,60,1,0
93770,-80,4,2,1,60,0,0
98906,-80,4,2,1,60,0,0
99249,-74.0740740740741,4,2,1,70,0,0
101998,340.909090909091,4,2,1,80,1,0
101998,-66.6666666666667,4,2,1,80,0,0
103016,-100,4,2,1,80,0,0
103872,345.323741007194,4,2,1,80,1,0
111611,342.857142857143,4,2,1,80,1,0
111611,-123.456790123457,4,2,1,80,0,0
117696,-133.333333333333,4,2,1,5,0,0

[Colours]
Combo1 : 255,211,193
Combo2 : 255,146,94

[HitObjects]
116,325,526,6,0,L|190:338,1,42.5,2|0,0:0|0:0,0:0:0:0:
144,246,697,2,0,L|14:268,1,127.500004863739,2|0,0:0|0:0,0:0:0:0:
265,271,1211,6,0,L|191:284,1,42.5,2|0,0:0|0:0,0:0:0:0:
237,192,1383,2,0,L|366:214,1,127.500004863739,2|0,0:0|0:0,0:0:0:0:
119,164,1897,6,0,L|193:177,1,42.5,2|0,0:0|0:0,0:0:0:0:
147,85,2068,2,0,L|17:107,1,127.500004863739,2|0,0:0|0:0,0:0:0:0:
268,110,2583,6,0,L|194:123,1,42.5,2|0,0:0|0:0,0:0:0:0:
240,31,2754,2,0,L|369:53,1,127.500004863739,2|0,0:0|0:0,0:0:0:0:
357,240,3268,6,0,P|346:221|343:200,1,42.5,2|0,0:0|0:0,0:0:0:0:
448,141,3440,2,0,P|480:193|460:251,1,127.500004863739,2|0,0:0|0:0,0:0:0:0:
306,351,3954,6,0,P|316:332|319:311,1,42.5,2|0,0:0|0:0,0:0:0:0:
215,252,4126,2,0,P|182:304|202:362,1,127.500004863739,2|0,0:0|0:0,0:0:0:0:
266,141,4640,6,0,P|255:122|252:101,1,42.5,2|0,0:0|0:0,0:0:0:0:
357,42,4811,2,0,P|389:94|369:152,1,127.500004863739,2|0,0:0|0:0,0:0:0:0:
215,252,5326,6,0,P|225:233|228:212,1,42.5,2|0,0:0|0:0,0:0:0:0:
124,153,5497,2,0,P|91:205|111:263,1,127.500004863739,2|0,0:0|0:0,0:0:0:0:
416,357,6011,6,0,P|434:291|328:235,1,191.250007295609,4|0,3:2|0:0,0:0:0:0:
322,241,6354,2,0,P|322:262|318:285,1,38.2499988327027,0|0,3:0|0:0,0:0:0:0:
247,250,6697,2,0,P|247:271|243:294,1,38.2499988327027,0|0,3:0|0:0,0:0:0:0:
172,259,7040,2,0,P|172:281|168:303,1,38.2499988327027,0|0,3:0|0:0,0:0:0:0:
91,197,7383,6,0,P|68:174|62:134,1,63.7500024318696,0|0,3:0|0:0,0:0:0:0:
128,111,7726,2,0,P|151:134|157:174,1,63.7500024318696,0|0,3:0|0:0,0:0:0:0:
171,276,8068,6,0,P|148:299|142:339,1,63.7500024318696,0|0,3:0|0:0,0:0:0:0:
208,362,8411,2,0,P|231:339|237:299,1,63.7500024318696,0|0,3:0|0:0,0:0:0:0:
361,307,8754,6,0,P|324:267|349:171,1,146.62500279665,2|0,3:2|0:0,0:0:0:0:
367,112,9097,2,0,P|339:168|230:179,1,159.375,2|0,3:2|0:0,0:0:0:0:
181,252,9440,2,0,P|117:200|122:117,1,172.125000656605,2|0,3:2|0:0,0:0:0:0:
99,21,9783,2,0,P|155:89|244:85,1,184.875005641937,2|0,3:2|0:0,0:0:0:0:
403,33,10126,2,0,P|390:127|309:177,1,197.625001507759,2|0,3:2|0:0,0:0:0:0:
194,138,10447,5,4,0:0:0:0:
352,344,11497,5,6,0:0:0:0:
401,248,11668,1,2,0:0:0:0:
352,344,11839,5,10,0:0:0:0:
316,192,12010,1,2,0:0:0:0:
352,344,12181,5,2,0:0:0:0:
411,137,12352,1,0,0:0:0:0:
352,344,12524,5,8,0:0:0:0:
316,192,12695,2,0,L|213:183,1,85,2|0,0:0|0:0,0:0:0:0:
401,248,13037,2,0,L|503:240,1,85,2|8,0:0|0:0,0:0:0:0:
415,84,13380,2,0,B|420:147|420:147|397:184|397:184|401:248,1,170,2|2,0:0|0:0,0:0:0:0:
414,347,13893,1,10,0:0:0:0:
414,347,14064,1,2,0:0:0:0:
244,362,14235,6,0,L|236:260,1,85,0|0,0:0|0:0,0:0:0:0:
178,116,14578,1,10,0:0:0:0:
143,326,14749,1,2,0:0:0:0:
174,133,14920,1,2,0:0:0:0:
147,306,15091,1,0,0:0:0:0:
91,176,15263,1,8,0:0:0:0:
263,130,15434,6,0,L|347:123,1,85,2|0,0:0|0:0,0:0:0:0:
409,276,15776,2,0,L|416:192,1,85,2|8,0:0|0:0,0:0:0:0:
298,19,16118,2,0,L|313:212,1,170,2|0,0:0|0:0,0:0:0:0:
322,315,16632,1,8,0:0:0:0:
292,313,16718,1,8,0:0:0:0:
262,311,16803,1,8,0:0:0:0:
232,309,16889,1,8,0:0:0:0:
202,306,16974,5,6,0:0:0:0:
106,257,17146,1,2,0:0:0:0:
202,306,17317,5,10,0:0:0:0:
50,342,17488,1,2,0:0:0:0:
202,306,17659,5,0,0:0:0:0:
1,250,17830,1,0,0:0:0:0:
202,306,18001,5,8,0:0:0:0:
100,136,18173,2,0,L|93:52,1,85,2|0,0:0|0:0,0:0:0:0:
113,274,18515,2,0,L|120:358,1,85,2|8,0:0|0:0,0:0:0:0:
11,153,18857,2,0,B|74:148|74:148|111:171|111:171|175:167,1,170,2|2,0:0|0:0,0:0:0:0:
291,153,19371,1,10,0:0:0:0:
291,153,19542,1,2,0:0:0:0:
233,18,19713,6,0,L|226:102,1,85,0|0,0:0|0:0,0:0:0:0:
369,210,20056,1,10,0:0:0:0:
143,248,20227,1,2,0:0:0:0:
348,215,20398,1,2,0:0:0:0:
163,244,20569,1,0,0:0:0:0:
304,303,20740,1,8,0:0:0:0:
324,120,20912,6,0,L|408:127,1,85,2|0,0:0|0:0,0:0:0:0:
304,303,21254,2,0,L|220:296,1,85,2|8,0:0|0:0,0:0:0:0:
287,42,21596,2,0,L|477:57,1,170,2|0,0:0|0:0,0:0:0:0:
497,193,22110,1,8,0:0:0:0:
467,196,22196,1,8,0:0:0:0:
437,198,22281,1,8,0:0:0:0:
407,200,22367,1,8,0:0:0:0:
376,202,22452,6,0,P|308:192|251:113,1,170,4|8,0:0|0:0,0:0:0:0:
251,30,22966,1,0,0:0:0:0:
81,43,23137,2,0,P|88:77|112:107,1,68,0|0,0:0|0:0,0:0:0:0:
114,193,23480,2,0,P|147:201|185:191,1,68,8|0,0:0|0:0,0:0:0:0:
248,80,23823,5,0,0:0:0:0:
333,100,23994,1,0,0:0:0:0:
419,121,24166,1,8,0:0:0:0:
319,210,24337,1,0,3:0:0:0:
321,220,24423,1,0,3:0:0:0:
323,230,24509,1,0,3:0:0:0:
388,302,24680,2,0,P|421:298|450:277,2,68,2|8|2,0:0|0:0|0:0,0:0:0:0:
310,358,25194,6,0,P|262:335|229:292,1,102,0|0,0:0|0:0,0:0:0:0:
157,317,25537,2,0,P|154:283|167:253,1,68,8|0,0:0|0:0,0:0:0:0:
85,155,25880,6,0,P|128:125|181:118,1,102,0|0,0:0|0:0,0:0:0:0:
197,43,26223,2,0,P|227:57|247:84,1,68,8|0,0:0|0:0,0:0:0:0:
372,62,26566,6,0,P|377:115|356:164,1,102,0|0,0:0|0:0,0:0:0:0:
413,215,26909,2,0,P|386:234|353:238,1,68,8|0,0:0|0:0,0:0:0:0:
339,236,27166,1,0,3:0:0:0:
329,232,27252,5,0,3:0:0:0:
281,156,27423,1,0,0:0:0:0:
459,147,27594,2,0,P|485:175|491:214,1,68,8|0,0:0|0:0,0:0:0:0:
473,293,27937,6,0,P|389:301|316:344,1,170,4|8,0:0|0:0,0:0:0:0:
232,355,28441,1,0,0:0:0:0:
160,241,28609,2,0,P|161:207|177:177,1,68
248,198,28945,2,0,P|246:231|230:261,1,68,8|0,0:0|0:0,0:0:0:0:
72,302,29281,5,0,0:0:0:0:
52,217,29455,1,0,0:0:0:0:
31,131,29630,1,8,0:0:0:0:
168,139,29805,1,0,3:0:0:0:
178,137,29892,1,0,3:0:0:0:
188,135,29979,1,0,3:0:0:0:
266,79,30154,2,0,P|260:45|236:15,2,68,2|8|2,0:0|0:0|0:0,0:0:0:0:
261,181,30680,6,0,P|310:221|373:228,1,127.5
450,195,31022,2,0,P|410:209|368:205,1,85,8|2,0:0|0:2,0:0:0:0:
404,22,31366,6,0,P|444:42|454:84,1,85,0|2,0:0|0:2,0:0:0:0:
400,128,31709,2,0,P|359:107|349:65,1,85,8|2,0:0|0:2,0:0:0:0:
173,30,32052,5,0,0:0:0:0:
135,240,32223,1,2,0:2:0:0:
173,30,32394,5,8,0:0:0:0:
135,240,32566,1,2,0:2:0:0:
235,94,32737,5,0,0:0:0:0:
216,198,32909,1,2,0:2:0:0:
28,142,33080,5,8,0:0:0:0:
33,171,33166,1,8,0:0:0:0:
39,201,33252,1,8,0:0:0:0:
46,230,33337,1,8,0:0:0:0:
53,259,33423,5,6,0:0:0:0:
160,335,33594,1,2,0:0:0:0:
53,259,33766,5,10,0:0:0:0:
216,198,33937,1,2,0:0:0:0:
53,259,34109,5,2,0:0:0:0:
257,296,34280,1,0,0:0:0:0:
53,259,34452,5,8,0:0:0:0:
193,115,34623,2,0,L|277:108,1,85,2|0,0:0|0:0,0:0:0:0:
179,31,34966,2,0,L|263:24,1,85,2|8,0:0|0:0,0:0:0:0:
333,206,35309,2,0,L|217:196,1,85,2|0,0:0|0:0,0:0:0:0:
141,319,35652,5,2,0:0:0:0:
193,115,35823,1,10,0:0:0:0:
141,319,35994,1,2,0:0:0:0:
48,179,36166,2,0,P|129:173|176:240,1,170,0|10,0:0|0:0,0:0:0:0:
213,358,36680,5,2,0:0:0:0:
408,332,36852,1,2,0:0:0:0:
225,355,37023,1,0,0:0:0:0:
395,334,37194,1,8,0:0:0:0:
302,192,37366,6,0,L|295:108,1,85,2|0,0:0|0:0,0:0:0:0:
416,248,37709,2,0,L|409:332,1,85,2|8,0:0|0:0,0:0:0:0:
226,349,38052,2,0,L|211:173,1,170,2|0,0:0|0:0,0:0:0:0:
117,34,38566,1,8,0:0:0:0:
89,45,38652,1,8,0:0:0:0:
68,65,38737,1,8,0:0:0:0:
56,92,38823,1,8,0:0:0:0:
58,122,38909,6,0,B|105:116|132:150|136:154|140:159|156:191|231:176,1,170,4|8,0:0|0:0,0:0:0:0:
301,137,39423,1,0,0:0:0:0:
300,272,39594,2,0,P|268:274|232:253,1,68,0|0,0:0|0:0,0:0:0:0:
147,261,39937,2,0,P|131:233|135:192,1,68,8|0,0:0|0:0,0:0:0:0:
229,69,40280,5,0,0:0:0:0:
332,34,40452,1,0,0:0:0:0:
394,123,40623,1,8,0:0:0:0:
316,228,40794,1,0,3:0:0:0:
318,238,40880,1,0,3:0:0:0:
320,248,40966,1,0,3:0:0:0:
394,322,41137,2,0,P|427:324|463:311,2,68,2|8|2,0:0|0:0|0:0,0:0:0:0:
310,358,41652,6,0,P|288:319|214:300,1,102,0|0,0:0|0:0,0:0:0:0:
160,288,41994,2,0,P|163:321|182:350,1,68,8|0,0:0|0:0,0:0:0:0:
191,358,42252,1,0,3:0:0:0:
200,363,42337,1,0,3:0:0:0:
215,219,42509,1,0,0:0:0:0:
78,273,42680,2,0,P|90:241|115:219,1,68,8|0,0:0|0:0,0:0:0:0:
263,34,43023,5,0,0:0:0:0:
304,265,43194,1,2,0:2:0:0:
263,34,43366,5,8,0:0:0:0:
304,265,43537,1,2,0:2:0:0:
157,102,43709,5,0,3:0:0:0:
177,237,43880,1,10,0:2:0:0:
157,102,44052,5,0,3:0:0:0:
177,237,44223,1,10,0:2:0:0:
302,163,44394,6,0,P|356:174|427:269,1,170,4|8,0:0|0:0,0:0:0:0:
215,219,44909,1,0,3:0:0:0:
212,210,44994,1,0,3:0:0:0:
209,201,45080,2,0,P|220:147|281:86,1,127.5,0|0,3:0|0:0,0:0:0:0:
236,24,45423,2,0,P|277:15|321:37,1,85,8|0,0:0|0:0,0:0:0:0:
459,176,45766,5,0,0:0:0:0:
397,265,45937,1,0,0:0:0:0:
294,230,46109,1,8,0:0:0:0:
215,338,46280,1,0,3:0:0:0:
209,346,46366,1,0,3:0:0:0:
203,354,46452,2,0,P|172:343|147:308,1,68,0|0,3:0|0:0,0:0:0:0:
67,281,46794,2,0,P|63:249|82:212,1,68,8|0,0:0|0:0,0:0:0:0:
181,78,47137,6,0,L|176:35,1,42.5,0|0,3:2|0:0,0:0:0:0:
112,117,47309,2,0,L|101:25,1,85,2|8,3:2|0:0,0:0:0:0:
315,210,47652,6,0,L|327:87,1,85,2|0,3:2|0:0,0:0:0:0:
334,38,47994,1,2,3:2:0:0:
181,78,48166,6,0,L|175:20,1,42.5,8|0,3:2|0:0,0:0:0:0:
112,117,48337,2,0,L|101:25,1,85,2|0,3:2|3:0,0:0:0:0:
315,210,48680,6,0,L|327:87,1,85,2|8,3:2|0:0,0:0:0:0:
334,38,49023,1,2,3:2:0:0:
165,181,49194,6,0,P|290:243|225:167,1,600,2|0,0:0|0:0,0:0:0:0:
27,122,49880,6,0,P|19:144|17:168,1,46.7500014266968,4|0,3:2|0:0,0:0:0:0:
35,136,50223,2,0,P|27:158|25:182,1,46.7500014266968,0|0,3:0|0:0,0:0:0:0:
43,150,50566,2,0,P|35:172|33:196,1,46.7500014266968,0|0,3:0|0:0,0:0:0:0:
51,164,50909,2,0,P|43:186|41:210,1,46.7500014266968,0|0,3:0|0:0,0:0:0:0:
253,231,51252,6,0,L|259:290,1,46.7500014266968,4|0,3:2|0:0,0:0:0:0:
182,256,51594,2,0,L|188:315,1,46.7500014266968,0|0,3:0|0:0,0:0:0:0:
111,281,51937,2,0,L|117:340,1,46.7500014266968,0|0,3:0|0:0,0:0:0:0:
40,306,52280,2,0,L|46:365,1,46.7500014266968,0|0,3:0|0:0,0:0:0:0:
27,122,52623,6,0,P|19:144|17:168,1,46.7500014266968,4|0,3:2|0:0,0:0:0:0:
35,136,52966,2,0,P|27:158|25:182,1,46.7500014266968,0|0,3:0|0:0,0:0:0:0:
43,150,53309,2,0,P|35:172|33:196,1,46.7500014266968,0|0,3:0|0:0,0:0:0:0:
51,164,53652,2,0,P|43:186|41:210,1,46.7500014266968,0|0,3:0|0:0,0:0:0:0:
153,94,53994,6,0,L|157:47,1,46.7500014266968,4|0,3:2|0:0,0:0:0:0:
224,119,54337,2,0,L|228:72,1,46.7500014266968,0|0,3:0|0:0,0:0:0:0:
294,144,54680,2,0,L|298:97,1,46.7500014266968,0|0,3:0|0:0,0:0:0:0:
365,169,55023,2,0,L|369:122,1,46.7500014266968,0|0,3:0|0:0,0:0:0:0:
27,122,55366,6,0,P|19:144|17:168,1,46.7500014266968,4|0,3:2|0:0,0:0:0:0:
35,136,55709,2,0,P|27:158|25:182,1,46.7500014266968,0|0,3:0|0:0,0:0:0:0:
43,150,56052,2,0,P|35:172|33:196,1,46.7500014266968,0|0,3:0|0:0,0:0:0:0:
51,164,56394,2,0,P|43:186|41:210,1,46.7500014266968,0|0,3:0|0:0,0:0:0:0:
253,231,56737,6,0,L|259:290,1,46.7500014266968,4|0,3:2|0:0,0:0:0:0:
182,256,57080,2,0,L|188:315,1,46.7500014266968,0|0,3:0|0:0,0:0:0:0:
111,281,57423,2,0,L|117:340,1,46.7500014266968,0|0,3:0|0:0,0:0:0:0:
44,352,57766,6,0,L|40:306,1,46.7500014266968,8|0,3:2|0:0,0:0:0:0:
21,116,58109,6,0,P|88:74|94:195,1,255,4|0,0:0|0:0,0:0:0:0:
57,195,58448,5,0,3:0:0:0:
25,317,58618,1,0,3:0:0:0:
246,331,58788,5,0,3:0:0:0:
187,109,58959,1,0,3:0:0:0:
467,74,59129,5,0,3:0:0:0:
386,376,59299,1,0,3:0:0:0:
242,228,59469,6,0,P|200:161|321:155,1,255,4|0,0:0|0:0,0:0:0:0:
364,231,59807,5,8,0:0:0:0:
394,228,59892,1,8,0:0:0:0:
424,226,59978,1,8,0:0:0:0:
454,224,60064,1,8,0:0:0:0:
484,222,60149,5,10,0:0:0:0:
113,357,60835,5,6,0:0:0:0:
91,49,61007,1,2,1:2:0:0:
399,27,61178,1,10,0:2:0:0:
421,335,61349,1,2,1:2:0:0:
121,265,61521,5,2,0:0:0:0:
183,57,61693,1,2,1:2:0:0:
391,119,61864,1,10,0:2:0:0:
329,327,62036,1,2,1:2:0:0:
112,153,62207,5,2,0:0:0:0:
289,50,62379,1,2,1:2:0:0:
219,333,62551,1,10,0:2:0:0:
395,225,62722,1,10,1:2:0:0:
112,153,62894,6,0,P|59:148|13:173,1,106.25,2|0,0:0|1:2,0:0:0:0:
37,295,63237,2,0,P|89:299|135:274,1,106.25,10|0,0:2|1:2,0:0:0:0:
336,15,63580,6,0,L|322:121,1,106.25,2|2,0:0|1:2,0:0:0:0:
289,332,63924,2,0,L|304:227,1,106.25,8|2,0:2|1:2,0:0:0:0:
232,160,64267,2,0,L|126:145,1,106.25,0|0,0:0|1:2,0:0:0:0:
395,184,64610,2,0,L|500:198,1,106.25,10|2,0:2|1:2,0:0:0:0:
263,51,64953,6,0,P|211:43|166:75,1,106.25,2|0,0:0|1:2,0:0:0:0:
229,281,65297,2,0,P|260:239|255:184,1,106.25,10|0,0:2|1:2,0:0:0:0:
46,131,65640,2,0,P|66:178|115:202,1,106.25,2|0,0:0|1:2,0:0:0:0:
358,30,65983,1,8,0:2:0:0:
369,29,66069,1,8,0:0:0:0:
379,29,66155,1,8,0:0:0:0:
389,28,66241,1,8,0:0:0:0:
399,27,66326,5,6,0:0:0:0:
421,335,66498,1,2,1:2:0:0:
113,357,66669,1,10,0:2:0:0:
91,49,66840,1,2,1:2:0:0:
391,119,67012,5,2,0:0:0:0:
329,327,67184,1,2,1:2:0:0:
121,265,67355,1,10,0:2:0:0:
183,57,67527,1,2,1:2:0:0:
400,231,67698,5,2,0:0:0:0:
223,334,67870,1,2,1:2:0:0:
293,51,68042,1,10,0:2:0:0:
117,159,68213,1,10,1:2:0:0:
400,231,68386,6,0,P|452:224|455:176,1,106.25,2|0,0:0|1:2,0:0:0:0:
392,106,68729,2,0,P|340:113|337:161,1,106.25,10|0,0:2|1:2,0:0:0:0:
212,355,69072,6,0,L|198:250,1,106.25,2|0,0:2|1:2,0:0:0:0:
94,160,69416,2,0,L|80:265,1,106.25,10|0,0:2|1:2,0:0:0:0:
240,14,69759,2,0,L|270:240,1,212.5,2|10,0:2|0:2,0:0:0:0:
283,310,70274,1,10,1:2:0:0:
360,131,70445,5,2,3:2:0:0:
94,160,70617,1,8,3:2:0:0:
360,131,70789,2,0,P|376:181|343:243,1,106.25,2|0,3:2|1:2,0:0:0:0:
283,310,71132,2,0,B|290:253|249:220|244:215|238:210|199:191|217:100,1,210.375002006292,14|0,0:2|0:0,0:0:0:0:
154,30,71475,1,8,0:2:0:0:
143,29,71561,1,8,0:0:0:0:
133,29,71647,1,8,0:0:0:0:
123,28,71733,1,8,0:0:0:0:
113,27,71818,5,6,1:2:0:0:
91,335,71990,1,2,0:2:0:0:
399,357,72161,1,10,1:2:0:0:
421,49,72332,1,2,0:2:0:0:
121,119,72504,5,2,1:2:0:0:
183,327,72676,1,2,0:2:0:0:
391,265,72847,1,10,1:2:0:0:
329,57,73019,1,2,0:2:0:0:
112,231,73190,5,2,1:2:0:0:
289,334,73362,1,2,0:2:0:0:
219,51,73534,1,10,1:2:0:0:
395,159,73705,1,10,0:2:0:0:
112,231,73878,6,0,P|124:174|173:146,1,106.25,2|0,1:2|0:0,0:0:0:0:
131,28,74221,2,0,P|187:14|233:47,1,106.25,10|0,1:2|0:0,0:0:0:0:
307,295,74564,6,0,L|296:181,1,106.25,2|2,1:2|0:0,0:0:0:0:
362,80,74908,2,0,L|372:185,1,106.25,8|2,1:2|0:0,0:0:0:0:
259,365,75251,2,0,L|269:259,1,106.25,0|0,1:2|0:0,0:0:0:0:
409,10,75594,2,0,L|398:115,1,106.25,10|2,1:2|0:0,0:0:0:0:
348,297,75937,6,0,P|408:289|435:230,1,106.25,2|0,1:2|0:0,0:0:0:0:
298,131,76281,2,0,P|270:87|219:77,1,106.25,10|0,1:2|0:0,0:0:0:0:
181,259,76624,2,0,P|156:304|174:353,1,106.25,2|0,1:2|0:0,0:0:0:0:
358,354,76967,1,8,0:2:0:0:
369,355,77053,1,8,0:0:0:0:
379,355,77139,1,8,0:0:0:0:
389,356,77225,1,8,0:0:0:0:
399,357,77310,5,6,1:2:0:0:
421,49,77482,1,2,0:2:0:0:
113,27,77653,1,10,1:2:0:0:
91,335,77824,1,2,0:2:0:0:
391,265,77996,5,2,1:2:0:0:
329,57,78168,1,2,0:2:0:0:
121,119,78339,1,10,1:2:0:0:
183,327,78511,1,2,0:2:0:0:
400,153,78682,5,2,1:2:0:0:
223,50,78854,1,2,0:2:0:0:
293,333,79026,1,10,1:2:0:0:
117,225,79197,1,10,0:2:0:0:
400,153,79370,6,0,L|294:143,1,106.25,2|0,1:2|0:0,0:0:0:0:
117,225,79713,2,0,L|223:215,1,106.25,10|0,1:2|0:0,0:0:0:0:
409,31,80056,6,0,P|353:21|305:47,1,106.25,2|0,1:2|0:0,0:0:0:0:
103,353,80400,2,0,P|158:364|206:338,1,106.25,10|0,1:2|0:0,0:0:0:0:
95,39,80743,2,0,P|84:95|110:143,1,106.25,2|0,1:2|0:0,0:0:0:0:
417,345,81086,2,0,P|427:290|401:242,1,106.25,10|0,1:2|0:2,0:0:0:0:
320,116,81429,6,0,B|179:125|179:125|186:266|186:266|328:257|328:257|320:138,1,531.25,2|0,1:2|0:0,0:0:0:0:
224,45,82447,5,8,0:0:0:0:
194,42,82532,1,8,0:0:0:0:
164,40,82618,1,8,0:0:0:0:
134,38,82703,1,8,0:0:0:0:
104,36,82789,5,6,0:0:0:0:
55,132,82960,1,2,0:0:0:0:
104,36,83131,5,10,0:0:0:0:
140,188,83302,1,2,0:0:0:0:
104,36,83473,5,2,0:0:0:0:
45,243,83644,1,0,0:0:0:0:
104,36,83816,5,8,0:0:0:0:
140,188,83987,2,0,L|242:180,1,85,2|0,0:0|0:0,0:0:0:0:
309,172,84329,2,0,L|411:164,1,85,2|8,0:0|0:0,0:0:0:0:
274,271,84672,2,0,L|259:81,1,170,2|2,0:0|0:0,0:0:0:0:
338,24,85185,1,10,0:0:0:0:
338,24,85356,1,2,0:0:0:0:
477,128,85527,6,0,L|470:212,1,85,0|0,0:0|0:0,0:0:0:0:
303,264,85870,1,10,0:0:0:0:
498,297,86041,1,2,0:0:0:0:
319,268,86212,1,2,0:0:0:0:
479,294,86383,1,0,0:0:0:0:
359,345,86555,1,8,0:0:0:0:
340,178,86726,6,0,L|256:185,1,85,2|0,0:0|0:0,0:0:0:0:
216,295,87068,2,0,L|132:302,1,85,2|8,0:0|0:0,0:0:0:0:
73,105,87410,2,0,L|242:91,1,170,2|0,0:0|0:0,0:0:0:0:
391,31,87924,1,8,0:0:0:0:
389,61,88010,1,8,0:0:0:0:
387,91,88095,1,8,0:0:0:0:
385,121,88181,1,8,0:0:0:0:
382,151,88266,5,6,0:0:0:0:
333,247,88438,1,2,0:0:0:0:
382,151,88609,5,10,0:0:0:0:
418,303,88780,1,2,0:0:0:0:
382,151,88951,5,0,0:0:0:0:
326,352,89122,1,0,0:0:0:0:
382,151,89293,5,8,0:0:0:0:
500,268,89465,2,0,L|493:352,1,85,2|0,0:0|0:0,0:0:0:0:
300,191,89807,2,0,L|293:107,1,85,2|8,0:0|0:0,0:0:0:0:
406,347,90149,2,0,B|342:351|342:351|305:328|305:328|242:333,1,170,2|2,0:0|0:0,0:0:0:0:
129,345,90663,1,10,0:0:0:0:
129,345,90834,1,2,0:0:0:0:
170,170,91005,6,0,L|177:254,1,85,4|0,0:0|0:0,0:0:0:0:
5,328,91348,1,10,0:0:0:0:
43,102,91519,1,2,0:0:0:0:
10,307,91690,1,2,0:0:0:0:
39,122,91861,1,0,0:0:0:0:
98,263,92032,1,8,0:0:0:0:
145,85,92204,6,0,L|229:92,1,85,2|0,0:0|0:0,0:0:0:0:
459,113,92546,2,0,L|375:106,1,85,2|8,0:0|0:0,0:0:0:0:
293,202,92888,2,0,L|308:12,1,170,2|0,0:0|0:0,0:0:0:0:
379,236,93417,2,0,L|377:194,1,42.5,10|0,0:0|0:0,0:0:0:0:
393,251,93593,2,0,L|391:209,1,42.5,2|0,0:0|0:0,0:0:0:0:
478,199,93770,2,0,L|469:305,1,106.25,6|0,0:0|0:0,0:0:0:0:
186,335,94112,5,8,0:0:0:0:
184,324,94198,1,8,0:0:0:0:
182,313,94284,1,8,0:0:0:0:
180,302,94370,1,8,0:0:0:0:
178,291,94455,2,0,P|216:255|268:249,1,106.25,4|0,0:0|0:0,0:0:0:0:
416,179,94798,5,8,0:0:0:0:
407,186,94884,1,8,0:0:0:0:
398,193,94970,1,8,0:0:0:0:
390,200,95055,1,8,0:0:0:0:
381,207,95141,2,0,P|330:192|299:150,1,106.25,4|0,0:0|0:0,0:0:0:0:
164,58,95484,5,8,0:0:0:0:
174,62,95570,1,8,0:0:0:0:
185,66,95655,1,8,0:0:0:0:
195,70,95741,1,8,0:0:0:0:
205,74,95827,2,0,P|217:124|196:172,1,106.25,4|0,0:0|0:0,0:0:0:0:
62,284,96170,5,8,0:0:0:0:
59,300,96255,1,8,0:0:0:0:
56,316,96341,1,8,0:0:0:0:
53,332,96427,1,8,0:0:0:0:
50,348,96512,2,0,L|156:337,1,106.25,4|0,0:0|0:0,0:0:0:0:
430,207,96855,5,8,0:0:0:0:
433,223,96941,1,8,0:0:0:0:
436,239,97027,1,8,0:0:0:0:
439,255,97112,1,8,0:0:0:0:
442,271,97198,2,0,L|336:260,1,106.25,4|0,0:0|0:0,0:0:0:0:
90,120,97541,5,8,0:0:0:0:
87,136,97627,1,8,0:0:0:0:
84,152,97712,1,8,0:0:0:0:
81,168,97798,1,8,0:0:0:0:
78,184,97884,2,0,L|184:173,1,106.25,4|0,0:0|0:0,0:0:0:0:
458,43,98227,5,8,0:0:0:0:
461,59,98312,1,8,0:0:0:0:
464,75,98398,1,8,0:0:0:0:
467,91,98484,1,8,0:0:0:0:
470,107,98570,2,0,L|364:96,1,106.25,4|0,0:0|0:0,0:0:0:0:
119,87,98912,5,8,0:0:0:0:
115,118,98998,1,8,0:0:0:0:
111,150,99084,1,8,0:0:0:0:
108,181,99170,1,8,0:0:0:0:
104,212,99255,2,0,P|147:241|216:237,1,114.750000437737,4|0,0:0|0:0,0:0:0:0:
393,297,99598,5,8,0:0:0:0:
397,266,99684,1,8,0:0:0:0:
401,234,99770,1,8,0:0:0:0:
404,203,99855,1,8,0:0:0:0:
408,172,99941,2,0,P|365:143|296:147,1,114.750000437737,4|0,0:0|0:0,0:0:0:0:
151,329,100284,5,8,0:0:0:0:
182,333,100370,1,8,0:0:0:0:
214,337,100455,1,8,0:0:0:0:
245,340,100541,1,8,0:0:0:0:
276,344,100627,2,0,P|305:301|301:232,1,114.750000437737,4|0,0:0|0:0,0:0:0:0:
361,55,100970,5,8,0:0:0:0:
330,51,101055,1,8,0:0:0:0:
298,47,101141,1,8,0:0:0:0:
267,44,101227,1,8,0:0:0:0:
236,40,101312,2,0,P|207:83|211:152,1,114.750000437737,4|0,0:0|0:0,0:0:0:0:
316,327,101655,5,8,0:0:0:0:
358,333,101741,1,8,0:0:0:0:
401,337,101827,1,8,0:0:0:0:
443,343,101912,1,8,0:0:0:0:
486,349,101998,2,0,L|503:208,1,127.500004863739,4|0,0:0|0:0,0:0:0:0:
195,327,102338,5,8,0:0:0:0:
153,333,102424,1,8,0:0:0:0:
110,337,102509,1,8,0:0:0:0:
68,343,102594,1,8,0:0:0:0:
25,349,102679,2,0,L|8:208,1,127.500004863739,4|0,0:0|0:0,0:0:0:0:
189,68,103020,6,0,L|197:4,1,42.5,0|0,3:0|0:0,0:0:0:0:
171,216,103191,2,0,L|162:279,1,42.5,8|0,0:0|0:0,0:0:0:0:
262,95,103361,6,0,L|270:31,1,42.5,0|0,3:0|0:0,0:0:0:0:
246,210,103532,2,0,L|237:273,1,42.5,8|0,0:0|0:0,0:0:0:0:
343,168,103702,5,0,3:0:0:0:
22,122,103872,1,4,0:0:0:0:
256,192,104044,12,0,110778,0:0:0:0:
439,357,111611,6,0,B|90:375|90:375|72:26|72:26|421:8|421:8|435:287|435:287|156:302|156:302|145:92|145:92|355:81|355:81|362:221|362:221|222:228|222:228|219:158|219:158|294:154,1,2444.17505967224,4|0,0:0|0:0,0:0:0:0:
