osu file format v14

[General]
AudioFilename: audio.mp3
AudioLeadIn: 0
PreviewTime: 60792
Countdown: 0
SampleSet: Soft
StackLeniency: 0.4
Mode: 0
LetterboxInBreaks: 0
WidescreenStoryboard: 1

[Editor]
DistanceSpacing: 1
BeatDivisor: 4
GridSize: 32
TimelineZoom: 2.800005

[Metadata]
Title:Nai Mono Nedari
TitleUnicode:ないものねだり
Artist:KANA-BOON
ArtistUnicode:KANA-BOON
Creator:Fatfan Kolek
Version:NORMAL
Source:
Tags:kanaboon kana boon japanese cut ver version square
BeatmapID:2180452
BeatmapSetID:1041915

[Difficulty]
HPDrainRate:3.5
CircleSize:2.5
OverallDifficulty:4
ApproachRate:5.3
SliderMultiplier:1.3
SliderTickRate:1

[Events]
//Background and Video events
0,0,"sasuke wp.jpg",0,0
//Break Periods
2,52822,56737
//Storyboard Layer 0 (Background)
//Storyboard Layer 1 (Fail)
//Storyboard Layer 2 (Pass)
//Storyboard Layer 3 (Foreground)
//Storyboard Layer 4 (Overlay)
//Storyboard Sound Samples

[TimingPoints]
526,342.857142857143,4,2,1,40,1,0
526,-100,4,2,1,40,0,0
611,-100,4,2,1,5,0,0
697,-100,4,2,1,40,0,0
1297,-100,4,2,1,5,0,0
1383,-100,4,2,1,40,0,0
1983,-100,4,2,1,5,0,0
2068,-100,4,2,1,40,0,0
2668,-100,4,2,1,5,0,0
2754,-100,4,2,1,40,0,0
3354,-100,4,2,1,5,0,0
3440,-100,4,2,1,40,0,0
4040,-100,4,2,1,5,0,0
4126,-100,4,2,1,40,0,0
4726,-100,4,2,1,5,0,0
4811,-100,4,2,1,40,0,0
5411,-100,4,2,1,5,0,0
5497,-100,4,2,1,40,0,0
6268,-100,4,2,1,5,0,0
6354,-100,4,2,1,40,0,0
9011,-100,4,2,1,5,0,0
9097,-100,4,2,1,50,0,0
9354,-100,4,2,1,5,0,0
9440,-100,4,2,1,60,0,0
9697,-100,4,2,1,5,0,0
9783,-100,4,2,1,70,0,0
10040,-100,4,2,1,5,0,0
10126,-100,4,2,1,80,0,0
10383,-100,4,2,1,5,0,0
10447,342.857142857143,4,2,1,80,1,0
11497,342.368045649073,4,2,1,60,1,0
22452,342.857142857143,4,2,1,60,1,0
27937,336.134453781513,4,2,1,60,1,0
29281,349.344978165939,4,2,1,60,1,0
30680,342.857142857143,4,2,1,60,1,0
58108,340.425531914894,4,2,1,70,1,0
59807,342.857142857143,4,2,1,80,1,0
60835,343.24942791762,4,2,1,80,1,1
60835,-100,4,2,1,80,0,1
71389,-100,4,2,1,5,0,1
71475,-100,4,2,1,80,0,1
71818,-100,4,2,2,80,0,1
81429,339.366515837104,4,2,2,80,1,1
82373,-100,4,2,1,5,0,1
82447,342.368045649073,4,2,1,60,1,1
82789,342.368045649073,4,2,1,60,1,0
92888,352.941176470588,4,2,1,60,1,0
93770,342.857142857143,4,2,1,60,1,0
99255,-100,4,2,1,70,0,0
101998,340.909090909091,4,2,1,80,1,0
103872,345.323741007194,4,2,1,80,1,0
111611,342.857142857143,4,2,1,80,1,0
117782,-100,4,2,1,5,0,0

[Colours]
Combo1 : 255,211,193
Combo2 : 255,146,94

[HitObjects]
433,258,526,6,0,L|437:322,1,65,2|2,0:0|0:0,0:0:0:0:
244,291,1211,2,0,L|248:355,1,65,2|2,0:0|0:0,0:0:0:0:
331,179,1897,2,0,L|335:243,1,65,2|2,0:0|0:0,0:0:0:0:
142,212,2583,2,0,L|146:276,1,65,2|2,0:0|0:0,0:0:0:0:
61,99,3268,6,0,P|87:81|119:74,1,65,2|2,0:0|0:0,0:0:0:0:
305,17,3954,2,0,P|323:43|330:75,1,65,2|2,0:0|0:0,0:0:0:0:
387,260,4640,2,0,P|360:278|328:285,1,65,2|2,0:0|0:0,0:0:0:0:
144,342,5326,2,0,P|125:315|118:283,1,65,2|2,0:0|0:0,0:0:0:0:
61,99,6011,6,0,P|115:66|179:64,1,130,4|0,3:2|3:0,0:0:0:0:
303,23,6697,2,0,P|336:77|338:141,1,130,0|0,3:0|3:0,0:0:0:0:
379,264,7383,2,0,P|324:297|260:299,1,130,0|0,3:0|3:0,0:0:0:0:
138,340,8068,2,0,P|104:285|102:221,1,130,0|0,3:0|3:0,0:0:0:0:
61,99,8754,6,0,P|87:81|119:74,1,65,2|0,3:2|0:0,0:0:0:0:
168,30,9097,2,0,P|196:43|218:67,1,65,2|0,3:2|0:0,0:0:0:0:
281,88,9440,2,0,P|283:119|273:150,1,65,2|0,3:2|0:0,0:0:0:0:
287,214,9783,2,0,P|261:232|229:239,1,65,2|0,3:2|0:0,0:0:0:0:
180,282,10126,2,0,P|151:268|129:244,1,65,2|0,3:2|0:0,0:0:0:0:
114,189,10447,5,4,0:0:0:0:
407,318,11497,6,0,L|399:183,1,130,6|8,0:0|0:0,0:0:0:0:
395,123,12010,1,2,0:0:0:0:
368,63,12181,2,0,P|340:46|308:40,1,65,2|0,0:0|0:0,0:0:0:0:
248,66,12524,1,8,0:0:0:0:
187,41,12695,2,0,P|165:102|130:156,1,130,2|2,0:0|0:0,0:0:0:0:
0,150,13380,2,0,P|21:211|56:265,1,130,2|2,0:0|0:0,0:0:0:0:
107,305,13893,2,0,L|171:312,1,65,10|2,0:0|0:0,0:0:0:0:
236,316,14235,5,0,0:0:0:0:
359,357,14578,2,0,P|387:341|405:315,1,65,10|2,0:0|0:0,0:0:0:0:
461,282,14920,2,0,P|461:249|448:220,1,65,2|0,0:0|0:0,0:0:0:0:
398,177,15263,1,8,0:0:0:0:
415,115,15434,2,0,P|356:78|287:72,1,130,2|2,0:0|0:0,0:0:0:0:
174,26,16118,2,0,P|113:58|73:115,1,130,2|0,0:0|0:0,0:0:0:0:
74,171,16632,2,0,L|72:244,1,65,8|8,0:0|0:0,0:0:0:0:
53,298,16974,6,0,B|126:290|107:338|195:330,1,130,6|10,0:0|0:0,0:0:0:0:
239,316,17488,1,2,0:0:0:0:
301,332,17659,2,0,P|311:291|307:255,1,65,0|0,0:0|0:0,0:0:0:0:
291,205,18001,1,8,0:0:0:0:
323,148,18173,2,0,P|251:154|192:150,1,130,2|2,0:0|0:0,0:0:0:0:
119,42,18857,2,0,P|191:36|250:40,1,130,2|2,0:0|0:0,0:0:0:0:
311,55,19371,2,0,P|346:58|384:50,1,65,10|2,0:0|0:0,0:0:0:0:
437,33,19713,5,0,0:0:0:0:
467,159,20056,2,0,P|451:187|425:205,1,65,10|2,0:0|0:0,0:0:0:0:
392,261,20398,2,0,P|359:261|330:248,1,65,2|0,0:0|0:0,0:0:0:0:
287,198,20740,1,8,0:0:0:0:
233,160,20912,2,0,L|218:295,1,130,2|2,0:0|0:0,0:0:0:0:
104,351,21596,2,0,B|66:268|66:268|117:206|117:206|111:117,1,260,2|8,0:0|0:0,0:0:0:0:
81,60,22452,6,0,P|139:52|223:97,1,130,6|8,0:0|0:0,0:0:0:0:
241,131,22966,1,0,0:0:0:0:
229,194,23137,2,0,P|288:219|351:212,1,130,2|8,0:0|0:0,0:0:0:0:
479,237,23823,2,0,P|480:281|477:310,1,65,2|0,0:0|0:0,0:0:0:0:
426,343,24166,2,0,P|382:344|353:341,1,65,10|2,0:0|3:2,0:0:0:0:
301,312,24509,2,0,P|237:312|173:326,1,130,2|8,3:2|0:0,0:0:0:0:
112,306,25023,1,2,0:0:0:0:
52,330,25194,5,0,0:0:0:0:
36,200,25537,2,0,P|38:141|118:127,1,130,10|2,0:0|0:0,0:0:0:0:
162,120,26052,1,0,0:0:0:0:
210,77,26223,2,0,P|267:98|271:159,1,130,10|2,0:0|0:0,0:0:0:0:
197,266,26909,2,0,P|200:327|258:348,1,130,10|2,0:0|3:2,0:0:0:0:
365,275,27594,1,8,0:0:0:0:
468,353,27937,6,0,P|493:293|486:230,1,130,6|8,0:0|0:0,0:0:0:0:
430,195,28441,1,0,0:0:0:0:
432,130,28609,2,0,P|373:105|310:112,1,130,2|8,0:0|0:0,0:0:0:0:
195,153,29281,2,0,P|192:185|194:217,1,65,2|0,0:0|0:0,0:0:0:0:
198,282,29630,2,0,P|154:283|125:280,1,65,10|2,0:0|3:2,0:0:0:0:
71,259,29979,2,0,P|71:195|57:131,1,130,2|8,3:2|0:0,0:0:0:0:
15,76,30503,1,2,0:0:0:0:
60,25,30680,5,2,0:0:0:0:
187,46,31022,2,0,L|345:68,1,130,10|2,0:0|0:0,0:0:0:0:
380,76,31537,1,0,0:0:0:0:
443,86,31708,2,0,L|421:244,1,130,10|2,0:0|0:0,0:0:0:0:
347,319,32394,2,0,L|329:190,1,130,10|2,0:0|0:0,0:0:0:0:
200,170,33080,2,0,L|191:234,1,65,8|8,0:0|0:0,0:0:0:0:
159,291,33422,6,0,P|114:243|89:177,1,130,6|10,0:0|0:0,0:0:0:0:
116,124,33937,1,2,0:0:0:0:
114,59,34108,2,0,P|139:43|174:36,1,65,2|0,0:0|0:0,0:0:0:0:
236,52,34451,1,8,0:0:0:0:
300,44,34622,2,0,P|356:71|426:83,1,130,2|2,0:0|0:0,0:0:0:0:
498,188,35308,2,0,P|477:249|442:303,1,130,2|2,0:0|0:0,0:0:0:0:
386,337,35822,2,0,P|352:343|322:344,1,65,10|2,0:0|0:0,0:0:0:0:
257,335,36165,5,0,0:0:0:0:
128,352,36508,2,0,L|135:280,1,65,10|2,0:0|0:0,0:0:0:0:
181,239,36851,2,0,L|188:167,1,65,2|0,0:0|0:0,0:0:0:0:
190,111,37194,1,8,0:0:0:0:
250,88,37365,2,0,P|309:111|345:164,1,130,2|2,0:0|0:0,0:0:0:0:
447,246,38051,2,0,P|423:305|370:341,1,130,2|0,0:0|0:0,0:0:0:0:
305,343,38565,2,0,L|240:341,1,65,8|8,0:0|0:0,0:0:0:0:
175,332,38908,6,0,B|186:269|144:274|166:202,1,130,4|8,0:0|0:0,0:0:0:0:
212,92,39594,2,0,P|173:73|129:70,1,65,2|0,0:0|0:0,0:0:0:0:
107,21,39937,2,0,P|71:45|46:81,1,65,10|0,0:0|0:0,0:0:0:0:
2,96,40280,2,0,P|5:139|24:178,1,65,2|0,0:0|0:0,0:0:0:0:
69,190,40622,2,0,P|65:233|46:272,1,65,10|2,0:0|3:2,0:0:0:0:
31,312,40965,2,0,P|94:325|159:326,1,130,2|8,3:2|0:0,0:0:0:0:
211,286,41480,1,2,0:0:0:0:
268,315,41651,5,2,0:0:0:0:
394,344,41994,2,0,P|442:308|449:237,1,130,10|2,0:0|3:2,0:0:0:0:
419,184,42508,1,0,0:0:0:0:
448,126,42680,2,0,P|386:128|307:113,1,130,10|2,0:0|0:0,0:0:0:0:
221,30,43365,2,0,P|163:50|159:111,1,130,10|2,0:0|3:2,0:0:0:0:
175,175,43880,2,0,P|125:188|98:186,2,65,10|0|10,0:2|3:0|0:2,0:0:0:0:
238,188,44394,6,0,P|267:230|290:309,1,130,6|10,0:0|0:0,0:0:0:0:
176,350,45080,2,0,P|116:324|52:332,1,130,2|8,3:2|0:0,0:0:0:0:
38,219,45765,2,0,P|35:186|37:154,1,65,2|0,0:0|0:0,0:0:0:0:
45,89,46108,2,0,P|89:88|118:91,1,65,10|2,0:0|3:2,0:0:0:0:
157,134,46451,2,0,P|221:133|285:119,1,130,2|8,3:2|0:0,0:0:0:0:
394,93,47137,6,0,P|413:73|448:56,2,65,0|2|8,3:2|3:2|0:0,0:0:0:0:
427,149,47651,2,0,P|442:201|410:295,1,130,2|2,3:2|3:2,0:0:0:0:
368,304,48165,6,0,P|368:334|356:369,2,65,8|2|0,3:2|3:2|3:0,0:0:0:0:
309,275,48680,2,0,P|252:277|161:295,1,130,2|2,3:2|3:2,0:0:0:0:
133,334,49194,2,0,B|95:251|95:251|146:189|146:189|140:100,1,260,2|4,0:0|3:2,0:0:0:0:
256,192,50051,12,0,52622,0:0:0:0:
93,114,58108,6,0,P|138:74|229:72,1,130,4|0,3:2|3:0,0:0:0:0:
256,185,58789,2,0,P|211:225|120:227,1,130,0|0,3:0|3:0,0:0:0:0:
17,203,59470,1,4,0:0:0:0:
24,326,59807,2,0,P|83:337|162:341,1,130,8|8,0:0|0:0,0:0:0:0:
366,194,60835,6,0,L|374:127,1,65,6|2,0:0|1:2,0:0:0:0:
351,70,61178,2,0,L|284:62,1,65,10|2,0:2|1:2,0:0:0:0:
227,91,61521,2,0,L|219:158,1,65,2|2,0:0|1:2,0:0:0:0:
248,215,61864,2,0,L|315:223,1,65,10|2,0:2|1:2,0:0:0:0:
369,253,62207,2,0,P|366:303|286:340,1,130,2|10,0:0|0:2,0:0:0:0:
241,320,62722,1,10,1:2:0:0:
179,342,62894,2,0,P|116:339|49:281,1,130,2|10,0:0|0:2,0:0:0:0:
39,173,63580,6,0,L|57:35,1,130,2|8,0:0|0:2,0:0:0:0:
115,70,64095,1,2,1:2:0:0:
174,44,64267,2,0,L|185:137,1,65,0|0,0:0|1:2,0:0:0:0:
165,171,64610,2,0,L|176:264,1,65,10|2,0:2|1:2,0:0:0:0:
228,268,64953,2,0,P|291:263|335:217,1,130,2|10,0:0|1:2,0:0:0:0:
379,94,65640,2,0,P|471:103|504:142,1,130,2|8,0:0|0:0,0:0:0:0:
485,256,66326,6,0,P|473:287|443:313,1,65,6|2,0:0|1:2,0:0:0:0:
393,339,66670,2,0,P|359:345|322:331,1,65,10|2,0:0|1:2,0:0:0:0:
275,300,67013,2,0,P|253:274|246:235,1,65,2|2,0:0|1:2,0:0:0:0:
239,180,67356,2,0,P|250:148|280:122,1,65,10|2,0:0|1:2,0:0:0:0:
335,114,67699,2,0,P|332:64|252:27,1,130,2|10,0:0|0:2,0:0:0:0:
211,56,68214,1,10,1:2:0:0:
153,26,68386,2,0,L|20:39,1,130,2|10,0:0|0:2,0:0:0:0:
18,168,69072,6,0,P|20:210|28:239,1,65,2|0,0:2|1:2,0:0:0:0:
49,292,69416,2,0,P|91:290|120:282,1,65,10|0,0:2|1:2,0:0:0:0:
167,248,69759,2,0,P|231:257|289:296,1,130,2|10,0:2|0:2,0:0:0:0:
405,340,70445,2,0,P|430:312|442:270,1,65,2|8,3:2|3:2,0:0:0:0:
440,221,70789,2,0,P|430:188|427:148,1,65,2|0,3:2|1:2,0:0:0:0:
438,93,71132,2,0,P|406:85|325:149,1,130,14|8,0:2|0:0,0:0:0:0:
315,263,71818,6,0,L|241:279,1,65,6|2,1:2|0:0,0:0:0:0:
197,313,72162,2,0,L|133:299,1,65,10|2,1:2|0:0,0:0:0:0:
89,250,72505,2,0,L|105:176,1,65,2|2,1:2|0:0,0:0:0:0:
141,134,72848,2,0,L|127:70,1,65,10|2,1:2|0:0,0:0:0:0:
170,22,73191,2,0,P|234:29|295:86,1,130,2|10,1:2|1:2,0:0:0:0:
295,132,73706,1,10,0:2:0:0:
360,132,73878,2,0,P|415:164|447:221,1,130,2|10,1:2|1:2,0:0:0:0:
456,350,74564,6,0,L|322:339,1,130,2|8,1:2|1:2,0:0:0:0:
249,234,75251,2,0,L|119:244,1,130,2|10,1:2|1:2,0:0:0:0:
4,183,75937,2,0,P|3:134|11:113,1,65,2|0,1:2|0:0,0:0:0:0:
64,85,76281,2,0,P|97:95|137:98,1,65,10|0,1:2|0:0,0:0:0:0:
189,74,76624,2,0,P|249:41|330:43,1,130,2|8,1:2|0:0,0:0:0:0:
422,102,77310,6,0,P|407:132|412:174,1,65,6|2,1:2|0:0,0:0:0:0:
449,214,77654,2,0,P|460:246|455:288,1,65,10|2,1:2|0:0,0:0:0:0:
440,339,77997,2,0,P|408:350|366:345,1,65,2|2,1:2|0:0,0:0:0:0:
325,310,78340,2,0,P|293:299|251:304,1,65,10|2,1:2|0:0,0:0:0:0:
202,325,78683,2,0,P|151:335|81:283,1,130,2|10,1:2|1:2,0:0:0:0:
63,234,79198,1,10,0:2:0:0:
87,173,79370,2,0,B|121:112|66:112|105:24,2,130,2|10|2,1:2|1:2|1:2,0:0:0:0:
213,140,80400,6,0,P|247:128|272:102,1,65,10|0,1:2|0:0,0:0:0:0:
306,56,80743,2,0,P|370:65|428:104,1,130,2|10,1:2|1:2,0:0:0:0:
445,228,81429,2,0,P|338:338|336:185,1,390,2|8,1:2|0:0,0:0:0:0:
406,82,82789,6,0,P|341:72|262:71,1,130,6|10,0:0|0:0,0:0:0:0:
217,43,83302,1,2,0:0:0:0:
158,71,83473,2,0,L|152:135,1,65,2|0,0:0|0:0,0:0:0:0:
147,200,83816,1,8,0:0:0:0:
116,257,83987,2,0,P|159:293|260:296,1,130,2|2,0:0|0:0,0:0:0:0:
351,353,84672,2,0,P|398:313|417:233,1,130,2|2,0:0|0:0,0:0:0:0:
395,188,85185,2,0,P|382:155|379:120,1,65,10|2,0:0|0:0,0:0:0:0:
401,64,85527,5,0,0:0:0:0:
274,31,85870,2,0,P|246:47|205:61,1,65,10|2,0:0|0:0,0:0:0:0:
153,38,86212,2,0,P|122:49|94:65,1,65,2|0,0:0|0:0,0:0:0:0:
53,116,86555,1,8,0:0:0:0:
63,180,86726,2,0,P|122:217|191:223,1,130,2|2,0:0|0:0,0:0:0:0:
259,327,87410,2,0,P|298:276|356:247,1,130,2|0,0:0|0:0,0:0:0:0:
419,230,87924,2,0,P|425:196|421:157,1,65,8|8,0:0|0:0,0:0:0:0:
446,105,88266,6,0,P|377:98|310:57,1,130,6|10,0:0|0:0,0:0:0:0:
271,31,88780,1,2,0:0:0:0:
209,52,88951,2,0,P|199:93|203:129,1,65,0|0,0:0|0:0,0:0:0:0:
224,175,89293,1,8,0:0:0:0:
196,234,89465,2,0,P|268:228|327:232,1,130,2|2,0:0|0:0,0:0:0:0:
403,335,90149,2,0,P|331:341|272:337,1,130,2|2,0:0|0:0,0:0:0:0:
209,324,90663,2,0,P|174:321|136:329,1,65,10|2,0:0|0:0,0:0:0:0:
81,342,91005,5,4,0:0:0:0:
20,226,91348,2,0,P|17:193|29:164,1,65,10|2,0:0|0:0,0:0:0:0:
88,138,91690,2,0,P|115:119|146:114,1,65,2|0,0:0|0:0,0:0:0:0:
209,129,92032,1,8,0:0:0:0:
255,174,92204,2,0,P|292:142|326:68,1,130,2|2,0:0|0:0,0:0:0:0:
445,31,92888,2,0,B|467:80|467:80|437:117|437:117|440:171,1,130,2|0,0:0|0:0,0:0:0:0:
432,209,93417,2,0,B|450:240|450:240|441:278,1,65,10|2,0:0|0:0,0:0:0:0:
434,334,93770,6,0,B|353:334|383:296|285:296,1,130,6|8,0:0|0:0,0:0:0:0:
193,242,94455,2,0,B|274:242|244:204|342:204,1,130,4|8,0:0|0:0,0:0:0:0:
434,152,95141,2,0,B|353:152|383:114|285:114,1,130,4|8,0:0|0:0,0:0:0:0:
193,60,95827,2,0,B|274:60|244:22|342:22,1,130,4|8,0:0|0:0,0:0:0:0:
432,81,96512,6,0,P|446:133|406:223,1,130,4|8,0:0|0:0,0:0:0:0:
443,332,97198,2,0,P|391:346|301:306,1,130,4|8,0:0|0:0,0:0:0:0:
192,343,97884,2,0,P|178:291|218:201,1,130,4|8,0:0|0:0,0:0:0:0:
181,92,98570,2,0,P|233:78|323:118,1,130,4|8,0:0|0:0,0:0:0:0:
407,179,99255,6,0,L|393:328,1,130,4|8,0:0|0:0,0:0:0:0:
272,353,99941,2,0,L|259:223,1,130,4|8,0:0|0:0,0:0:0:0:
168,130,100627,2,0,L|154:279,1,130,4|8,0:0|0:0,0:0:0:0:
33,304,101312,2,0,L|20:174,1,130,4|8,0:0|0:0,0:0:0:0:
82,60,101998,6,0,B|149:51|149:51|193:123,2,130,4|8|4,0:0|0:0|0:0,0:0:0:0:
20,174,103020,2,0,L|86:191,1,65,0|8,3:0|0:0,0:0:0:0:
142,217,103361,2,0,L|208:200,1,65,0|8,3:0|0:0,0:0:0:0:
266,179,103702,2,0,L|332:162,1,65,0|4,3:0|0:0,0:0:0:0:
256,192,104217,12,0,110778,0:0:0:0:
256,192,111611,12,0,117782,0:0:0:0:
