osu file format v14

[General]
AudioFilename: audio.mp3
AudioLeadIn: 0
PreviewTime: 60792
Countdown: 0
SampleSet: Soft
StackLeniency: 0.4
Mode: 0
LetterboxInBreaks: 0
WidescreenStoryboard: 1

[Editor]
DistanceSpacing: 1.1
BeatDivisor: 4
GridSize: 32
TimelineZoom: 2.599999

[Metadata]
Title:Nai Mono Nedari
TitleUnicode:ないものねだり
Artist:KANA-BOON
ArtistUnicode:KANA-BOON
Creator:Fatfan Kolek
Version:INSANE
Source:
Tags:kanaboon kana boon japanese cut ver version square
BeatmapID:2181922
BeatmapSetID:1041915

[Difficulty]
HPDrainRate:5
CircleSize:4
OverallDifficulty:8
ApproachRate:9
SliderMultiplier:1.5
SliderTickRate:1

[Events]
//Background and Video events
0,0,"sasuke wp.jpg",0,0
//Break Periods
//Storyboard Layer 0 (Background)
//Storyboard Layer 1 (Fail)
//Storyboard Layer 2 (Pass)
//Storyboard Layer 3 (Foreground)
//Storyboard Layer 4 (Overlay)
//Storyboard Sound Samples

[TimingPoints]
526,342.857142857143,4,2,1,40,1,0
526,-100,4,2,1,40,0,0
611,-100,4,2,1,5,0,0
697,-100,4,2,1,40,0,0
1297,-100,4,2,1,5,0,0
1383,-100,4,2,1,40,0,0
1983,-100,4,2,1,5,0,0
2068,-100,4,2,1,40,0,0
2668,-100,4,2,1,5,0,0
2754,-100,4,2,1,40,0,0
3354,-100,4,2,1,5,0,0
3440,-100,4,2,1,40,0,0
4040,-100,4,2,1,5,0,0
4126,-100,4,2,1,40,0,0
4726,-100,4,2,1,5,0,0
4811,-100,4,2,1,40,0,0
5411,-100,4,2,1,5,0,0
5497,-100,4,2,1,40,0,0
6268,-100,4,2,1,5,0,0
6354,-100,4,2,1,40,0,0
9011,-100,4,2,1,5,0,0
9097,-100,4,2,1,50,0,0
9354,-100,4,2,1,5,0,0
9440,-100,4,2,1,60,0,0
9697,-100,4,2,1,5,0,0
9783,-100,4,2,1,70,0,0
10040,-100,4,2,1,5,0,0
10126,-100,4,2,1,80,0,0
10383,-100,4,2,1,5,0,0
10447,342.857142857143,4,2,1,80,1,0
11497,342.368045649073,4,2,1,60,1,0
22452,342.857142857143,4,2,1,60,1,0
24680,-133.333333333333,4,2,1,60,0,0
25366,-100,4,2,1,60,0,0
27937,336.134453781513,4,2,1,60,1,0
29281,349.344978165939,4,2,1,60,1,0
30154,-133.333333333333,4,2,1,60,0,0
30680,342.857142857143,4,2,1,60,1,0
31365,-100,4,2,11,60,0,0
33080,-100,4,2,1,60,0,0
41137,-133.333333333333,4,2,1,60,0,0
41994,-100,4,2,1,60,0,0
42337,-100,4,2,11,60,0,0
44394,-100,4,2,1,60,0,0
47137,-100,4,2,11,60,0,0
49194,-66.6666666666667,4,2,1,60,0,0
49880,-200,4,2,1,60,0,0
58108,340.425531914894,4,2,1,70,1,0
58109,-200,4,2,1,70,0,0
58448,-100,4,2,1,70,0,0
58788,-80,4,2,1,70,0,0
59129,-66.6666666666667,4,2,1,70,0,0
59737,-66.6666666666667,4,2,1,5,0,0
59807,342.857142857143,4,2,1,80,1,0
60835,343.24942791762,4,2,1,80,1,1
60835,-80,4,2,1,80,0,1
71389,-100,4,2,1,5,0,1
71475,-100,4,2,1,80,0,1
71818,-86.9565217391304,4,2,2,80,0,1
81429,339.366515837104,4,2,2,80,1,1
81429,-86.9565217391304,4,2,2,80,0,1
82277,-100,4,2,2,80,0,1
82373,-100,4,2,1,5,0,1
82447,342.368045649073,4,2,1,60,1,1
82789,342.368045649073,4,2,1,60,1,0
92888,352.941176470588,4,2,1,60,1,0
93770,342.857142857143,4,2,1,60,1,0
99255,-100,4,2,1,70,0,0
101998,340.909090909091,4,2,1,80,1,0
103016,-80,4,2,1,80,0,0
103872,345.323741007194,4,2,1,80,1,0
111611,342.857142857143,4,2,1,80,1,0
111611,-222.222222222222,4,2,1,80,0,0
117696,-100,4,2,1,5,0,0

[Colours]
Combo1 : 255,211,193
Combo2 : 255,146,94

[HitObjects]
407,314,526,6,0,P|370:312|331:294,1,75,2|2,0:0|0:0,0:0:0:0:
355,219,1211,2,0,P|392:221|431:239,1,75,2|2,0:0|0:0,0:0:0:0:
197,257,1897,6,0,P|234:255|273:237,1,75,2|2,0:0|0:0,0:0:0:0:
249,162,2583,2,0,P|212:164|173:182,1,75,2|2,0:0|0:0,0:0:0:0:
418,124,3268,6,0,L|427:45,1,75,2|2,0:0|0:0,0:0:0:0:
350,42,3954,2,0,L|341:116,1,75,2|2,0:0|0:0,0:0:0:0:
94,124,4640,6,0,L|85:45,1,75,2|2,0:0|0:0,0:0:0:0:
162,42,5326,2,0,L|170:116,1,75,2|2,0:0|0:0,0:0:0:0:
16,246,6011,6,0,P|44:265|101:267,1,75,4|0,3:2|0:0,0:0:0:0:
103,350,6354,2,0,P|133:335|163:286,1,75,0|0,3:0|0:0,0:0:0:0:
283,236,6697,6,0,P|268:205|219:175,1,75,0|0,3:0|0:0,0:0:0:0:
259,102,7040,2,0,P|225:99|174:126,1,75,0|0,3:0|0:0,0:0:0:0:
63,119,7383,6,0,P|60:152|87:203,1,75,0|0,3:0|0:0,0:0:0:0:
16,246,7726,2,0,P|44:265|100:267,1,75,0|0,3:0|0:0,0:0:0:0:
205,345,8068,6,0,P|223:317|225:260,1,75,0|0,3:0|0:0,0:0:0:0:
309,257,8411,2,0,P|294:226|245:196,1,75,0|0,3:0|0:0,0:0:0:0:
169,208,8754,6,0,L|179:95,1,112.5,2|0,3:2|0:0,0:0:0:0:
214,14,9097,2,0,L|204:127,1,112.5,2|0,3:2|0:0,0:0:0:0:
97,90,9440,2,0,P|150:71|214:69,1,112.5,2|0,3:2|0:0,0:0:0:0:
203,175,9783,2,0,P|161:139|130:92,1,112.5,2|0,3:2|0:0,0:0:0:0:
228,38,10126,2,0,P|218:93|192:143,1,112.5,2|0,3:2|0:0,0:0:0:0:
124,210,10447,5,4,0:0:0:0:
322,254,11497,6,0,P|305:287|278:311,1,75,6|2,0:0|0:0,0:0:0:0:
186,347,11839,2,0,P|148:348|112:338,1,75,10|2,0:0|0:0,0:0:0:0:
37,278,12181,2,0,P|16:246|6:209,1,75,2|2,0:0|0:0,0:0:0:0:
24,122,12524,1,8,0:0:0:0:
199,44,12695,6,0,L|187:133,1,75,2|0,0:0|0:0,0:0:0:0:
109,106,13037,2,0,L|118:31,1,75,2|8,0:0|0:0,0:0:0:0:
225,12,13380,2,0,L|204:170,1,150,2|2,0:0|0:0,0:0:0:0:
196,247,13893,1,10,0:0:0:0:
196,247,14064,1,2,0:0:0:0:
205,160,14235,6,0,P|225:128|256:108,1,75
427,187,14578,1,10,0:0:0:0:
334,165,14749,1,2,0:0:0:0:
406,280,14920,1,2,0:0:0:0:
312,259,15091,6,0,L|217:232,1,75,0|8,0:0|0:0,0:0:0:0:
104,301,15434,2,0,L|174:232,1,75,2|0,0:0|0:0,0:0:0:0:
170,97,15776,2,0,L|194:192,1,75,2|8,0:0|0:0,0:0:0:0:
312,259,16118,2,0,P|247:268|203:334,1,150,2|0,0:0|0:0,0:0:0:0:
77,350,16632,1,8,0:0:0:0:
74,327,16718,1,8,0:0:0:0:
71,305,16803,1,8,0:0:0:0:
69,282,16889,1,8,0:0:0:0:
66,260,16974,6,0,P|68:219|88:186,1,75,6|2,0:0|0:0,0:0:0:0:
61,103,17317,2,0,P|97:84|136:85,1,75,10|2,0:0|0:0,0:0:0:0:
194,21,17659,2,0,P|228:43|247:77,1,75,0|0,0:0|0:0,0:0:0:0:
201,162,18001,1,8,0:0:0:0:
291,254,18173,6,0,L|282:333,1,75,2|0,0:0|0:0,0:0:0:0:
378,230,18515,2,0,L|369:304,1,75,2|8,0:0|0:0,0:0:0:0:
484,260,18857,2,0,L|464:89,1,150,2|2,0:0|0:0,0:0:0:0:
455,21,19371,1,10,0:0:0:0:
455,21,19542,1,2,0:0:0:0:
368,79,19713,6,0,P|335:103|290:110,1,75,0|0,0:0|0:0,0:0:0:0:
146,73,20056,1,10,0:0:0:0:
117,187,20227,1,2,0:0:0:0:
223,150,20398,1,2,0:0:0:0:
194,264,20569,6,0,L|275:275,1,75,0|8,0:0|0:0,0:0:0:0:
352,328,20912,2,0,L|433:339,1,75,2|0,0:0|0:0,0:0:0:0:
426,210,21254,2,0,L|345:221,1,75,2|8,0:0|0:0,0:0:0:0:
268,274,21596,2,0,B|215:280|215:280|186:312|186:312|117:320,1,150,2|0,0:0|0:0,0:0:0:0:
7,346,22110,1,8,0:0:0:0:
11,322,22196,1,8,0:0:0:0:
15,300,22281,1,8,0:0:0:0:
21,279,22367,1,8,0:0:0:0:
27,258,22452,6,0,P|57:192|131:151,1,150,4|8,0:0|0:0,0:0:0:0:
205,157,22966,1,0,0:0:0:0:
168,67,23137,2,0,P|193:40|230:28,2,75,0|0|8,0:0|0:0|0:0,0:0:0:0:
158,227,23652,1,0,0:0:0:0:
238,241,23823,1,0,0:0:0:0:
319,255,23994,1,0,0:0:0:0:
298,148,24166,2,0,L|372:137,1,75,8|0,0:0|3:0,0:0:0:0:
384,135,24423,1,0,3:0:0:0:
396,133,24509,1,0,3:0:0:0:
452,48,24680,6,0,L|392:39,1,56.2500021457673,2|8,0:0|0:0,0:0:0:0:
437,58,25023,2,0,L|377:49,1,56.2500021457673,2|0,0:0|0:0,0:0:0:0:
295,33,25366,1,0,0:0:0:0:
193,111,25537,6,0,P|203:162|251:205,1,112.5,8|0,0:0|0:0,0:0:0:0:
268,208,25880,2,0,P|229:209|195:227,1,75,0|0,0:0|0:0,0:0:0:0:
220,311,26223,2,0,P|259:310|293:292,1,75,8|0,0:0|0:0,0:0:0:0:
362,153,26566,6,0,L|370:73,1,75,0|0,0:0|0:0,0:0:0:0:
453,169,26909,2,0,L|461:249,1,75,8|0,0:0|0:0,0:0:0:0:
463,262,27166,1,0,3:0:0:0:
465,280,27252,2,0,P|428:286|392:276,1,75,0|0,3:0|0:0,0:0:0:0:
296,211,27594,2,0,P|259:204|223:214,1,75,8|0,0:0|0:0,0:0:0:0:
163,343,27937,6,0,B|157:290|157:290|125:261|125:261|118:207,1,150,4|8,0:0|0:0,0:0:0:0:
111,118,28441,1,0,0:0:0:0:
42,53,28609,2,0,P|14:77|-1:113,2,75,0|0|8,0:0|0:0|0:0,0:0:0:0:
229,55,29113,1,0,0:0:0:0:
215,136,29281,1,0,0:0:0:0:
201,217,29455,1,0,0:0:0:0:
282,319,29630,2,0,P|319:325|354:312,1,75,8|0,0:0|3:0,0:0:0:0:
361,303,29892,1,0,3:0:0:0:
364,292,29979,1,0,3:0:0:0:
433,213,30154,6,0,P|449:237|455:270,1,56.2500021457673,2|8,0:0|0:0,0:0:0:0:
449,206,30503,2,0,P|465:230|471:263,1,56.2500021457673,2|0,0:0|0:0,0:0:0:0:
473,344,30851,1,0,0:0:0:0:
344,217,31022,6,0,P|350:164|406:102,1,112.5,8|0,0:0|0:0,0:0:0:0:
401,104,31365,2,0,L|312:95,1,75,0|2,0:0|0:2,0:0:0:0:
252,22,31708,2,0,L|199:95,1,75,8|2,0:0|0:2,0:0:0:0:
107,110,32051,2,0,L|143:192,1,75,0|2,0:0|0:2,0:0:0:0:
111,280,32394,2,0,L|200:289,1,75,8|2,0:0|0:2,0:0:0:0:
317,304,32737,1,0,0:0:0:0:
271,191,32908,1,2,0:2:0:0:
391,209,33080,1,8,0:0:0:0:
408,189,33165,1,8,0:0:0:0:
419,165,33251,1,8,0:0:0:0:
424,140,33337,1,8,0:0:0:0:
422,113,33422,6,0,P|396:88|353:81,1,75,6|2,0:0|0:0,0:0:0:0:
274,29,33765,2,0,P|249:55|242:98,1,75,10|2,0:0|0:0,0:0:0:0:
190,177,34108,2,0,P|216:202|259:209,1,75,2|0,0:0|0:0,0:0:0:0:
317,152,34451,1,8,0:0:0:0:
156,88,34622,6,0,L|70:91,1,75,2|0,0:0|0:0,0:0:0:0:
288,27,34965,2,0,L|362:24,1,75,2|8,0:0|0:0,0:0:0:0:
145,105,35308,2,0,L|59:108,1,75,2|0,0:0|0:0,0:0:0:0:
260,177,35651,5,2,0:0:0:0:
235,314,35822,1,10,0:0:0:0:
260,177,35994,1,2,0:0:0:0:
326,284,36165,2,0,P|395:270|446:207,1,150,0|10,0:0|0:0,0:0:0:0:
460,130,36680,1,2,0:0:0:0:
460,130,36851,1,2,0:0:0:0:
327,84,37022,6,0,L|319:5,1,75,0|8,0:0|0:0,0:0:0:0:
247,108,37365,2,0,L|239:29,1,75,2|0,0:0|0:0,0:0:0:0:
167,132,37708,2,0,L|159:53,1,75,2|8,0:0|0:0,0:0:0:0:
55,185,38051,2,0,B|127:181|106:242|217:230,1,150,2|0,0:0|0:0,0:0:0:0:
313,164,38565,1,8,0:0:0:0:
342,164,38651,1,8,0:0:0:0:
371,173,38737,1,8,0:0:0:0:
396,189,38822,1,8,0:0:0:0:
415,212,38908,6,0,L|403:363,1,150,4|8,0:0|0:0,0:0:0:0:
288,292,39422,1,0,0:0:0:0:
188,302,39594,2,0,L|110:310,2,75,0|0|8,0:0|0:0|0:0,0:0:0:0:
288,292,40108,1,0,0:0:0:0:
236,162,40280,5,0,0:0:0:0:
322,184,40451,1,0,0:0:0:0:
382,117,40622,2,0,P|371:81|347:53,1,75,8|0,0:0|3:0,0:0:0:0:
337,48,40880,1,0,3:0:0:0:
325,46,40965,1,0,3:0:0:0:
220,37,41137,6,0,L|157:42,1,56.2500021457673,2|8,0:0|0:0,0:0:0:0:
203,52,41480,2,0,L|140:57,1,56.2500021457673,2|0,0:0|0:0,0:0:0:0:
51,62,41822,1,0,0:0:0:0:
16,185,41994,6,0,P|53:215|121:210,1,112.5,8|0,0:0|3:0,0:0:0:0:
128,200,42337,2,0,P|164:209|184:240,1,75,0|2,3:0|0:2,0:0:0:0:
116,337,42680,2,0,P|80:327|60:296,1,75,8|2,0:0|0:2,0:0:0:0:
251,183,43022,2,0,P|281:162|318:167,1,75,0|2,0:0|0:2,0:0:0:0:
336,257,43365,2,0,P|305:277|268:272,1,75,8|2,0:0|0:2,0:0:0:0:
128,200,43708,5,0,3:0:0:0:
147,73,43880,1,10,0:2:0:0:
128,200,44051,1,0,3:0:0:0:
147,73,44222,1,10,0:2:0:0:
223,156,44394,6,0,P|271:154|350:84,1,150,4|8,0:0|0:0,0:0:0:0:
369,234,44908,1,0,3:0:0:0:
369,234,44994,1,0,3:0:0:0:
369,234,45080,2,0,L|376:312,2,75,0|0|8,3:0|0:0|0:0,0:0:0:0:
432,156,45594,1,0,0:0:0:0:
387,21,45765,5,0,0:0:0:0:
298,26,45937,1,0,0:0:0:0:
262,108,46108,2,0,P|283:138|315:158,1,75,8|0,0:0|3:0,0:0:0:0:
326,160,46365,1,0,3:0:0:0:
337,161,46451,2,0,L|330:239,1,75,0|0,3:0|0:0,0:0:0:0:
322,336,46794,1,8,0:0:0:0:
322,336,46965,1,0,0:0:0:0:
185,241,47137,6,0,P|150:244|114:272,1,75,0|2,3:2|3:2,0:0:0:0:
100,350,47480,1,8,0:0:0:0:
238,312,47651,2,0,P|273:245|249:177,1,150,2|2,3:2|3:2,0:0:0:0:
285,97,48165,6,0,P|264:68|222:51,1,75,8|2,3:2|3:2,0:0:0:0:
148,77,48508,1,0,3:0:0:0:
250,178,48680,2,0,P|324:175|371:120,1,150,2|2,3:2|3:2,0:0:0:0:
402,7,49194,6,0,B|392:215|522:120|493:334,1,337.500012874604,2|0,0:0|0:0,0:0:0:0:
414,349,49880,6,0,L|362:358,1,37.5,4|0,3:2|0:0,0:0:0:0:
401,336,50222,2,0,L|349:345,1,37.5,0|0,3:0|0:0,0:0:0:0:
388,323,50565,2,0,L|336:332,1,37.5,0|0,3:0|0:0,0:0:0:0:
375,310,50908,2,0,L|323:319,1,37.5,0|0,3:0|0:0,0:0:0:0:
249,355,51251,6,0,P|226:349|209:334,1,37.5,4|0,3:2|0:0,0:0:0:0:
130,345,51594,2,0,P|128:321|137:300,1,37.5,0|0,3:0|0:0,0:0:0:0:
103,231,51937,2,0,P|124:222|147:224,1,37.5,0|0,3:0|0:0,0:0:0:0:
201,170,52280,2,0,P|216:187|220:210,1,37.5,0|0,3:0|0:0,0:0:0:0:
272,271,52622,6,0,L|324:280,1,37.5,4|0,3:2|0:0,0:0:0:0:
285,258,52965,2,0,L|337:267,1,37.5,0|0,3:0|0:0,0:0:0:0:
298,245,53308,2,0,L|350:254,1,37.5,0|0,3:0|0:0,0:0:0:0:
311,232,53651,2,0,L|363:241,1,37.5,0|0,3:0|0:0,0:0:0:0:
386,314,53994,6,0,P|407:304|421:286,1,37.5,4|0,3:2|0:0,0:0:0:0:
500,282,54337,2,0,P|497:259|484:240,1,37.5,0|0,3:0|0:0,0:0:0:0:
505,165,54680,2,0,P|482:160|460:166,1,37.5,0|0,3:0|0:0,0:0:0:0:
397,124,55022,2,0,P|385:144|385:167,1,37.5,0|0,3:0|0:0,0:0:0:0:
347,238,55365,6,0,L|295:247,1,37.5,4|0,3:2|0:0,0:0:0:0:
334,225,55708,2,0,L|282:234,1,37.5,0|0,3:0|0:0,0:0:0:0:
321,212,56051,2,0,L|269:221,1,37.5,0|0,3:0|0:0,0:0:0:0:
308,199,56394,2,0,L|256:208,1,37.5,0|0,3:0|0:0,0:0:0:0:
182,244,56737,6,0,P|159:238|142:223,1,37.5,4|0,3:2|0:0,0:0:0:0:
63,234,57080,2,0,P|61:210|70:189,1,37.5,0|0,3:0|0:0,0:0:0:0:
36,120,57422,2,0,P|57:111|80:113,1,37.5,0|0,3:0|0:0,0:0:0:0:
153,89,57765,6,0,P|146:72|134:59,1,37.5,8|0,3:2|0:0,0:0:0:0:
46,32,58108,1,4,0:0:0:0:
302,131,58448,6,0,L|315:46,1,75,0|0,3:0|3:0,0:0:0:0:
329,240,58788,2,0,L|313:339,1,93.75,0|0,3:0|3:0,0:0:0:0:
435,140,59129,2,0,L|454:13,1,112.500004291535,0|0,3:0|3:0,0:0:0:0:
466,280,59469,5,4,0:0:0:0:
202,343,59807,1,8,0:0:0:0:
176,338,59892,1,8,0:0:0:0:
152,327,59978,1,8,0:0:0:0:
131,311,60064,1,8,0:0:0:0:
115,291,60149,1,10,0:0:0:0:
186,17,60835,5,6,0:0:0:0:
229,208,61006,1,2,1:2:0:0:
186,17,61178,1,10,0:2:0:0:
229,208,61349,1,2,1:2:0:0:
109,93,61521,5,2,0:0:0:0:
300,137,61693,1,2,1:2:0:0:
109,93,61864,1,10,0:2:0:0:
300,137,62036,1,2,1:2:0:0:
128,185,62207,6,0,L|32:180,1,93.75,2|2,0:0|1:2,0:0:0:0:
106,348,62551,2,0,L|201:353,1,93.75,10|10,0:2|1:2,0:0:0:0:
322,152,62894,2,0,P|257:173|234:237,1,140.625,2|0,0:0|0:0,0:0:0:0:
243,261,63237,2,0,P|251:219|221:167,1,93.75,10|0,0:2|1:2,0:0:0:0:
58,77,63580,6,0,L|67:174,1,93.75,2|2,0:0|1:2,0:0:0:0:
136,329,63924,2,0,L|145:232,1,93.75,8|2,0:2|1:2,0:0:0:0:
210,53,64267,2,0,L|219:150,1,93.75,0|0,0:0|1:2,0:0:0:0:
288,305,64610,2,0,L|297:208,1,93.75,10|2,0:2|1:2,0:0:0:0:
356,60,64953,6,0,P|374:104|419:128,1,93.75,2|0,0:0|1:2,0:0:0:0:
379,223,65297,2,0,P|331:216|288:243,1,93.75,10|0,0:2|1:2,0:0:0:0:
227,162,65640,2,0,P|256:124|254:73,1,93.75,2|0,0:0|1:2,0:0:0:0:
110,197,65983,1,8,0:2:0:0:
112,207,66069,1,8,0:0:0:0:
114,216,66155,1,8,0:0:0:0:
117,227,66241,1,8,0:0:0:0:
120,237,66326,5,6,0:0:0:0:
162,45,66498,1,2,1:2:0:0:
120,237,66670,1,10,0:2:0:0:
162,45,66841,1,2,1:2:0:0:
43,161,67013,5,2,0:0:0:0:
234,117,67185,1,2,1:2:0:0:
43,161,67356,1,10,0:2:0:0:
234,117,67528,1,2,1:2:0:0:
165,235,67699,6,0,P|199:266|243:275,1,93.75,2|2,0:0|1:2,0:0:0:0:
333,362,68043,2,0,P|377:347|407:313,1,93.75,10|10,0:2|1:2,0:0:0:0:
451,141,68386,2,0,B|402:139|388:159|384:164|381:169|359:193|303:187,1,140.625,2|0,0:0|0:0,0:0:0:0:
289,184,68729,2,0,P|248:158|237:95,1,93.75,10|0,0:2|1:2,0:0:0:0:
118,21,69072,6,0,L|108:128,1,93.75,2|0,0:2|1:2,0:0:0:0:
170,282,69416,2,0,L|179:188,1,93.75,10|0,0:2|1:2,0:0:0:0:
278,58,69759,2,0,B|212:66|212:66|176:106|176:106|109:114,1,187.5,2|10,0:2|0:2,0:0:0:0:
301,310,70445,5,2,3:2:0:0:
327,136,70617,1,8,3:2:0:0:
301,310,70789,2,0,P|269:343|223:352,1,93.75,2|0,3:2|1:2,0:0:0:0:
174,264,71132,2,0,P|205:230|251:221,1,93.75,14|0,0:2|0:0,0:0:0:0:
409,231,71475,1,8,1:2:0:0:
415,237,71561,1,8,0:0:0:0:
422,244,71647,1,8,0:0:0:0:
430,252,71733,1,8,0:0:0:0:
437,259,71818,5,6,1:2:0:0:
374,73,71990,1,2,0:0:0:0:
437,259,72162,1,10,1:2:0:0:
374,73,72333,1,2,0:0:0:0:
332,233,72505,5,2,1:2:0:0:
474,97,72677,1,2,0:0:0:0:
332,233,72848,1,10,1:2:0:0:
474,97,73020,1,2,0:0:0:0:
290,124,73191,6,0,L|201:113,1,86.2500016450882,2|2,1:2|0:0,0:0:0:0:
280,314,73535,2,0,L|365:324,1,86.2500016450882,10|10,1:2|0:2,0:0:0:0:
494,196,73878,2,0,P|462:143|400:130,1,129.375002467632,2|0,1:2|0:0,0:0:0:0:
371,138,74221,2,0,P|368:95|343:62,1,86.2500016450882,10|0,1:2|0:0,0:0:0:0:
169,62,74564,6,0,P|134:39|92:40,1,86.2500016450882,2|2,1:2|0:0,0:0:0:0:
67,129,74908,2,0,P|103:153|145:152,1,86.2500016450882,8|2,1:2|0:0,0:0:0:0:
343,62,75251,6,0,P|379:39|421:40,1,86.2500016450882,0|0,1:2|0:0,0:0:0:0:
445,129,75594,2,0,P|410:153|368:152,1,86.2500016450882,10|2,1:2|0:0,0:0:0:0:
162,292,75937,6,0,P|204:307|248:295,1,86.2500016450882,2|0,1:2|0:0,0:0:0:0:
256,135,76281,2,0,P|221:162|210:206,1,86.2500016450882,10|0,1:2|0:0,0:0:0:0:
342,291,76624,2,0,P|336:246|303:215,1,86.2500016450882,2|0,1:2|0:0,0:0:0:0:
117,218,76967,1,8,1:2:0:0:
113,225,77053,1,8,0:0:0:0:
108,234,77139,1,8,0:0:0:0:
103,244,77225,1,8,0:0:0:0:
99,253,77310,5,6,1:2:0:0:
256,135,77482,1,2,0:0:0:0:
99,253,77654,1,10,1:2:0:0:
256,135,77825,1,2,0:0:0:0:
91,145,77997,5,2,1:2:0:0:
264,238,78169,1,2,0:0:0:0:
91,145,78340,1,10,1:2:0:0:
264,238,78512,1,2,0:0:0:0:
182,91,78683,6,0,L|174:5,1,86.2500016450882,2|2,1:2|0:0,0:0:0:0:
330,91,79027,2,0,L|338:5,1,86.2500016450882,10|10,1:2|0:2,0:0:0:0:
451,162,79370,2,0,B|407:160|395:178|391:182|388:187|368:209|318:203,1,129.375002467632,2|0,1:2|0:0,0:0:0:0:
304,201,79713,2,0,P|265:187|236:148,1,86.2500016450882,10|0,1:2|0:0,0:0:0:0:
124,61,80056,6,0,P|180:70|199:178,1,172.500003290176,2|10,1:2|1:2,0:0:0:0:
151,240,80571,1,0,0:0:0:0:
236,350,80743,2,0,P|279:341|308:309,1,86.2500016450882,2|0,1:2|0:0,0:0:0:0:
403,309,81086,2,0,P|416:267|403:226,1,86.2500016450882,10|0,1:2|0:2,0:0:0:0:
318,185,81429,6,0,P|364:11|441:148,1,431.250008225441,2|0,1:2|0:0,0:0:0:0:
399,261,82447,1,8,0:0:0:0:
387,262,82532,1,8,0:0:0:0:
375,263,82618,1,8,0:0:0:0:
363,264,82703,1,8,0:0:0:0:
350,265,82789,6,0,P|314:273|284:294,1,75,6|2,0:0|0:0,0:0:0:0:
192,358,83131,2,0,P|203:322|199:285,1,75,10|2,0:0|0:0,0:0:0:0:
192,167,83473,2,0,P|217:194|250:210,1,75,2|0,0:0|0:0,0:0:0:0:
334,192,83816,1,8,0:0:0:0:
383,88,83987,6,0,L|374:10,1,75,2|0,0:0|0:0,0:0:0:0:
451,193,84329,2,0,L|460:271,1,75,2|8,0:0|0:0,0:0:0:0:
309,322,84672,2,0,P|292:252|334:192,1,150,2|2,0:0|0:0,0:0:0:0:
451,193,85185,1,10,0:0:0:0:
451,193,85356,1,2,0:0:0:0:
471,85,85527,6,0,P|435:83|392:101,1,75
330,240,85870,1,10,0:0:0:0:
238,240,86041,1,2,0:0:0:0:
220,149,86212,1,2,0:0:0:0:
287,85,86383,6,0,L|301:-21,1,75,0|8,0:0|0:0,0:0:0:0:
132,124,86726,2,0,L|146:231,1,75,2|0,0:0|0:0,0:0:0:0:
299,102,87068,2,0,L|313:-5,1,75,2|8,0:0|0:0,0:0:0:0:
221,228,87410,2,0,P|230:293|296:337,1,150,2|0,0:0|0:0,0:0:0:0:
426,356,87924,1,8,0:0:0:0:
429,333,88010,1,8,0:0:0:0:
432,311,88095,1,8,0:0:0:0:
434,288,88181,1,8,0:0:0:0:
437,266,88266,6,0,P|435:225|415:192,1,75,6|2,0:0|0:0,0:0:0:0:
442,109,88609,2,0,P|406:90|367:91,1,75,10|2,0:0|0:0,0:0:0:0:
309,27,88951,2,0,P|275:49|256:83,1,75,0|0,0:0|0:0,0:0:0:0:
300,171,89293,1,8,0:0:0:0:
223,238,89465,6,0,L|231:312,1,75,2|0,0:0|0:0,0:0:0:0:
149,350,89807,2,0,L|140:276,1,75,2|8,0:0|0:0,0:0:0:0:
72,107,90149,2,0,L|52:278,1,150,2|2,0:0|0:0,0:0:0:0:
152,191,90663,1,10,0:0:0:0:
152,191,90834,1,2,0:0:0:0:
170,99,91005,6,0,P|200:77|236:68,1,75,4|0,0:0|0:0,0:0:0:0:
367,96,91348,1,10,0:0:0:0:
396,210,91519,1,2,0:0:0:0:
290,173,91690,1,2,0:0:0:0:
226,253,91861,6,0,L|215:327,1,75,0|8,0:0|0:0,0:0:0:0:
385,284,92204,2,0,L|395:209,1,75,2|0,0:0|0:0,0:0:0:0:
289,118,92546,2,0,L|299:192,1,75,2|8,0:0|0:0,0:0:0:0:
479,219,92888,2,0,L|458:70,1,150,2|0,0:0|0:0,0:0:0:0:
363,20,93417,2,0,L|373:94,1,75,10|2,0:0|0:0,0:0:0:0:
386,187,93770,5,6,0:0:0:0:
294,346,94112,1,8,0:0:0:0:
268,341,94198,1,8,0:0:0:0:
242,336,94284,1,8,0:0:0:0:
216,331,94370,1,8,0:0:0:0:
191,326,94455,2,0,L|101:308,1,75,4|0,0:0|0:0,0:0:0:0:
43,234,94798,2,0,P|41:215|52:186,3,37.5,8|8|8|8,0:0|0:0|0:0|0:0,0:0:0:0:
66,161,95141,6,0,L|155:143,1,75,4|0,0:0|0:0,0:0:0:0:
243,232,95484,1,8,0:0:0:0:
269,227,95570,1,8,0:0:0:0:
295,222,95655,1,8,0:0:0:0:
321,217,95741,1,8,0:0:0:0:
346,212,95827,2,0,L|435:194,1,75,4|0,0:0|0:0,0:0:0:0:
484,117,96170,2,0,P|486:98|475:69,3,37.5,8|8|8|8,0:0|0:0|0:0|0:0,0:0:0:0:
461,44,96512,5,4,0:0:0:0:
234,35,96855,1,8,0:0:0:0:
232,61,96941,1,8,0:0:0:0:
236,86,97027,1,8,0:0:0:0:
246,110,97112,1,8,0:0:0:0:
262,131,97198,2,0,P|293:151|330:158,1,75,4|0,0:0|0:0,0:0:0:0:
452,198,97541,2,0,L|445:247,3,37.5,8|8|8|8,0:0|0:0|0:0|0:0,0:0:0:0:
439,278,97884,6,0,P|407:257|370:250,1,75,4|0,0:0|0:0,0:0:0:0:
234,281,98227,1,8,0:0:0:0:
232,255,98312,1,8,0:0:0:0:
236,230,98398,1,8,0:0:0:0:
246,206,98484,1,8,0:0:0:0:
262,185,98570,2,0,P|293:164|330:157,1,75,4|0,0:0|0:0,0:0:0:0:
452,118,98912,2,0,L|445:69,3,37.5,8|8|8|8,0:0|0:0|0:0|0:0,0:0:0:0:
439,38,99255,5,4,0:0:0:0:
235,32,99598,1,8,0:0:0:0:
209,37,99684,1,8,0:0:0:0:
183,42,99770,1,8,0:0:0:0:
157,47,99855,1,8,0:0:0:0:
132,52,99941,2,0,L|42:70,1,75,4|0,0:0|0:0,0:0:0:0:
0,151,100284,2,0,L|44:160,3,37.5,8|8|8|8,0:0|0:0|0:0|0:0,0:0:0:0:
79,167,100627,6,0,L|169:185,1,75,4|0,0:0|0:0,0:0:0:0:
210,271,100970,1,8,0:0:0:0:
236,276,101055,1,8,0:0:0:0:
262,281,101141,1,8,0:0:0:0:
288,286,101227,1,8,0:0:0:0:
313,291,101312,2,0,L|403:309,1,75,4|0,0:0|0:0,0:0:0:0:
461,236,101655,2,0,L|452:191,3,37.5,8|8|8|8,0:0|0:0|0:0|0:0,0:0:0:0:
445,157,101998,5,4,0:0:0:0:
310,36,102338,1,8,0:0:0:0:
284,34,102424,1,8,0:0:0:0:
259,38,102509,1,8,0:0:0:0:
235,48,102594,1,8,0:0:0:0:
214,64,102679,2,0,P|194:95|187:132,1,75,4|0,0:0|0:0,0:0:0:0:
293,306,103020,6,0,L|385:321,1,93.75,0|8,3:0|0:0,0:0:0:0:
107,269,103361,2,0,L|14:253,1,93.75,0|8,3:0|0:0,0:0:0:0:
187,355,103702,5,0,3:0:0:0:
221,151,103872,1,4,0:0:0:0:
256,192,104044,12,0,110778,0:0:0:0:
422,342,111611,6,0,B|104:358|104:358|88:40|88:40|406:24|406:24|420:278,1,1198.12496343613,4|0,0:0|0:0,0:0:0:0:
