osu file format v14

[General]
AudioFilename: audio.mp3
AudioLeadIn: 0
PreviewTime: 60792
Countdown: 0
SampleSet: Soft
StackLeniency: 0.5
Mode: 0
LetterboxInBreaks: 0
WidescreenStoryboard: 1

[Editor]
DistanceSpacing: 1.1
BeatDivisor: 4
GridSize: 16
TimelineZoom: 2.599999

[Metadata]
Title:Nai Mono Nedari
TitleUnicode:ないものねだり
Artist:KANA-BOON
ArtistUnicode:KANA-BOON
Creator:Fatfan Kolek
Version:HARD
Source:
Tags:kanaboon kana boon japanese cut ver version square
BeatmapID:2183742
BeatmapSetID:1041915

[Difficulty]
HPDrainRate:4.5
CircleSize:3.8
OverallDifficulty:6.3
ApproachRate:7.5
SliderMultiplier:1.4
SliderTickRate:1

[Events]
//Background and Video events
0,0,"sasuke wp.jpg",0,0
//Break Periods
2,52822,57283
//Storyboard Layer 0 (Background)
//Storyboard Layer 1 (Fail)
//Storyboard Layer 2 (Pass)
//Storyboard Layer 3 (Foreground)
//Storyboard Layer 4 (Overlay)
//Storyboard Sound Samples

[TimingPoints]
526,342.857142857143,4,2,1,40,1,0
526,-133.333333333333,4,2,1,40,0,0
611,-133.333333333333,4,2,1,5,0,0
697,-133.333333333333,4,2,1,40,0,0
1297,-133.333333333333,4,2,1,5,0,0
1383,-133.333333333333,4,2,1,40,0,0
1983,-133.333333333333,4,2,1,5,0,0
2068,-133.333333333333,4,2,1,40,0,0
2668,-133.333333333333,4,2,1,5,0,0
2754,-133.333333333333,4,2,1,40,0,0
3354,-133.333333333333,4,2,1,5,0,0
3440,-133.333333333333,4,2,1,40,0,0
4040,-133.333333333333,4,2,1,5,0,0
4126,-133.333333333333,4,2,1,40,0,0
4726,-133.333333333333,4,2,1,5,0,0
4811,-133.333333333333,4,2,1,40,0,0
5411,-133.333333333333,4,2,1,5,0,0
5497,-133.333333333333,4,2,1,40,0,0
6268,-133.333333333333,4,2,1,5,0,0
6354,-133.333333333333,4,2,1,40,0,0
9011,-133.333333333333,4,2,1,5,0,0
9097,-133.333333333333,4,2,1,50,0,0
9354,-133.333333333333,4,2,1,5,0,0
9440,-133.333333333333,4,2,1,60,0,0
9697,-133.333333333333,4,2,1,5,0,0
9783,-133.333333333333,4,2,1,70,0,0
10040,-133.333333333333,4,2,1,5,0,0
10126,-133.333333333333,4,2,1,80,0,0
10383,-133.333333333333,4,2,1,5,0,0
10447,342.857142857143,4,2,1,80,1,0
11497,342.368045649073,4,2,1,60,1,0
11497,-100,4,2,1,60,0,0
22452,342.857142857143,4,2,1,60,1,0
27937,336.134453781513,4,2,1,60,1,0
29281,349.344978165939,4,2,1,60,1,0
30680,342.857142857143,4,2,1,60,1,0
31194,-100,4,2,1,60,0,0
33080,-100,4,2,1,60,0,0
43022,-100,4,2,1,60,0,0
44394,-100,4,2,1,60,0,0
47137,-100,4,2,1,60,0,0
49880,-100,4,2,1,60,0,0
58108,340.425531914894,4,2,1,70,1,0
59807,342.857142857143,4,2,1,80,1,0
60835,343.24942791762,4,2,1,80,1,1
60835,-100,4,2,1,80,0,1
71389,-100,4,2,1,5,0,1
71475,-100,4,2,1,80,0,1
71818,-100,4,2,2,80,0,1
81429,339.366515837104,4,2,2,80,1,1
82373,-100,4,2,1,5,0,1
82447,342.368045649073,4,2,1,60,1,1
82789,342.368045649073,4,2,1,60,1,0
92888,352.941176470588,4,2,1,60,1,0
93770,342.857142857143,4,2,1,60,1,0
99249,-83.3333333333333,4,2,1,70,0,0
99591,-100,4,2,1,70,0,0
99934,-83.3333333333333,4,2,1,70,0,0
100276,-100,4,2,1,70,0,0
100619,-83.3333333333333,4,2,1,70,0,0
100961,-100,4,2,1,70,0,0
101304,-83.3333333333333,4,2,1,70,0,0
101646,-100,4,2,1,70,0,0
101998,340.909090909091,4,2,1,80,1,0
101998,-76.9230769230769,4,2,1,80,0,0
102331,-100,4,2,1,80,0,0
102674,-76.9230769230769,4,2,1,80,0,0
103872,345.323741007194,4,2,1,80,1,0
111611,342.857142857143,4,2,1,80,1,0
111611,-285.714285714286,4,2,1,80,0,0
117696,-100,4,2,1,5,0,0

[Colours]
Combo1 : 255,211,193
Combo2 : 255,146,94

[HitObjects]
350,166,526,6,0,L|355:102,1,52.5000020027161,2|2,0:0|0:0,0:0:0:0:
338,293,1211,2,0,L|332:356,1,52.5000020027161,2|2,0:0|0:0,0:0:0:0:
280,224,1897,2,0,L|227:219,1,52.5000020027161,2|2,0:0|0:0,0:0:0:0:
408,235,2582,2,0,L|460:239,1,52.5000020027161,2|2,0:0|0:0,0:0:0:0:
280,224,3268,6,0,L|285:287,1,52.5000020027161,2|2,0:0|0:0,0:0:0:0:
268,97,3954,2,0,L|262:33,1,52.5000020027161,2|2,0:0|0:0,0:0:0:0:
210,166,4639,2,0,L|157:170,1,52.5000020027161,2|2,0:0|0:0,0:0:0:0:
338,155,5326,2,0,L|390:150,1,52.5000020027161,2|2,0:0|0:0,0:0:0:0:
210,166,6011,6,0,L|200:57,1,105.000004005432,4|0,3:2|3:0,0:0:0:0:
289,117,6697,2,0,L|298:225,1,105.000004005432,0|0,3:0|3:0,0:0:0:0:
219,270,7383,2,0,L|209:161,1,105.000004005432,0|0,3:0|3:0,0:0:0:0:
298,221,8069,2,0,L|307:329,1,105.000004005432,0|0,3:0|3:0,0:0:0:0:
409,341,8754,6,0,P|443:322|463:288,1,78.7500030040742,2|0,3:2|0:0,0:0:0:0:
487,276,9097,2,0,P|487:237|468:203,1,78.7500030040742,2|0,3:2|0:0,0:0:0:0:
469,176,9440,2,0,P|435:156|396:155,1,78.7500030040742,2|0,3:2|0:0,0:0:0:0:
374,141,9783,2,0,P|340:159|320:193,1,78.7500030040742,2|0,3:2|0:0,0:0:0:0:
295,205,10126,2,0,P|293:243|313:277,1,78.7500030040742,2|0,3:2|0:0,0:0:0:0:
336,298,10447,5,4,0:0:0:0:
54,332,11497,6,0,L|69:179,1,140,6|10,0:0|0:0,0:0:0:0:
75,116,12010,1,2,0:0:0:0:
66,39,12181,2,0,P|32:47|7:71,2,70,2|0|8,0:0|0:0|0:0,0:0:0:0:
139,62,12695,6,0,P|187:76|215:73,1,70,2|0,0:0|0:0,0:0:0:0:
281,57,13037,2,0,L|291:141,1,70,2|8,0:0|0:0,0:0:0:0:
296,203,13380,2,0,P|248:252|180:264,1,140,2|2,0:0|0:0,0:0:0:0:
116,222,13893,1,10,0:0:0:0:
116,222,14064,1,2,0:0:0:0:
46,256,14235,6,0,P|92:309|152:346,1,140,0|10,0:0|0:0,0:0:0:0:
229,347,14749,1,2,0:0:0:0:
305,345,14920,2,0,L|379:339,2,70,2|0|8,0:0|0:0|0:0,0:0:0:0:
273,274,15434,6,0,P|263:233|279:190,1,70,2|0,0:0|0:0,0:0:0:0:
301,136,15776,2,0,P|341:147|370:183,1,70,2|8,0:0|0:0,0:0:0:0:
356,243,16118,2,0,P|423:231|474:183,1,140,2|0,0:0|0:0,0:0:0:0:
495,109,16632,1,8,0:0:0:0:
495,109,16803,1,8,0:0:0:0:
442,53,16974,6,0,L|302:39,1,140,6|10,0:0|0:0,0:0:0:0:
237,79,17487,1,2,0:0:0:0:
230,155,17658,2,0,P|196:147|171:123,2,70,0|0|8,0:0|0:0|0:0,0:0:0:0:
306,144,18172,6,0,P|340:144|373:156,1,70,2|0,0:0|0:0,0:0:0:0:
435,202,18514,2,0,L|426:271,1,70,2|8,0:0|0:0,0:0:0:0:
417,348,18857,2,0,P|353:361|283:314,1,140,2|2,0:0|0:0,0:0:0:0:
262,253,19370,1,10,0:0:0:0:
262,253,19541,1,2,0:0:0:0:
185,265,19713,6,0,P|124:232|102:167,1,140,0|10,0:0|0:0,0:0:0:0:
119,92,20226,1,2,0:0:0:0:
195,86,20397,2,0,L|201:12,2,70,2|0|8,0:0|0:0|0:0,0:0:0:0:
236,151,20911,6,0,P|277:161|320:145,1,70,2|0,0:0|0:0,0:0:0:0:
377,132,21253,2,0,P|399:158|407:192,1,70,2|8,0:0|0:0,0:0:0:0:
395,268,21596,2,0,P|327:279|276:327,1,140,2|0,0:0|0:0,0:0:0:0:
202,348,22110,2,0,P|184:347|167:343,3,35,8|8|8|8,0:0|0:0|0:0|0:0,0:0:0:0:
132,327,22452,6,0,B|160:273|160:273|143:170,1,140,6|8,0:0|0:0,0:0:0:0:
130,119,22966,1,0,0:0:0:0:
179,60,23137,2,0,L|318:73,1,140,2|8,0:0|0:0,0:0:0:0:
395,81,23652,1,2,0:0:0:0:
430,149,23823,2,0,L|500:140,2,70,2|2|10,0:0|0:0|0:0,0:0:0:0:
367,194,24337,1,0,3:0:0:0:
402,262,24509,2,0,B|389:315|389:315|331:350,1,105,2|0,3:2|0:0,0:0:0:0:
311,358,24852,2,0,L|235:347,1,70,10|2,0:0|0:0,0:0:0:0:
166,360,25194,6,0,P|139:336|129:302,1,70,2|0,0:0|0:0,0:0:0:0:
75,248,25537,2,0,P|82:214|105:188,1,70,10|0,0:0|0:0,0:0:0:0:
125,114,25880,2,0,P|157:103|191:111,1,70,2|0,0:0|0:0,0:0:0:0:
268,105,26223,2,0,P|299:91|334:96,1,70,10|0,0:0|0:0,0:0:0:0:
366,166,26566,2,0,P|393:187|407:219,1,70,2|0,0:0|0:0,0:0:0:0:
362,282,26909,2,0,P|357:316|337:344,1,70,10|0,0:0|0:0,0:0:0:0:
259,344,27252,2,0,L|245:184,1,140,2|8,3:2|0:0,0:0:0:0:
261,129,27766,1,0,0:0:0:0:
220,65,27937,6,0,B|174:61|156:86|154:89|152:92|135:116|73:115,1,140,6|8,0:0|0:0,0:0:0:0:
35,166,28441,1,2,0:0:0:0:
52,240,28609,2,0,P|93:295|159:320,1,140,2|8,0:0|0:0,0:0:0:0:
225,282,29113,1,2,0:0:0:0:
302,299,29281,2,0,L|293:372,2,70,2|2|10,0:0|0:0|0:0,0:0:0:0:
312,222,29805,1,0,3:0:0:0:
383,194,29979,2,0,P|409:150|404:99,1,105,2|0,3:2|0:0,0:0:0:0:
380,68,30329,2,0,P|357:51|308:48,1,70,10|2,0:0|0:0,0:0:0:0:
249,90,30680,6,0,P|201:98|112:72,1,140,2|10,0:0|0:0,0:0:0:0:
42,100,31194,1,0,0:2:0:0:
46,176,31365,2,0,L|49:253,1,70,2|0,0:0|0:2,0:0:0:0:
51,323,31708,2,0,L|120:325,1,70,10|0,0:0|0:2,0:0:0:0:
179,274,32051,2,0,P|202:224|281:183,2,140,2|10|2,0:0|0:0|0:0,0:0:0:0:
199,348,32908,1,2,0:2:0:0:
274,362,33080,2,0,P|305:348|329:322,1,70,10|10,0:0|0:0,0:0:0:0:
360,252,33422,6,0,L|345:99,1,140,6|10,0:0|0:0,0:0:0:0:
280,72,33937,1,2,0:0:0:0:
222,126,34108,2,0,P|230:160|254:185,2,70,2|0|8,0:0|0:0|0:0,0:0:0:0:
204,50,34622,2,0,P|171:37|136:37,1,70,2|0,0:0|0:0,0:0:0:0:
59,51,34965,2,0,P|32:73|14:103,1,70,2|8,0:0|0:0,0:0:0:0:
6,178,35308,2,0,P|29:242|87:280,1,140,2|2,0:0|0:0,0:0:0:0:
161,301,35822,1,10,0:0:0:0:
161,301,35994,1,2,0:0:0:0:
229,267,36165,6,0,B|275:263|293:288|295:291|297:294|314:318|376:317,1,140,0|10,0:0|0:0,0:0:0:0:
415,265,36680,1,2,0:0:0:0:
489,283,36851,2,0,L|495:357,2,70,2|0|8,0:0|0:0|0:0,0:0:0:0:
506,207,37365,2,0,P|516:166|500:123,1,70,2|0,0:0|0:0,0:0:0:0:
445,97,37708,2,0,P|405:108|376:144,1,70,2|8,0:0|0:0,0:0:0:0:
336,186,38051,2,0,P|269:174|218:126,1,140,2|0,0:0|0:0,0:0:0:0:
181,58,38565,2,0,P|163:59|146:63,3,35,8|8|8|8,0:0|0:0|0:0|0:0,0:0:0:0:
110,76,38908,6,0,L|98:235,1,140,6|8,0:0|0:0,0:0:0:0:
96,292,39422,1,2,0:0:0:0:
154,342,39594,2,0,P|188:337|217:318,1,70,2|2,0:0|0:0,0:0:0:0:
294,317,39937,2,0,P|322:336|357:340,1,70,10|0,0:0|0:0,0:0:0:0:
428,311,40280,2,0,P|441:264|386:175,1,140,2|10,0:0|0:0,0:0:0:0:
327,168,40794,1,0,3:0:0:0:
334,91,40965,2,0,L|201:73,1,105,2|0,3:2|0:0,0:0:0:0:
204,47,41308,2,0,L|134:56,1,70,10|2,0:0|0:0,0:0:0:0:
62,82,41651,6,0,P|60:118|89:162,1,70,2|0,0:0|0:0,0:0:0:0:
65,224,41994,2,0,P|95:243|147:240,1,70,10|0,0:0|0:0,0:0:0:0:
189,292,42337,2,0,P|221:275|244:228,1,70,2|0,3:2|0:0,0:0:0:0:
309,218,42680,2,0,P|311:182|281:137,1,70,10|0,0:0|0:0,0:0:0:0:
238,101,43022,2,0,P|281:109|367:64,1,140,2|10,0:0|0:0,0:0:0:0:
437,40,43537,1,2,0:2:0:0:
480,103,43708,2,0,L|473:184,1,70,2|8,3:2|0:2,0:0:0:0:
424,232,44051,2,0,L|431:313,1,70,0|8,3:0|0:2,0:0:0:0:
378,358,44394,6,0,P|334:331|235:322,1,140,6|8,0:0|0:0,0:0:0:0:
171,333,44908,1,2,3:2:0:0:
107,289,45080,2,0,L|27:297,2,70,2|0|8,3:2|0:0|0:0,0:0:0:0:
160,233,45594,1,2,0:0:0:0:
115,170,45765,2,0,L|124:97,1,70,2|0,0:0|0:0,0:0:0:0:
183,51,46108,2,0,L|256:60,1,70,10|2,0:0|3:2,0:0:0:0:
297,122,46451,2,0,L|288:195,1,70,2|0,3:2|0:0,0:0:0:0:
229,241,46794,2,0,L|156:232,1,70,10|2,0:0|0:0,0:0:0:0:
104,286,47137,6,0,P|145:342|211:360,1,140,2|10,3:2|0:0,0:0:0:0:
285,337,47651,1,0,3:2:0:0:
357,360,47822,2,0,P|371:323|368:283,1,70,2|0,0:0|3:2,0:0:0:0:
405,224,48165,2,0,P|379:193|343:175,1,70,10|0,3:2|3:2,0:0:0:0:
278,195,48508,2,0,L|291:43,1,140,2|10,3:2|0:0,0:0:0:0:
217,29,49022,1,2,3:2:0:0:
149,65,49194,2,0,L|155:140,1,70,2|0,0:0|0:0,0:0:0:0:
162,211,49537,1,10,0:0:0:0:
256,192,49880,12,0,52622,3:0:0:0:
120,81,58108,6,0,B|166:77|184:102|186:105|188:108|205:132|267:131,1,140,4|0,0:0|3:0,0:0:0:0:
322,112,58618,1,0,3:0:0:0:
390,147,58788,2,0,P|394:182|380:214,1,70,0|0,3:0|3:0,0:0:0:0:
395,289,59129,2,0,P|366:308|332:312,1,70,0|0,3:0|3:0,0:0:0:0:
254,301,59469,5,4,0:0:0:0:
111,338,59807,1,8,0:0:0:0:
106,313,59893,1,8,0:0:0:0:
101,289,59979,1,8,0:0:0:0:
96,264,60065,1,8,0:0:0:0:
91,239,60149,1,10,0:0:0:0:
347,275,60835,6,0,L|354:359,1,70,6|2,0:0|1:2,0:0:0:0:
337,162,61178,2,0,L|329:77,1,70,10|2,0:2|1:2,0:0:0:0:
398,213,61521,2,0,L|482:205,1,70,2|2,0:0|1:2,0:0:0:0:
285,223,61864,2,0,L|200:230,1,70,10|2,0:2|1:2,0:0:0:0:
180,313,62207,6,0,P|116:286|134:218,1,140,2|10,0:0|0:2,0:0:0:0:
172,148,62722,1,10,1:2:0:0:
115,76,62894,2,0,P|145:57|180:56,1,70,2|0,0:0|1:2,0:0:0:0:
262,19,63237,2,0,P|292:35|311:66,1,70,10|0,0:2|1:2,0:0:0:0:
281,151,63580,6,0,B|335:179|335:179|440:162,1,140,2|8,0:0|0:2,0:0:0:0:
477,230,64095,1,2,1:2:0:0:
464,320,64267,2,0,L|372:308,1,70,0|0,0:0|1:2,0:0:0:0:
315,265,64610,2,0,L|245:274,1,70,10|2,0:2|1:2,0:0:0:0:
183,340,64953,6,0,P|146:338|105:309,1,70,2|0,0:0|1:2,0:0:0:0:
54,256,65297,2,0,P|41:221|52:172,1,70,10|0,0:2|1:2,0:0:0:0:
80,104,65640,2,0,P|107:78|156:69,1,70,2|0,0:0|1:2,0:0:0:0:
228,81,65983,1,8,0:2:0:0:
234,111,66069,1,8,0:0:0:0:
241,141,66155,1,8,0:0:0:0:
247,171,66241,1,8,0:0:0:0:
253,200,66326,6,0,P|269:231|298:251,1,70,6|2,0:0|1:2,0:0:0:0:
350,327,66670,2,0,P|380:311|400:282,1,70,10|2,0:2|1:2,0:0:0:0:
476,230,67013,2,0,P|460:199|431:179,1,70,2|2,0:0|1:2,0:0:0:0:
379,104,67356,2,0,P|348:119|328:148,1,70,10|2,0:2|1:2,0:0:0:0:
253,200,67699,6,0,P|269:231|376:263,1,140,2|10,0:0|0:2,0:0:0:0:
441,223,68214,1,10,1:2:0:0:
466,135,68386,2,0,L|456:61,1,70,2|0,0:0|1:2,0:0:0:0:
379,17,68729,2,0,L|309:26,1,70,10|0,0:2|1:2,0:0:0:0:
255,100,69072,6,0,P|252:134|240:167,1,70,2|0,0:2|1:2,0:0:0:0:
156,203,69416,2,0,P|123:189|96:167,1,70,10|0,0:2|1:2,0:0:0:0:
33,101,69759,2,0,P|95:74|160:101,1,140,2|10,0:2|0:2,0:0:0:0:
235,265,70445,5,2,3:2:0:0:
215,354,70617,1,8,3:2:0:0:
304,337,70789,2,0,L|384:323,1,70,2|0,3:2|1:2,0:0:0:0:
459,350,71132,2,0,P|465:315|454:282,1,70,14|0,0:2|0:0,0:0:0:0:
377,234,71475,1,8,1:2:0:0:
383,204,71561,1,8,0:0:0:0:
390,174,71647,1,8,0:0:0:0:
396,144,71733,1,8,0:0:0:0:
403,114,71818,6,0,L|419:29,1,70,6|2,1:2|0:0,0:0:0:0:
296,93,72162,2,0,L|308:161,1,70,10|2,1:2|0:0,0:0:0:0:
201,97,72505,2,0,L|217:12,1,70,2|2,1:2|0:0,0:0:0:0:
94,76,72849,2,0,L|106:144,1,70,10|2,1:2|0:0,0:0:0:0:
67,227,73191,6,0,P|60:296|129:312,1,140,2|10,1:2|1:2,0:0:0:0:
203,286,73706,1,10,0:2:0:0:
272,344,73878,2,0,P|291:314|292:279,1,70,2|0,1:2|0:0,0:0:0:0:
344,205,74221,2,0,P|328:175|297:156,1,70,10|0,1:2|0:0,0:0:0:0:
210,181,74564,6,0,B|179:120|179:120|232:41,1,140,2|8,1:2|1:2,0:0:0:0:
304,28,75079,1,2,0:0:0:0:
391,55,75251,2,0,L|402:144,1,70,0|0,1:2|0:0,0:0:0:0:
467,189,75594,2,0,L|458:259,1,70,10|2,1:2|0:0,0:0:0:0:
418,340,75937,6,0,P|381:338|340:309,1,70,2|0,1:2|0:0,0:0:0:0:
263,342,76281,2,0,P|238:314|229:264,1,70,10|0,1:2|0:0,0:0:0:0:
151,233,76624,2,0,P|153:195|182:155,1,70,2|0,1:2|0:0,0:0:0:0:
225,96,76967,1,8,1:2:0:0:
255,102,77053,1,8,0:0:0:0:
285,109,77139,1,8,0:0:0:0:
315,115,77225,1,8,0:0:0:0:
344,121,77310,6,0,P|375:137|395:166,1,70,6|2,1:2|0:0,0:0:0:0:
467,221,77654,2,0,P|461:255|439:283,1,70,10|2,1:2|0:0,0:0:0:0:
409,368,77997,2,0,P|374:373|341:361,1,70,2|2,1:2|0:0,0:0:0:0:
251,358,78340,2,0,P|235:326|236:291,1,70,10|2,1:2|0:0,0:0:0:0:
210,204,78683,6,0,P|266:163|335:164,1,140,2|10,1:2|1:2,0:0:0:0:
407,220,79198,1,10,0:2:0:0:
444,136,79370,2,0,L|435:63,1,70,2|0,1:2|0:0,0:0:0:0:
349,35,79713,2,0,L|276:44,1,70,10|0,1:2|0:0,0:0:0:0:
188,39,80056,6,0,B|141:39|126:66|124:69|123:72|108:98|47:104,1,140,2|10,1:2|1:2,0:0:0:0:
28,184,80571,1,0,0:0:0:0:
54,271,80743,2,0,P|88:271|121:258,1,70,2|0,1:2|0:0,0:0:0:0:
200,213,81086,2,0,P|218:242|223:276,1,70,10|0,1:2|0:2,0:0:0:0:
247,365,81429,2,0,L|294:16,1,350,2|0,1:2|0:0,0:0:0:0:
375,39,82447,2,0,P|376:57|383:73,3,35,8|8|8|8,0:0|0:0|0:0|0:0,0:0:0:0:
403,104,82789,6,0,B|416:174|416:174|381:248,1,140,6|10,0:0|0:0,0:0:0:0:
317,270,83302,1,2,0:0:0:0:
349,339,83473,2,0,P|378:355|430:353,2,70,2|0|8,0:0|0:0|0:0,0:0:0:0:
271,334,83987,6,0,L|201:344,1,70,2|0,0:0|0:0,0:0:0:0:
142,294,84329,2,0,L|152:210,1,70,2|8,0:0|0:0,0:0:0:0:
208,173,84672,2,0,L|224:33,1,140,2|2,0:0|0:0,0:0:0:0:
148,48,85185,1,10,0:0:0:0:
148,48,85356,1,2,0:0:0:0:
73,24,85527,6,0,B|35:86|35:86|64:159,1,140,0|10,0:0|0:0,0:0:0:0:
94,217,86041,1,2,0:0:0:0:
71,290,86212,2,0,L|-3:296,2,70,2|0|8,0:0|0:0|0:0,0:0:0:0:
127,340,86726,6,0,P|161:350|195:344,1,70,2|0,0:0|0:0,0:0:0:0:
270,361,87068,2,0,P|295:337|307:304,1,70,2|8,0:0|0:0,0:0:0:0:
296,228,87410,2,0,P|314:158|370:111,1,140,2|0,0:0|0:0,0:0:0:0:
440,118,87924,1,8,0:0:0:0:
440,118,88095,1,8,0:0:0:0:
414,45,88266,6,0,L|274:31,1,140,6|10,0:0|0:0,0:0:0:0:
201,54,88780,1,2,0:0:0:0:
186,129,88951,2,0,P|211:152|244:160,2,70,0|0|8,0:0|0:0|0:0,0:0:0:0:
125,80,89465,6,0,P|91:80|58:92,1,70,2|0,0:0|0:0,0:0:0:0:
6,150,89807,2,0,L|15:219,1,70,2|8,0:0|0:0,0:0:0:0:
67,275,90149,2,0,P|125:239|193:252,1,140,2|2,0:0|0:0,0:0:0:0:
247,307,90663,1,10,0:0:0:0:
247,307,90834,1,2,0:0:0:0:
314,344,91005,6,0,L|331:203,1,140,4|10,0:0|0:0,0:0:0:0:
342,128,91519,1,2,0:0:0:0:
396,74,91690,2,0,P|430:78|469:101,2,70,2|0|8,0:0|0:0|0:0,0:0:0:0:
328,35,92204,6,0,P|298:53|277:81,1,70,2|0,0:0|0:0,0:0:0:0:
207,112,92546,2,0,P|208:146|222:178,1,70,2|8,0:0|0:0,0:0:0:0:
213,255,92888,2,0,P|274:287|342:295,1,140,2|0,0:0|0:0,0:0:0:0:
391,355,93417,2,0,P|423:340|447:315,1,70,10|2,0:0|0:0,0:0:0:0:
477,241,93770,5,6,0:0:0:0:
371,106,94112,2,0,L|324:111,3,35,8|8|8|8,0:0|0:0|0:0|0:0,0:0:0:0:
302,130,94455,2,0,P|326:155|342:186,1,70,4|0,0:0|0:0,0:0:0:0:
477,241,94798,2,0,L|494:198,3,35,8|8|8|8,0:0|0:0|0:0|0:0,0:0:0:0:
491,170,95141,2,0,P|457:179|421:176,1,70,4|0,0:0|0:0,0:0:0:0:
311,274,95484,2,0,L|339:311,3,35,8|8|8|8,0:0|0:0|0:0|0:0,0:0:0:0:
366,321,95827,2,0,P|375:288|394:258,1,70,4|0,0:0|0:0,0:0:0:0:
450,102,96170,6,0,L|447:58,3,35,8|8|8|8,0:0|0:0|0:0|0:0,0:0:0:0:
424,35,96512,2,0,L|329:48,1,70,4|0,0:0|0:0,0:0:0:0:
227,107,96855,2,0,L|230:151,3,35,8|8|8|8,0:0|0:0|0:0|0:0,0:0:0:0:
253,174,97198,2,0,L|348:161,1,70,4|0,0:0|0:0,0:0:0:0:
450,246,97541,2,0,L|447:290,3,35,8|8|8|8,0:0|0:0|0:0|0:0,0:0:0:0:
424,313,97884,2,0,L|329:300,1,70,4|0,0:0|0:0,0:0:0:0:
227,241,98227,2,0,L|230:197,3,35,8|8|8|8,0:0|0:0|0:0|0:0,0:0:0:0:
253,174,98570,2,0,L|348:187,1,70,4|0,0:0|0:0,0:0:0:0:
468,194,98912,6,0,P|463:179|449:164,3,35,8|8|8|8,0:0|0:0|0:0|0:0,0:0:0:0:
445,117,99255,2,0,P|400:98|343:117,1,83.9999974365235,4|0,0:0|0:0,0:0:0:0:
296,8,99598,2,0,P|281:12|266:26,3,35,8|8|8|8,0:0|0:0|0:0|0:0,0:0:0:0:
221,30,99941,2,0,P|202:74|221:131,1,83.9999974365235,4|0,0:0|0:0,0:0:0:0:
110,177,100284,2,0,P|114:191|128:206,3,35,8|8|8|8,0:0|0:0|0:0|0:0,0:0:0:0:
133,253,100627,2,0,P|177:271|234:252,1,83.9999974365235,4|0,0:0|0:0,0:0:0:0:
280,364,100970,2,0,P|294:359|309:345,3,35,8|8|8|8,0:0|0:0|0:0|0:0,0:0:0:0:
357,341,101312,2,0,P|375:296|356:239,1,83.9999974365235,4|0,0:0|0:0,0:0:0:0:
328,151,101655,6,0,L|379:143,3,35,8|8|8|8,0:0|0:0|0:0|0:0,0:0:0:0:
413,135,101998,2,0,L|507:120,1,90.9999958343508,4|0,0:0|0:0,0:0:0:0:
404,267,102338,2,0,L|353:259,3,35,8|8|8|8,0:0|0:0|0:0|0:0,0:0:0:0:
319,251,102679,2,0,L|225:236,1,90.9999958343508,4|0,0:0|0:0,0:0:0:0:
92,297,103020,6,0,P|69:258|71:206,1,90.9999958343508,0|8,3:0|0:0,0:0:0:0:
7,133,103361,2,0,P|28:94|75:69,1,90.9999958343508,0|8,3:0|0:0,0:0:0:0:
168,71,103702,1,0,3:0:0:0:
168,71,103872,1,4,0:0:0:0:
256,192,104044,12,0,110778,0:0:0:0:
422,192,111611,6,0,B|256:23|256:23|87:192|87:192|255:358|255:358|374:240,1,869.749973457337,4|0,0:0|0:0,0:0:0:0:
