osu file format v14

[General]
AudioFilename: audio.mp3
AudioLeadIn: 0
PreviewTime: 48905
Countdown: 0
SampleSet: Soft
StackLeniency: 0.7
Mode: 0
LetterboxInBreaks: 0
WidescreenStoryboard: 0

[Editor]
DistanceSpacing: 0.3
BeatDivisor: 4
GridSize: 32
TimelineZoom: 1.7

[Metadata]
Title:Massara (TV Size)
TitleUnicode:まっさら (TV Size)
Artist:KANA-BOON
ArtistUnicode:KANA-BOON
Creator:Parad0xa
Version:Desire
Source:さらざんまい
Tags:㋐ ア a opening op kanaboon tsunagaru 繋がる tsunagari 繋がり sarazanmai anime japanese j-pop pop kappa dish plate hausenberg Asahina Oleshev ryxliee esutarosa froskya revialink
BeatmapID:3150989
BeatmapSetID:1541456

[Difficulty]
HPDrainRate:5.6
CircleSize:4.2
OverallDifficulty:9
ApproachRate:9.4
SliderMultiplier:1.8
SliderTickRate:1

[Events]
//Background and Video events
0,0,"bg.jpg",0,0
//Break Periods
//Storyboard Layer 0 (Background)
//Storyboard Layer 1 (Fail)
//Storyboard Layer 2 (Pass)
//Storyboard Layer 3 (Foreground)
//Storyboard Layer 4 (Overlay)
//Storyboard Sound Samples

[TimingPoints]
516,288.461538461538,4,2,2,50,1,0
516,-250,4,2,2,50,0,0
1669,-83.3333333333333,4,2,2,60,0,0
1814,-100,4,2,2,60,0,0
2030,-100,4,2,2,5,0,0
2102,-100,4,2,2,60,0,0
2318,-100,4,2,2,5,0,0
2390,-100,4,2,2,60,0,0
2823,-83.3333333333333,4,2,1,70,0,0
3112,-100,4,2,1,70,0,0
7439,-83.3333333333333,4,2,2,70,0,0
7727,-100,4,2,2,70,0,0
9746,-83.3333333333333,4,2,1,70,0,0
10035,-83.3333333333333,4,2,2,70,0,0
10179,-90.9090909090909,4,2,1,70,0,0
10323,-90.9090909090909,4,2,2,70,0,0
10612,-100,4,2,1,70,0,0
10900,-90.9090909090909,4,2,1,70,0,0
11189,-90.9090909090909,4,2,2,70,0,0
11333,-100,4,2,1,70,0,0
11477,-100,4,2,2,70,0,0
12054,-125,4,2,1,60,0,0
13424,-125,4,2,1,5,0,0
13496,-125,4,2,1,60,0,0
14290,-125,4,2,1,5,0,0
14362,-125,4,2,1,60,0,0
15732,-125,4,2,1,5,0,0
15804,-125,4,2,1,60,0,0
16597,-125,4,2,1,5,0,0
16669,-125,4,2,1,60,0,0
18905,-125,4,2,1,5,0,0
18977,-125,4,2,1,60,0,0
20059,-125,4,2,1,5,0,0
20131,-125,4,2,1,60,0,0
22655,-125,4,2,1,5,0,0
22727,-125,4,2,1,60,0,0
23520,-125,4,2,1,5,0,0
23592,-125,4,2,1,60,0,0
24963,-125,4,2,1,5,0,0
25035,-125,4,2,1,60,0,0
25828,-125,4,2,1,5,0,0
25900,-125,4,2,1,60,0,0
28136,-125,4,2,1,5,0,0
28208,-125,4,2,1,60,0,0
29073,-125,4,2,2,60,0,0
29290,-125,4,2,2,5,0,0
29362,-125,4,2,2,60,0,0
30515,-90.9090909090909,4,2,1,65,0,0
30948,-111.111111111111,4,2,1,65,0,0
31597,-111.111111111111,4,2,1,5,0,0
31669,-111.111111111111,4,2,1,65,0,0
32751,-111.111111111111,4,2,1,5,0,0
32823,-111.111111111111,4,2,1,65,0,0
33905,-111.111111111111,4,2,1,5,0,0
33977,-111.111111111111,4,2,1,65,0,0
35131,-90.9090909090909,4,2,1,65,0,0
35347,-90.9090909090909,4,2,1,5,0,0
35419,-111.111111111111,4,2,1,65,0,0
36213,-111.111111111111,4,2,1,5,0,0
36285,-111.111111111111,4,2,1,65,0,0
37366,-111.111111111111,4,2,1,5,0,0
37439,-90.9090909090909,4,2,1,65,0,0
37871,-111.111111111111,4,2,1,65,0,0
39097,-111.111111111111,4,2,1,5,0,0
39169,-111.111111111111,4,2,1,65,0,0
39746,-100,4,2,1,50,0,0
40035,-142.857142857143,4,2,1,50,0,0
42054,-100,4,2,1,50,0,0
42342,-142.857142857143,4,2,1,50,0,0
44362,-90.9090909090909,4,2,1,60,0,0
44578,-90.9090909090909,4,2,1,5,0,0
44650,-111.111111111111,4,2,1,60,0,0
44939,-90.9090909090909,4,2,1,60,0,0
45155,-90.9090909090909,4,2,1,5,0,0
45227,-111.111111111111,4,2,1,60,0,0
45515,-90.9090909090909,4,2,1,60,0,0
45732,-90.9090909090909,4,2,1,5,0,0
45804,-111.111111111111,4,2,1,60,0,0
46092,-90.9090909090909,4,2,1,60,0,0
46309,-90.9090909090909,4,2,1,5,0,0
46381,-111.111111111111,4,2,1,60,0,0
46814,-90.9090909090909,4,2,1,70,0,0
47102,-111.111111111111,4,2,1,70,0,0
47246,-90.9090909090909,4,2,1,70,0,0
47535,-111.111111111111,4,2,1,70,0,0
47679,-90.9090909090909,4,2,1,70,0,0
47967,-111.111111111111,4,2,1,70,0,0
48112,-90.9090909090909,4,2,1,70,0,0
48977,-76.9230769230769,4,2,1,80,0,1
49193,-76.9230769230769,4,2,1,5,0,1
49265,-90.9090909090909,4,2,1,80,0,1
49770,-90.9090909090909,4,2,1,5,0,1
49842,-90.9090909090909,4,2,1,80,0,1
50347,-90.9090909090909,4,2,1,5,0,1
50419,-90.9090909090909,4,2,1,80,0,1
51285,-76.9230769230769,4,2,1,80,0,1
51501,-76.9230769230769,4,2,1,5,0,1
51573,-90.9090909090909,4,2,1,80,0,1
52078,-90.9090909090909,4,2,1,5,0,1
52150,-90.9090909090909,4,2,1,80,0,1
52655,-90.9090909090909,4,2,1,5,0,1
52727,-90.9090909090909,4,2,1,80,0,1
53592,-76.9230769230769,4,2,2,80,0,1
53809,-76.9230769230769,4,2,2,5,0,1
53881,-90.9090909090909,4,2,2,80,0,1
54963,-90.9090909090909,4,2,2,5,0,1
55035,-90.9090909090909,4,2,2,80,0,1
55900,-76.9230769230769,4,2,2,80,0,1
56116,-76.9230769230769,4,2,2,5,0,1
56189,-90.9090909090909,4,2,2,80,0,1
57270,-90.9090909090909,4,2,2,5,0,1
57342,-90.9090909090909,4,2,2,80,0,1
58136,-90.9090909090909,4,2,2,80,0,0
58208,-76.9230769230769,4,2,1,80,0,1
58424,-76.9230769230769,4,2,1,5,0,1
58496,-90.9090909090909,4,2,1,80,0,1
59001,-90.9090909090909,4,2,1,5,0,1
59073,-90.9090909090909,4,2,1,80,0,1
59578,-90.9090909090909,4,2,1,5,0,1
59650,-90.9090909090909,4,2,1,80,0,1
60515,-76.9230769230769,4,2,1,80,0,1
60732,-76.9230769230769,4,2,1,5,0,1
60804,-90.9090909090909,4,2,1,80,0,1
61309,-90.9090909090909,4,2,1,5,0,1
61381,-90.9090909090909,4,2,1,80,0,1
61886,-90.9090909090909,4,2,1,5,0,1
61958,-90.9090909090909,4,2,1,80,0,1
62823,-76.9230769230769,4,2,1,80,0,1
63040,-76.9230769230769,4,2,1,5,0,1
63112,-90.9090909090909,4,2,1,80,0,1
64193,-90.9090909090909,4,2,1,5,0,1
64265,-90.9090909090909,4,2,1,80,0,1
65131,-76.9230769230769,4,2,1,80,0,1
65347,-76.9230769230769,4,2,1,5,0,1
65419,-90.9090909090909,4,2,1,80,0,1
66501,-90.9090909090909,4,2,1,5,0,1
66573,-90.9090909090909,4,2,1,80,0,1
67439,-76.9230769230769,4,2,2,80,0,1
67655,-76.9230769230769,4,2,2,5,0,1
67727,-90.9090909090909,4,2,2,80,0,1
68232,-90.9090909090909,4,2,2,5,0,1
68304,-90.9090909090909,4,2,2,80,0,1
68809,-90.9090909090909,4,2,2,5,0,1
68881,-90.9090909090909,4,2,2,80,0,1
69746,-76.9230769230769,4,2,2,80,0,1
69963,-76.9230769230769,4,2,2,5,0,1
70035,-90.9090909090909,4,2,2,80,0,1
70540,-90.9090909090909,4,2,2,5,0,1
70612,-90.9090909090909,4,2,2,80,0,1
71116,-90.9090909090909,4,2,2,5,0,1
71189,-90.9090909090909,4,2,2,80,0,1
72054,-76.9230769230769,4,2,2,80,0,1
72270,-76.9230769230769,4,2,2,5,0,1
72342,-90.9090909090909,4,2,2,80,0,1
73424,-90.9090909090909,4,2,2,5,0,1
73496,-90.9090909090909,4,2,2,80,0,1
74362,-76.9230769230769,4,2,2,80,0,1
74578,-76.9230769230769,4,2,2,5,0,1
74650,-90.9090909090909,4,2,2,80,0,1
76309,-90.9090909090909,4,2,2,5,0,1
76381,-90.9090909090909,4,2,2,80,0,1
76669,-83.3333333333333,4,2,1,70,0,0
76886,-83.3333333333333,4,2,1,5,0,0
76958,-100,4,2,1,70,0,0
78977,-83.3333333333333,4,2,1,70,0,0
79193,-83.3333333333333,4,2,1,5,0,0
79265,-100,4,2,1,70,0,0
80347,-100,4,2,1,5,0,0
80419,-100,4,2,1,70,0,0
81285,-83.3333333333333,4,2,1,70,0,0
81501,-83.3333333333333,4,2,1,5,0,0
81573,-100,4,2,1,70,0,0
82943,-100,4,2,1,5,0,0
83015,-100,4,2,1,70,0,0
83592,-83.3333333333333,4,2,1,70,0,0
83809,-83.3333333333333,4,2,1,5,0,0
83881,-100,4,2,1,70,0,0
85900,301.507537688442,4,2,1,50,1,0
85900,-250,4,2,1,50,0,0
87106,288.461538461538,4,2,1,60,1,0
87106,-83.3333333333333,4,2,1,60,0,0
87250,-100,4,2,1,60,0,0
87466,-100,4,2,1,5,0,0
87538,-100,4,2,1,60,0,0
87755,-100,4,2,1,5,0,0
87827,-100,4,2,1,60,0,0

[Colours]
Combo1 : 240,170,130
Combo2 : 231,221,232
Combo3 : 150,110,160
Combo4 : 210,130,150

[HitObjects]
74,136,516,6,0,B|50:121|27:130|27:130|119:90|93:187|191:149,1,216,4|4,1:0|0:0,0:0:0:0:
187,141,1669,6,0,P|172:165|172:194,1,53.9999983520508,10|0,1:2|0:0,0:0:0:0:
251,226,1814,6,0,P|188:236|93:253,1,135,10|0,1:2|0:0,0:0:0:0:
14,319,2102,6,0,B|46:297|40:259|40:259|49:311|91:320,1,135,10|0,0:0|0:0,0:0:0:0:
131,368,2390,1,10,0:0:0:0:
411,193,2823,6,0,B|356:176|330:225|330:225|330:270|295:290,1,161.999995056153,4|2,1:0|0:0,0:0:0:0:
251,226,3112,2,0,P|242:177|234:128,1,90,10|2,1:2|0:0,0:0:0:0:
152,359,3400,5,2,1:2:0:0:
210,300,3544,1,2,0:0:0:0:
9,208,3689,5,10,1:2:0:0:
74,313,3833,1,2,0:0:0:0:
251,226,3977,5,2,1:2:0:0:
188,177,4121,1,2,0:0:0:0:
80,238,4265,1,10,1:2:0:0:
210,300,4410,2,0,P|258:290|308:282,1,90,2|0,0:0|1:2,0:0:0:0:
360,156,4698,2,0,B|319:194|347:250|361:236|400:282|363:337,1,180,2|0,0:0|0:0,0:0:0:0:
493,158,5131,6,0,P|435:147|358:134,1,135,2|2,1:2|0:0,0:0:0:0:
282,104,5419,2,0,P|315:64|351:53,1,90,10|2,1:2|0:0,0:0:0:0:
126,0,5708,5,2,1:2:0:0:
162,75,5852,1,2,0:0:0:0:
261,231,5996,5,10,1:2:0:0:
288,121,6140,1,2,0:0:0:0:
19,119,6285,5,2,1:2:0:0:
82,70,6429,1,2,0:0:0:0:
210,137,6573,1,10,1:2:0:0:
90,250,6717,2,0,P|42:240|-8:232,1,90,2|0,0:0|1:2,0:0:0:0:
128,320,7006,1,2,0:0:0:0:
277,218,7150,5,8,1:2:0:0:
325,201,7222,1,8,0:0:0:0:
368,209,7294,1,8,0:0:0:0:
403,237,7366,1,8,0:0:0:0:
419,279,7439,6,0,P|432:204|448:109,1,161.999995056153,4|2,1:0|0:0,0:0:0:0:
434,35,7727,2,0,B|480:28|480:28|507:60,1,90,14|2,1:2|0:0,0:0:0:0:
380,193,8015,5,6,1:2:0:0:
350,114,8159,1,2,0:0:0:0:
250,0,8304,5,14,1:2:0:0:
197,111,8448,1,2,0:0:0:0:
348,269,8592,5,6,1:2:0:0:
285,220,8736,1,2,0:0:0:0:
143,334,8881,1,14,1:2:0:0:
207,271,9025,2,0,B|180:238|180:238|133:245,1,90,10|4,0:0|1:2,0:0:0:0:
43,384,9314,2,0,B|72:296|72:296|39:241|-12:272,1,180,2|8,0:0|0:0,0:0:0:0:
81,112,9746,6,0,B|62:103|40:112|40:112|125:66|114:162|203:125,1,215.999993408203,6|12,1:2|1:2,0:0:0:0:
310,166,10179,2,0,B|300:238|224:245|201:217|201:217|232:219|259:196,1,198.000006042481,6|0,1:2|1:0,0:0:0:0:
171,60,10612,2,0,P|215:68|259:75,1,90,14|0,1:2|0:0,0:0:0:0:
407,54,10900,6,0,P|326:54|297:157,1,198.000006042481,6|4,1:2|1:2,0:0:0:0:
470,102,11333,2,0,P|485:60|472:10,1,90,6|14,1:2|1:2,0:0:0:0:
294,152,11621,1,8,0:0:0:0:
318,147,11693,1,8,0:0:0:0:
342,143,11765,1,10,1:2:0:0:
180,43,11910,1,8,0:0:0:0:
212,141,12054,6,0,P|222:76|238:-9,1,144,4|8,1:0|0:2,0:0:0:0:
123,102,12487,1,2,0:0:0:0:
138,176,12631,2,0,B|118:146|118:146|130:112,1,72,2|2,1:2|1:2,0:0:0:0:
38,233,12919,1,10,0:2:0:0:
40,227,13064,1,2,0:0:0:0:
141,371,13208,6,0,P|133:324|122:263,1,108,2|0,1:2|0:0,0:0:0:0:
116,247,13496,2,0,B|149:261|149:261|180:243,1,72,8|0,0:2|0:0,0:0:0:0:
273,377,13785,1,2,1:2:0:0:
209,330,13929,1,0,1:0:0:0:
327,203,14073,2,0,P|336:256|345:309,1,108,10|0,0:2|0:0,0:0:0:0:
351,326,14362,6,0,B|380:357|423:335|412:325|447:295|490:323,1,144,2|8,1:2|0:2,0:0:0:0:
414,243,14794,1,2,0:0:0:0:
435,164,14939,2,0,P|428:200|422:237,1,72,2|2,1:2|1:2,0:0:0:0:
329,113,15227,1,10,0:2:0:0:
333,107,15372,1,2,0:2:0:0:
267,13,15515,6,0,P|257:66|248:119,1,108,2|0,1:2|0:0,0:0:0:0:
236,133,15804,2,0,P|196:136|163:107,1,72,8|0,0:2|0:0,0:0:0:0:
41,16,16092,1,2,1:2:0:0:
78,84,16236,1,0,1:0:0:0:
0,207,16381,2,0,P|45:173|111:183,1,108,10|0,0:2|0:0,0:0:0:0:
105,193,16669,6,0,B|130:216|162:241|162:241|139:269|117:307,1,144,2|10,1:2|0:2,0:0:0:0:
51,356,17102,2,0,P|116:346|201:330,1,144,2|0,0:0|1:0,0:0:0:0:
257,224,17535,5,10,0:0:0:0:
272,297,17679,2,0,B|252:267|252:267|264:233,1,72,2|0,0:0|1:0,0:0:0:0:
410,151,17967,1,2,0:0:0:0:
396,223,18111,2,0,B|416:193|416:193|404:159,1,72,8|0,0:2|0:0,0:0:0:0:
301,82,18400,1,2,1:2:0:0:
369,45,18544,1,0,1:0:0:0:
311,165,18689,2,0,P|258:156|205:147,1,108,10|0,0:2|0:0,0:0:0:0:
191,162,18977,6,0,P|188:202|217:235,1,72,2|0,1:2|0:0,0:0:0:0:
292,259,19265,2,0,B|246:244|224:285|224:285|224:322|195:339,1,144,10|0,0:2|1:0,0:0:0:0:
151,280,19698,1,0,1:0:0:0:
50,384,19842,2,0,P|59:331|68:278,1,108,10|0,0:0|0:0,0:0:0:0:
63,259,20131,6,0,B|33:279|33:279|-1:267,1,72,2|0,1:2|0:0,0:0:0:0:
64,167,20419,2,0,B|34:147|34:147|0:159,1,72,10|0,0:0|0:0,0:0:0:0:
151,280,20708,5,2,1:2:0:0:
186,215,20852,1,0,1:0:0:0:
311,165,20996,5,10,0:2:0:0:
252,60,21140,1,8,0:0:0:0:
428,105,21285,6,0,B|340:89|340:89|370:101|383:128,1,144,4|8,1:0|0:2,0:0:0:0:
311,165,21717,1,2,0:0:0:0:
339,247,21862,2,0,P|332:211|326:174,1,72,2|2,1:2|1:2,0:0:0:0:
431,291,22150,1,10,0:2:0:0:
434,285,22294,1,2,0:0:0:0:
475,359,22439,6,0,P|422:349|369:340,1,108,2|0,1:2|0:0,0:0:0:0:
356,325,22728,2,0,P|325:343|290:338,1,72,8|0,0:2|0:0,0:0:0:0:
204,236,23015,1,2,1:2:0:0:
123,292,23160,1,0,1:0:0:0:
273,352,23304,2,0,P|282:298|292:245,1,108,10|0,0:2|0:0,0:0:0:0:
304,230,23592,6,0,B|319:220|333:226|333:226|277:203|284:253|219:236,1,144,2|8,1:2|0:2,0:0:0:0:
157,125,24025,1,2,0:0:0:0:
236,145,24169,2,0,B|206:125|206:125|172:137,1,72,2|2,1:2|1:2,0:0:0:0:
266,50,24458,1,10,0:2:0:0:
261,57,24602,1,2,0:2:0:0:
138,18,24746,2,0,P|147:71|156:124,1,108,2|0,1:2|0:0,0:0:0:0:
141,140,25035,6,0,B|107:128|107:128|77:148,1,72,8|0,0:2|0:0,0:0:0:0:
147,306,25323,1,2,1:2:0:0:
126,219,25467,1,0,1:0:0:0:
32,344,25612,2,0,P|85:333|138:324,1,108,10|0,0:2|0:0,0:0:0:0:
147,306,25900,6,0,B|176:337|219:315|208:305|243:275|286:303,1,144,2|10,1:2|0:2,0:0:0:0:
346,364,26333,2,0,P|310:323|333:237,1,144,2|0,0:0|1:0,0:0:0:0:
465,324,26765,5,10,0:0:0:0:
384,296,26910,2,0,P|419:302|454:308,1,72,0|0,0:0|1:0,0:0:0:0:
321,224,27198,1,2,0:0:0:0:
402,196,27343,2,0,P|366:202|331:208,1,72,8|0,0:2|0:0,0:0:0:0:
430,106,27631,1,2,1:2:0:0:
510,160,27775,1,0,1:0:0:0:
348,110,27919,2,0,P|359:64|409:27,1,108,10|0,0:2|0:0,0:0:0:0:
422,14,28208,6,0,P|383:7|337:0,1,72,2|0,1:2|0:0,0:0:0:0:
227,93,28496,2,0,B|261:101|273:133|273:133|255:82|298:50,1,144,10|0,0:2|1:0,0:0:0:0:
226,17,28929,1,0,1:0:0:0:
201,168,29073,2,0,P|254:159|307:150,1,108,14|0,0:0|0:0,0:0:0:0:
326,162,29362,5,6,1:2:0:0:
276,240,29506,1,8,0:0:0:0:
404,140,29650,2,0,B|416:174|416:174|396:204,1,72,4|0,1:0|0:0,0:0:0:0:
336,332,29939,5,2,1:2:0:0:
415,292,30083,1,0,1:0:0:0:
492,371,30227,5,10,0:2:0:0:
348,258,30371,1,0,1:0:0:0:
154,329,30515,6,0,B|192:288|248:316|234:330|280:369|335:332,1,198.000006042481,4|8,1:0|0:0,0:0:0:0:
415,292,30948,1,2,0:0:0:0:
269,193,31092,1,0,1:0:0:0:
205,261,31237,1,0,1:0:0:0:
368,377,31381,2,0,P|357:319|344:237,1,121.499996292114,10|0,0:0|0:0,0:0:0:0:
357,214,31669,6,0,B|318:227|318:227|284:204,1,80.9999975280763,2|0,1:2|0:0,0:0:0:0:
369,110,31958,2,0,B|335:87|335:87|297:101,1,80.9999975280763,10|0,0:0|0:0,0:0:0:0:
149,0,32246,1,2,1:2:0:0:
217,64,32391,1,0,1:0:0:0:
84,178,32535,2,0,P|60:141|94:72,1,121.499996292114,10|0,0:0|0:0,0:0:0:0:
126,92,32823,6,0,B|178:74|203:121|203:121|203:163|236:183,1,161.999995056153,2|8,1:2|0:0,0:0:0:0:
282,122,33256,1,2,0:0:0:0:
152,242,33400,1,2,1:2:0:0:
84,178,33545,1,0,1:0:0:0:
250,210,33689,2,0,P|239:269|229:329,1,121.499996292114,8|0,0:0|0:0,0:0:0:0:
256,366,33977,6,0,P|293:384|340:378,1,80.9999975280763,2|0,1:2|1:0,0:0:0:0:
325,231,34265,2,0,P|327:272|356:309,1,80.9999975280763,10|0,0:0|0:0,0:0:0:0:
464,130,34554,1,2,1:2:0:0:
414,188,34698,1,0,1:0:0:0:
512,37,34842,2,0,P|471:30|432:24,1,80.9999975280763,10|0,0:0|0:0,0:0:0:0:
302,148,35131,6,0,P|344:92|310:31,1,148.50000453186,4|0,1:0|0:0,0:0:0:0:
276,53,35419,2,0,P|243:59|196:66,1,80.9999975280763,10|0,0:0|0:0,0:0:0:0:
64,219,35708,1,2,1:2:0:0:
146,176,35853,1,0,1:0:0:0:
51,48,35996,2,0,B|26:23|26:23|41:110,1,121.499996292114,8|0,0:0|0:0,0:0:0:0:
75,136,36285,6,0,P|103:106|149:95,1,80.9999975280763,2|0,1:2|0:0,0:0:0:0:
149,257,36573,2,0,P|187:245|215:216,1,80.9999975280763,10|0,0:0|0:0,0:0:0:0:
307,358,36862,1,2,1:2:0:0:
273,293,37007,1,0,1:0:0:0:
152,368,37150,2,0,B|92:356|92:392|20:376,1,121.499996292114,10|0,0:0|0:0,0:0:0:0:
14,355,37439,6,0,P|-3:267|94:288,1,198.000006042481,4|0,1:0|1:0,0:0:0:0:
82,266,37871,1,10,0:0:0:0:
183,145,38015,1,2,0:0:0:0:
220,216,38160,1,0,1:0:0:0:
34,196,38304,2,0,P|40:155|47:116,1,80.9999975280763,8|0,0:0|0:0,0:0:0:0:
227,59,38592,5,2,1:2:0:0:
183,145,38737,1,8,0:0:0:0:
26,26,38881,2,0,P|78:22|130:78,1,121.499996292114,4|0,1:0|0:0,0:0:0:0:
145,73,39169,1,10,0:0:0:0:
224,238,39314,1,0,1:0:0:0:
222,227,39386,1,0,1:0:0:0:
220,216,39458,1,10,0:0:0:0:
227,59,39602,1,8,0:0:0:0:
350,92,39746,6,0,B|285:105|285:105|257:131|257:131|173:146,1,180,4|0,1:0|1:0,0:0:0:0:
377,168,40323,2,0,P|428:136|429:76,1,125.999996154785,10|2,0:0|0:0,0:0:0:0:
339,29,40756,2,0,P|346:67|352:107,1,62.9999980773926,10|0,0:0|1:0,0:0:0:0:
258,130,41044,1,10,0:0:0:0:
256,52,41189,2,0,P|248:90|242:130,1,62.9999980773926,2|0,1:2|0:0,0:0:0:0:
328,190,41477,2,0,B|343:164|343:164|376:167,1,62.9999980773926,8|0,0:0|0:0,0:0:0:0:
160,334,41765,1,8,0:0:0:0:
246,318,41910,1,8,0:0:0:0:
414,293,42054,6,0,B|432:279|457:283|457:283|387:246|401:320|320:300,1,180,4|0,1:0|1:0,0:0:0:0:
328,190,42487,2,0,P|336:204|339:220,1,31.4999990386963,2|0,0:0|0:0,0:0:0:0:
249,149,42631,2,0,P|320:135|394:123,1,125.999996154785,10|2,0:0|0:0,0:0:0:0:
210,45,43064,2,0,P|241:50|271:56,1,62.9999980773926,10|0,0:0|1:0,0:0:0:0:
173,163,43352,1,10,0:0:0:0:
95,161,43497,2,0,P|133:153|173:147,1,62.9999980773926,2|0,1:2|0:0,0:0:0:0:
304,312,43785,5,8,0:0:0:0:
148,244,43929,1,8,0:0:0:0:
315,92,44073,1,8,0:0:0:0:
383,248,44217,1,8,0:0:0:0:
412,116,44362,6,0,B|364:99|341:142|341:142|341:180|311:198,1,148.50000453186,4|0,1:0|0:0,0:0:0:0:
310,228,44650,2,0,P|359:228|390:262,1,80.9999975280763,8|0,1:2|0:0,0:0:0:0:
203,287,44939,6,0,B|172:203|242:232|189:123,1,148.50000453186,10|0,1:2|0:0,0:0:0:0:
167,141,45227,2,0,P|118:141|87:107,1,80.9999975280763,8|0,1:2|0:0,0:0:0:0:
276,10,45515,6,0,B|298:51|279:102|279:102|292:68|329:63,1,148.50000453186,10|0,1:2|0:0,0:0:0:0:
344,51,45804,2,0,P|376:28|416:31,1,80.9999975280763,8|0,1:2|0:0,0:0:0:0:
462,235,46092,6,0,P|388:222|315:210,1,148.50000453186,10|0,1:2|0:0,0:0:0:0:
302,182,46381,2,0,P|337:199|354:235,1,80.9999975280763,10|0,1:2|0:0,0:0:0:0:
201,286,46669,6,0,P|198:305|195:326,1,40.4999987640381,0|0,1:0|0:0,0:0:0:0:
104,188,46814,2,0,P|114:242|123:296,1,99.0000030212403,12|0,1:2|0:0,0:0:0:0:
278,248,47102,6,0,P|282:268|286:288,1,40.4999987640381,0|0,1:0|0:0,0:0:0:0:
377,150,47247,2,0,P|366:204|357:258,1,99.0000030212403,12|0,1:2|0:0,0:0:0:0:
194,170,47535,6,0,P|191:189|188:210,1,40.4999987640381,0|0,1:0|0:0,0:0:0:0:
97,72,47680,2,0,P|107:126|116:180,1,99.0000030212403,12|0,1:2|0:0,0:0:0:0:
289,133,47968,6,0,P|293:153|297:173,1,40.4999987640381,0|0,1:0|0:0,0:0:0:0:
387,35,48113,2,0,P|376:89|367:143,1,99.0000030212403,12|0,1:2|0:0,0:0:0:0:
201,0,48400,2,0,P|212:54|221:108,1,99.0000030212403,12|0,1:2|1:0,0:0:0:0:
52,252,48689,5,0,1:0:0:0:
64,204,48761,1,0,1:0:0:0:
99,170,48833,1,0,1:0:0:0:
146,157,48905,1,0,1:0:0:0:
193,169,48977,6,0,B|227:195|270:219|270:219|239:250|211:285,1,175.499991966248,4|0,1:0|0:0,0:0:0:0:
162,359,49265,2,0,P|201:329|254:329,1,99.0000030212403,8|0,1:2|0:0,0:0:0:0:
416,176,49554,2,0,B|379:130|319:153|319:153|344:169|350:200,1,148.50000453186,2|0,1:2|0:0,0:0:0:0:
424,185,49842,1,8,1:2:0:0:
270,219,49987,1,2,0:0:0:0:
319,37,50131,6,0,P|329:94|345:184,1,148.50000453186,2|0,1:2|0:0,0:0:0:0:
330,22,50419,1,10,1:2:0:0:
156,148,50564,2,0,B|206:159|206:159|254:130,1,99.0000030212403,2|0,0:0|1:0,0:0:0:0:
132,18,50852,2,0,B|171:-6|171:-6|222:5,1,99.0000030212403,2|8,0:0|1:2,0:0:0:0:
146,163,51140,1,2,0:0:0:0:
18,0,51285,6,0,B|-21:40|8:96|8:96|46:120|46:167,1,175.499991966248,2|0,1:2|0:0,0:0:0:0:
2,238,51573,2,0,P|41:208|94:208,1,99.0000030212403,8|0,1:2|0:0,0:0:0:0:
248,344,51862,2,0,B|213:332|175:331|175:331|144:287|182:255,1,148.50000453186,2|0,1:2|0:0,0:0:0:0:
256,355,52150,1,8,1:2:0:0:
403,270,52294,1,2,0:0:0:0:
346,211,52439,6,0,P|359:284|371:357,1,148.50000453186,2|0,1:2|0:0,0:0:0:0:
387,370,52727,1,10,1:2:0:0:
510,224,52871,2,0,P|471:194|418:194,1,99.0000030212403,2|0,0:0|1:0,0:0:0:0:
283,37,53160,1,2,0:0:0:0:
472,114,53304,1,8,1:2:0:0:
425,102,53376,1,8,1:2:0:0:
378,115,53448,1,10,1:2:0:0:
343,149,53520,1,8,1:2:0:0:
331,197,53592,6,0,B|285:210|258:170|258:170|194:150|172:223,1,175.499991966248,4|0,1:0|0:0,0:0:0:0:
111,260,53881,2,0,P|149:289|198:291,1,99.0000030212403,14|0,1:2|0:0,0:0:0:0:
165,110,54169,2,0,P|119:128|94:169,1,99.0000030212403,6|0,1:2|0:0,0:0:0:0:
267,231,54458,2,0,P|275:179|286:120,1,99.0000030212403,14|0,1:2|0:0,0:0:0:0:
465,50,54746,6,0,B|428:4|368:27|368:27|393:43|399:74,1,148.50000453186,6|0,1:2|0:0,0:0:0:0:
472,62,55035,1,14,1:2:0:0:
283,133,55179,1,0,1:2:0:0:
493,239,55323,2,0,P|484:190|476:141,1,99.0000030212403,6|0,1:2|0:0,0:0:0:0:
271,265,55612,2,0,P|279:216|287:167,1,99.0000030212403,14|0,1:2|0:0,0:0:0:0:
359,362,55900,6,0,P|308:310|192:346,1,175.499991966248,4|0,1:2|0:0,0:0:0:0:
369,371,56189,1,14,1:2:0:0:
271,265,56333,1,0,1:2:0:0:
121,336,56477,2,0,B|171:347|171:347|219:318,1,99.0000030212403,6|0,1:2|0:0,0:0:0:0:
93,185,56765,2,0,B|133:160|133:160|183:171,1,99.0000030212403,14|0,1:2|0:0,0:0:0:0:
52,384,57054,6,0,B|30:366|0:343|0:343|26:316|53:280,1,148.50000453186,6|0,1:2|0:0,0:0:0:0:
121,336,57342,2,0,B|161:311|161:311|211:322,1,99.0000030212403,14|0,1:2|0:0,0:0:0:0:
307,138,57631,5,14,1:2:0:0:
261,120,57703,1,8,1:2:0:0:
214,133,57775,1,8,1:2:0:0:
183,170,57847,1,8,1:2:0:0:
178,183,57919,6,0,P|184:210|191:245,1,49.5000015106202,14|0,1:2|1:0,0:0:0:0:
332,322,58064,2,0,P|337:297|342:273,1,49.5000015106202,0|0,1:0|1:0,0:0:0:0:
416,124,58208,6,0,B|424:114|441:113|441:113|390:85|362:121|373:121|345:154|292:133,1,175.499991966248,4|0,1:0|0:0,0:0:0:0:
223,43,58496,2,0,P|275:51|334:62,1,99.0000030212403,8|0,1:2|0:0,0:0:0:0:
116,124,58785,2,0,B|76:134|40:140|40:140|27:183|80:214,1,148.50000453186,2|0,1:2|0:0,0:0:0:0:
121,116,59073,2,0,P|119:67|89:28,1,99.0000030212403,8|2,1:2|0:0,0:0:0:0:
178,183,59362,6,0,B|223:192|223:192|252:226|252:226|312:239,1,148.50000453186,2|0,1:2|0:0,0:0:0:0:
321,230,59650,1,10,1:2:0:0:
165,364,59794,2,0,P|173:312|184:253,1,99.0000030212403,2|0,0:0|1:0,0:0:0:0:
409,380,60083,2,0,P|401:328|390:269,1,99.0000030212403,2|8,0:0|1:2,0:0:0:0:
159,377,60371,1,2,0:0:0:0:
321,230,60515,6,0,B|351:206|394:182|394:182|363:151|335:116,1,175.499991966248,2|0,1:2|0:0,0:0:0:0:
248,79,60804,2,0,P|256:127|264:176,1,99.0000030212403,8|0,1:2|0:0,0:0:0:0:
479,73,61092,2,0,B|442:27|382:50|382:50|407:66|413:97,1,148.50000453186,2|0,1:2|0:0,0:0:0:0:
489,82,61380,1,8,1:2:0:0:
335,116,61525,1,2,0:0:0:0:
451,228,61669,6,0,B|421:259|376:237|388:226|352:196|307:224,1,148.50000453186,2|0,1:2|0:0,0:0:0:0:
460,219,61958,1,10,1:2:0:0:
330,384,62102,2,0,B|354:343|354:343|343:293,1,99.0000030212403,2|0,0:0|1:0,0:0:0:0:
176,269,62390,2,0,B|151:309|151:309|162:359,1,99.0000030212403,2|8,0:0|1:2,0:0:0:0:
314,221,62679,1,2,1:2:0:0:
130,184,62823,6,0,B|122:174|105:173|105:173|156:145|184:181|173:181|201:214|254:193,1,175.499991966248,4|0,1:0|0:0,0:0:0:0:
314,221,63112,2,0,P|312:172|282:133,1,99.0000030212403,10|0,1:2|0:0,0:0:0:0:
441,68,63400,2,0,P|399:93|381:138,1,99.0000030212403,2|0,1:2|0:0,0:0:0:0:
245,35,63689,2,0,P|288:57|336:51,1,99.0000030212403,10|0,1:2|0:0,0:0:0:0:
460,147,63977,6,0,B|488:168|523:188|523:188|498:214|474:243,1,148.50000453186,2|0,1:2|0:0,0:0:0:0:
408,303,64265,2,0,P|400:254|391:205,1,99.0000030212403,10|0,1:2|0:0,0:0:0:0:
247,373,64554,2,0,B|297:384|297:384|337:359,1,99.0000030212403,2|0,1:2|0:0,0:0:0:0:
218,224,64842,2,0,B|258:199|258:199|308:210,1,99.0000030212403,10|0,1:2|0:0,0:0:0:0:
106,345,65131,6,0,B|65:317|72:268|72:268|61:334|8:346,1,175.499991966248,4|0,1:0|0:0,0:0:0:0:
118,337,65419,1,10,1:2:0:0:
0,201,65564,1,0,1:0:0:0:
159,118,65708,2,0,P|151:166|142:215,1,99.0000030212403,2|0,1:2|1:0,0:0:0:0:
0,0,65996,2,0,P|7:48|16:97,1,99.0000030212403,10|0,1:2|1:0,0:0:0:0:
235,82,66285,6,0,P|181:34|111:48,1,148.50000453186,2|0,1:2|0:0,0:0:0:0:
242,94,66573,2,0,P|234:142|225:191,1,99.0000030212403,10|0,1:2|0:0,0:0:0:0:
450,343,66862,5,10,1:2:0:0:
404,361,66934,1,8,1:2:0:0:
357,348,67006,1,8,1:2:0:0:
326,311,67078,1,8,1:2:0:0:
332,297,67150,6,0,P|326:270|319:235,1,49.5000015106202,10|0,1:2|1:2,0:0:0:0:
452,166,67295,2,0,P|447:191|442:215,1,49.5000015106202,0|0,1:2|1:2,0:0:0:0:
242,94,67439,6,0,B|260:44|318:63|318:63|345:103|391:90,1,175.499991966248,4|0,1:0|0:0,0:0:0:0:
484,78,67727,2,0,P|482:126|452:165,1,99.0000030212403,12|0,0:0|0:0,0:0:0:0:
332,297,68015,2,0,B|311:198|311:198|323:223|342:232,1,148.50000453186,6|0,1:2|0:0,0:0:0:0:
326,311,68304,2,0,P|287:340|238:343,1,99.0000030212403,12|0,0:0|0:0,0:0:0:0:
100,242,68592,6,0,P|173:229|246:217,1,148.50000453186,6|0,1:2|0:0,0:0:0:0:
94,252,68881,1,14,0:0:0:0:
200,51,69025,2,0,B|211:101|211:101|182:149,1,99.0000030212403,2|4,0:0|1:2,0:0:0:0:
41,28,69314,2,0,B|16:68|16:68|27:118,1,99.0000030212403,2|12,0:0|0:0,0:0:0:0:
207,38,69602,1,2,0:0:0:0:
100,242,69746,6,0,B|92:233|79:225|79:225|131:236|131:236|160:270|160:270|220:283,1,175.499991966248,6|0,1:2|0:0,0:0:0:0:
300,214,70035,2,0,P|251:205|202:197,1,99.0000030212403,14|0,0:0|0:0,0:0:0:0:
322,362,70323,2,0,P|359:316|458:341,1,148.50000453186,6|0,1:2|0:0,0:0:0:0:
496,378,70612,2,0,B|520:337|520:337|509:287,1,99.0000030212403,14|0,0:0|0:0,0:0:0:0:
376,161,70900,6,0,B|406:130|451:152|439:163|475:193|520:165,1,148.50000453186,6|0,1:2|0:0,0:0:0:0:
367,171,71189,1,14,0:0:0:0:
508,0,71333,2,0,P|499:49|491:98,1,99.0000030212403,2|4,0:0|1:2,0:0:0:0:
290,11,71621,2,0,P|299:60|307:109,1,99.0000030212403,2|12,0:0|0:0,0:0:0:0:
500,5,71910,1,2,0:0:0:0:
367,171,72054,6,0,B|331:183|287:195|287:195|253:246|318:277,1,175.499991966248,4|0,1:0|0:0,0:0:0:0:
376,161,72342,2,0,P|383:112|392:63,1,99.0000030212403,14|0,0:0|0:0,0:0:0:0:
211,132,72631,2,0,P|249:163|287:195,1,99.0000030212403,6|0,1:2|0:0,0:0:0:0:
318,3,72919,2,0,P|271:20|225:37,1,99.0000030212403,14|0,0:0|0:0,0:0:0:0:
64,182,73208,6,0,B|101:228|161:205|161:205|136:189|130:158,1,148.50000453186,6|0,1:2|0:0,0:0:0:0:
52,188,73496,1,12,0:0:0:0:
211,132,73640,1,8,0:0:0:0:
24,17,73785,2,0,P|41:63|58:109,1,99.0000030212403,6|0,1:2|0:0,0:0:0:0:
150,294,74073,1,14,0:0:0:0:
211,132,74217,1,8,0:0:0:0:
32,291,74362,6,0,B|24:281|7:280|7:280|58:252|86:288|75:288|103:321|156:300,1,175.499991966248,4|0,1:0|0:0,0:0:0:0:
189,371,74650,2,0,P|218:332|221:283,1,99.0000030212403,14|0,0:0|0:0,0:0:0:0:
211,132,74939,2,0,P|229:177|271:204,1,99.0000030212403,6|0,1:2|0:0,0:0:0:0:
406,269,75227,2,0,P|358:262|315:285,1,99.0000030212403,14|8,0:0|0:0,0:0:0:0:
437,83,75515,6,0,P|419:129|402:175,1,99.0000030212403,6|0,1:2|0:0,0:0:0:0:
254,29,75804,2,0,P|271:75|288:121,1,99.0000030212403,14|0,0:0|0:0,0:0:0:0:
499,23,76092,2,0,P|437:-2|362:38,1,148.50000453186,6|0,1:2|0:0,0:0:0:0:
346,46,76381,1,14,0:0:0:0:
346,46,76453,1,8,0:0:0:0:
346,46,76525,2,0,P|354:69|363:92,1,49.5000015106202,8|8,0:0|0:0,0:0:0:0:
512,198,76669,6,0,B|457:181|431:230|431:230|431:275|396:295,1,161.999995056153,4|0,1:0|0:0,0:0:0:0:
352,359,76958,2,0,P|337:317|321:275,1,90,10|0,0:0|0:0,0:0:0:0:
153,260,77246,2,0,P|167:218|183:176,1,90,2|0,1:2|0:0,0:0:0:0:
244,345,77535,1,10,0:0:0:0:
244,345,77679,1,8,0:0:0:0:
60,256,77823,6,0,P|76:298|90:340,1,90,2|0,1:2|0:0,0:0:0:0:
183,175,78112,1,10,0:0:0:0:
35,120,78256,1,8,0:0:0:0:
249,24,78400,2,0,B|259:71|259:71|236:109,1,90,2|0,1:2|0:0,0:0:0:0:
127,8,78689,2,0,B|105:44|105:44|116:91,1,90,10|0,0:0|0:0,0:0:0:0:
266,193,78977,6,0,B|298:157|346:181|334:193|374:227|421:195,1,161.999995056153,2|0,1:2|0:0,0:0:0:0:
256,201,79265,1,10,0:0:0:0:
387,120,79410,1,8,0:0:0:0:
295,308,79554,2,0,P|252:291|210:277,1,90,2|0,1:2|0:0,0:0:0:0:
414,199,79842,2,0,P|456:182|498:168,1,90,10|0,0:0|0:0,0:0:0:0:
399,377,80131,6,0,P|372:298|343:220,1,135,2|0,1:2|0:0,0:0:0:0:
414,199,80419,1,10,0:0:0:0:
253,112,80564,1,8,0:0:0:0:
416,48,80708,2,0,B|416:96|416:96|388:127,1,90,2|0,1:2|0:0,0:0:0:0:
293,13,80996,2,0,B|264:43|264:43|265:92,1,90,8|0,0:0|0:0,0:0:0:0:
226,354,81285,6,0,B|256:330|295:308|295:308|267:281|242:249,1,161.999995056153,4|0,1:0|0:0,0:0:0:0:
218,360,81573,1,10,0:0:0:0:
64,287,81717,1,8,0:0:0:0:
212,165,81862,2,0,P|228:207|242:249,1,90,2|0,1:2|0:0,0:0:0:0:
68,128,82150,2,0,P|51:170|37:212,1,90,10|0,0:0|0:0,0:0:0:0:
218,0,82439,5,2,1:2:0:0:
84,51,82583,1,8,0:0:0:0:
212,165,82727,2,0,B|251:140|291:166|291:166|303:198|345:204,1,135,10|0,0:0|0:0,0:0:0:0:
355,134,83015,2,0,P|338:91|324:49,1,90,2|0,1:2|1:0,0:0:0:0:
447,214,83304,2,0,P|463:171|477:129,1,90,10|0,0:0|1:0,0:0:0:0:
323,339,83592,6,0,P|374:284|453:300,1,161.999995056153,4|0,1:0|0:0,0:0:0:0:
316,347,83881,1,8,0:0:0:0:
447,214,84025,1,8,0:0:0:0:
357,268,84169,1,0,1:2:0:0:
360,254,84314,1,0,1:0:0:0:
212,165,84458,2,0,P|228:207|242:249,1,90,8|0,0:0|0:0,0:0:0:0:
57,213,84746,5,2,1:2:0:0:
128,382,84890,1,2,0:0:0:0:
134,376,84963,1,2,0:0:0:0:
139,372,85035,2,0,P|153:329|169:287,1,90,10|0,0:0|0:0,0:0:0:0:
0,64,85323,5,2,1:2:0:0:
57,213,85467,1,8,0:0:0:0:
212,165,85612,5,10,0:0:0:0:
269,16,85756,1,8,0:0:0:0:
72,0,85900,6,0,P|118:117|151:238,1,252,4|0,1:0|0:0,0:0:0:0:
262,153,87106,6,0,P|231:153|204:174,1,53.9999983520508,10|0,1:2|0:0,0:0:0:0:
261,247,87250,6,0,P|277:181|300:118,1,135,10|0,1:2|0:0,0:0:0:0:
298,38,87538,6,0,B|327:24|337:-16|337:-16|327:24|340:49,1,135,10|0,0:0|0:0,0:0:0:0:
300,118,87827,1,10,0:0:0:0:
