osu file format v14

[General]
AudioFilename: audio.mp3
AudioLeadIn: 0
PreviewTime: 36261
Countdown: 0
SampleSet: Soft
StackLeniency: 0.7
Mode: 0
LetterboxInBreaks: 0
WidescreenStoryboard: 0

[Editor]
Bookmarks: 50227,76709,88089
DistanceSpacing: 1
BeatDivisor: 4
GridSize: 32
TimelineZoom: 1.2

[Metadata]
Title:Gradation feat. Kitazawa Yuuho (TV Size)
TitleUnicode:ぐらでーしょん feat. 北澤ゆうほ (TV Size)
Artist:KANA-BOON
ArtistUnicode:KANA-BOON
Creator:Gabizon04
Version:Love
Source:山田くんとLv999の恋をする
Tags:jpop j-pop japanese pop anime opening op intro theme song the peggies 山田999 Yamada-kun to Lv999 no Koi wo Suru Loving My Love Story with Yamada kun at Lv999 Level 999 Yuho Yūho
BeatmapID:4108932
BeatmapSetID:1979174

[Difficulty]
HPDrainRate:5
CircleSize:3.8
OverallDifficulty:8
ApproachRate:9
SliderMultiplier:1.8
SliderTickRate:1

[Events]
//Background and Video events
0,0,"bg.png",0,0
Video,0,"video.mp4"
//Break Periods
2,63668,65558
//Storyboard Layer 0 (Background)
//Storyboard Layer 1 (Fail)
//Storyboard Layer 2 (Pass)
//Storyboard Layer 3 (Foreground)
//Storyboard Layer 4 (Overlay)
//Storyboard Sound Samples

[TimingPoints]
572,413.793103448276,4,2,1,70,1,0
572,-90.9090909090909,4,2,1,70,0,0
6985,-100,4,2,1,55,0,0
20434,-100,4,2,1,70,0,0
33675,-100,4,2,1,80,0,0
36985,-83.3333333333333,4,2,1,80,0,1
63468,-83.3333333333333,4,2,1,60,0,0
66365,-200,4,2,1,80,0,0
66675,-83.3333333333333,4,2,1,5,0,0
66778,-83.3333333333333,4,2,1,80,0,1
84985,-100,4,2,1,60,0,0
86640,-100,4,2,1,80,0,0
87054,-100,4,2,1,5,0,0
87261,-100,4,2,1,80,0,0
87572,-100,4,2,1,5,0,0
87675,-100,4,2,1,80,0,0

[Colours]
Combo1 : 238,187,68
Combo2 : 253,232,147
Combo3 : 191,119,21

[HitObjects]
394,28,572,5,6,3:2:0:0:
279,233,778,1,8,0:0:0:0:
279,233,1192,6,0,P|267:143|252:31,1,198.000006042481,6|2,3:2|3:2,0:0:0:0:
187,146,1813,1,8,0:0:0:0:
187,146,1916,1,8,0:0:0:0:
187,146,2020,1,8,0:0:0:0:
337,75,2227,5,14,0:0:0:0:
512,246,2434,1,10,0:0:0:0:
512,246,2847,6,0,B|400:247|444:304|326:312,1,198.000006042481,6|2,3:2|3:2,0:0:0:0:
252,175,3468,1,10,0:0:0:0:
252,175,3572,1,8,0:0:0:0:
252,175,3675,1,10,0:0:0:0:
244,312,3882,5,14,0:0:0:0:
379,107,4089,1,10,0:0:0:0:
379,107,4503,6,0,P|336:61|205:80,1,198.000006042481,6|2,3:2|3:2,0:0:0:0:
18,170,5123,1,8,0:0:0:0:
130,32,5330,1,8,0:0:0:0:
269,185,5537,5,2,3:2:0:0:
211,74,5744,1,2,3:2:0:0:
211,74,5847,1,0,3:0:0:0:
211,74,5951,1,2,3:2:0:0:
125,245,6158,1,2,3:2:0:0:
125,245,6572,1,10,0:0:0:0:
120,214,6675,1,8,0:0:0:0:
115,183,6778,1,8,0:0:0:0:
40,323,6985,6,0,P|126:299|214:278,1,180,6|0,3:2|3:0,0:0:0:0:
338,241,7606,2,0,P|328:284|318:330,1,90,10|0,0:0|0:0,0:0:0:0:
464,234,8020,2,0,P|456:189|447:145,1,90,2|0,0:0|3:0,0:0:0:0:
498,36,8434,1,10,0:0:0:0:
322,131,8640,6,0,B|220:133|271:76|141:79,1,180,2|2,0:0|3:2,0:0:0:0:
16,6,9261,1,10,0:0:0:0:
42,189,9468,2,0,P|49:144|57:100,1,90,2|0,0:0|3:0,0:0:0:0:
157,301,9882,5,10,0:0:0:0:
124,190,10089,1,2,3:2:0:0:
0,371,10296,5,14,0:0:0:0:
77,283,10503,2,0,P|124:278|167:320,1,90,2|0,0:0|3:0,0:0:0:0:
293,384,10916,1,10,0:0:0:0:
243,282,11123,1,2,0:0:0:0:
397,384,11330,6,0,P|407:337|419:283,1,90,2|0,3:2|3:0,0:0:0:0:
468,141,11744,1,10,0:0:0:0:
350,205,11951,1,2,0:0:0:0:
248,35,12158,5,2,3:2:0:0:
358,95,12365,1,2,0:0:0:0:
202,195,12572,1,10,0:0:0:0:
275,123,12778,1,2,0:0:0:0:
394,272,12985,5,2,3:2:0:0:
316,357,13192,1,2,3:2:0:0:
222,308,13399,1,8,0:0:0:0:
425,370,13606,6,0,P|434:303|452:180,1,180,2|0,0:0|0:0,0:0:0:0:
294,102,14227,2,0,P|341:114|381:90,1,90,10|0,0:0|0:0,0:0:0:0:
465,0,14640,1,2,0:0:0:0:
512,119,14847,1,2,3:2:0:0:
323,15,15054,1,10,0:0:0:0:
357,233,15261,6,0,B|246:223|289:283|187:273,1,180,2|2,3:2|3:2,0:0:0:0:
114,191,15882,1,8,0:0:0:0:
35,282,16089,2,0,P|26:238|13:173,1,90,2|0,0:0|3:0,0:0:0:0:
0,90,16503,1,2,3:2:0:0:
178,133,16709,1,10,0:0:0:0:
114,47,16916,1,2,0:0:0:0:
281,145,17123,6,0,P|362:121|390:113,1,90,2|0,3:2|0:0,0:0:0:0:
501,95,17537,2,0,P|509:52|519:10,2,60,10|2|2,0:0|0:0|0:0,0:0:0:0:
479,173,17951,1,2,3:2:0:0:
367,119,18158,1,0,3:0:0:0:
512,280,18365,1,10,0:0:0:0:
512,280,18468,1,2,0:0:0:0:
512,280,18572,1,2,0:0:0:0:
345,236,18778,5,2,3:2:0:0:
250,332,18985,1,2,3:2:0:0:
153,165,19192,1,10,0:0:0:0:
250,235,19399,1,2,0:0:0:0:
337,45,19606,1,10,0:0:0:0:
215,24,19813,1,2,3:2:0:0:
383,140,20020,1,8,0:0:0:0:
413,132,20123,1,8,0:0:0:0:
443,124,20227,1,2,3:2:0:0:
250,235,20434,6,0,P|207:220|164:206,1,90,12|0,0:0|0:0,0:0:0:0:
67,1,20847,1,10,0:0:0:0:
143,110,21054,1,2,0:0:0:0:
344,25,21261,5,10,0:0:0:0:
260,130,21468,1,2,3:2:0:0:
447,16,21675,1,10,0:2:0:0:
391,210,21882,6,0,B|285:222|330:261|210:258,1,180,6|2,3:2|3:2,0:0:0:0:
149,181,22503,1,10,0:0:0:0:
269,359,22709,2,0,P|283:309|324:174,1,180,2|0,0:0|3:0,0:0:0:0:
216,12,23330,1,10,0:0:0:0:
345,107,23537,1,2,0:0:0:0:
172,264,23744,5,14,0:0:0:0:
230,142,23951,1,2,0:0:0:0:
78,295,24158,5,10,0:0:0:0:
16,185,24365,1,2,3:2:0:0:
185,360,24572,5,10,0:0:0:0:
289,273,24778,1,2,3:2:0:0:
135,130,24985,5,10,0:0:0:0:
304,183,25192,2,0,B|405:183|371:133|480:124,1,180,6|0,3:2|3:0,0:0:0:0:
469,224,25813,1,8,0:0:0:0:
311,92,26020,1,10,0:0:0:0:
311,92,26123,1,8,0:0:0:0:
311,92,26227,1,2,3:2:0:0:
452,18,26434,1,2,3:2:0:0:
363,189,26640,2,0,P|353:233|341:285,1,90,10|2,0:0|0:0,0:0:0:0:
203,96,27054,6,0,B|218:145|218:145|234:204,1,90,6|0,3:2|0:0,0:0:0:0:
457,173,27468,5,10,0:0:0:0:
342,276,27675,1,2,0:0:0:0:
292,70,27882,5,10,0:0:0:0:
362,184,28089,1,2,3:2:0:0:
374,0,28296,5,10,0:0:0:0:
227,182,28503,2,0,P|212:93|196:7,1,180,6|2,3:2|3:2,0:0:0:0:
292,70,29123,1,8,0:0:0:0:
125,146,29330,2,0,P|75:144|43:108,1,90,2|0,0:0|0:0,0:0:0:0:
204,101,29744,1,2,3:2:0:0:
269,260,29951,1,10,0:0:0:0:
191,199,30158,1,2,0:0:0:0:
334,336,30365,6,0,B|439:337|406:378|510:374,1,180,6|8,3:2|0:0,0:0:0:0:
492,267,30985,1,10,0:0:0:0:
492,267,31089,1,8,0:0:0:0:
492,267,31192,2,0,P|497:228|506:168,1,90,10|0,0:0|0:0,0:0:0:0:
441,62,31606,1,0,3:0:0:0:
271,217,31813,1,6,3:2:0:0:
344,126,32020,5,2,0:0:0:0:
344,126,32434,1,0,3:0:0:0:
339,112,32847,1,2,3:2:0:0:
335,100,33261,1,2,3:2:0:0:
332,84,33675,6,0,B|234:95|265:139|163:140,1,180,6|8,3:2|0:0,0:0:0:0:
66,92,34296,1,8,0:0:0:0:
120,233,34503,1,8,0:0:0:0:
190,49,34709,1,8,0:0:0:0:
0,199,34916,1,8,0:0:0:0:
255,155,35123,6,0,P|312:169|372:187,1,90,12|0,0:0|3:0,0:0:0:0:
505,14,35537,1,8,0:0:0:0:
482,29,35640,1,8,0:0:0:0:
465,50,35744,1,8,0:0:0:0:
457,75,35847,1,8,0:0:0:0:
460,101,35951,1,8,0:0:0:0:
472,124,36054,1,8,0:0:0:0:
489,144,36158,1,8,0:0:0:0:
281,215,36365,5,2,3:2:0:0:
281,215,36468,1,0,3:0:0:0:
281,215,36572,1,2,3:2:0:0:
375,85,36778,1,2,3:2:0:0:
512,272,36985,6,0,B|399:265|437:340|299:324,1,215.999993408203,6|10,3:2|0:0,0:0:0:0:
174,255,37606,1,0,3:0:0:0:
174,255,37709,1,8,0:0:0:0:
174,255,37813,2,0,P|185:317|194:381,1,107.999996704102,2|2,3:2|0:0,0:0:0:0:
262,240,38227,1,10,0:0:0:0:
99,346,38434,2,0,P|46:349|-5:303,1,107.999996704102,2|0,0:0|3:0,0:0:0:0:
101,175,38847,5,2,0:0:0:0:
191,361,39054,1,10,0:0:0:0:
15,230,39261,2,0,L|1:176,1,53.9999983520508,2|8,3:2|0:0,0:0:0:0:
194,59,39468,2,0,L|180:113,1,53.9999983520508,0|8,3:0|0:0,0:0:0:0:
189,215,39675,1,2,0:0:0:0:
6,82,39882,1,8,0:0:0:0:
130,0,40089,1,2,0:0:0:0:
283,191,40296,6,0,B|340:210|393:168|365:151|418:111|479:133,1,215.999993408203,2|10,3:2|0:0,0:0:0:0:
466,324,40916,1,0,3:0:0:0:
466,324,41020,1,8,0:0:0:0:
466,324,41123,2,0,P|455:268|444:208,1,107.999996704102,2|0,3:2|0:0,0:0:0:0:
376,146,41434,1,2,0:0:0:0:
376,146,41537,1,10,0:0:0:0:
234,301,41744,2,0,P|292:308|341:272,1,107.999996704102,2|0,0:0|3:0,0:0:0:0:
445,217,42158,5,2,0:0:0:0:
316,26,42365,1,8,0:0:0:0:
218,198,42572,1,2,3:2:0:0:
251,189,42675,1,8,0:0:0:0:
45,125,42882,1,8,0:0:0:0:
9,114,42985,1,2,0:0:0:0:
248,80,43192,1,10,0:0:0:0:
110,0,43399,1,2,0:0:0:0:
385,140,43606,6,0,P|399:91|424:20,1,107.999996704102,2|0,3:2|0:0,0:0:0:0:
291,244,44020,2,0,P|308:296|323:347,1,107.999996704102,10|0,0:2|0:0,0:0:0:0:
501,253,44434,1,2,3:2:0:0:
501,253,44537,1,8,0:0:0:0:
501,253,44640,1,0,3:0:0:0:
300,134,44847,2,0,P|248:135|204:178,1,107.999996704102,10|0,0:0|0:0,0:0:0:0:
74,345,45261,6,0,P|122:327|179:308,1,107.999996704102,2|0,3:2|0:0,0:0:0:0:
424,383,45675,2,0,P|376:365|319:346,1,107.999996704102,10|0,0:0|0:0,0:0:0:0:
207,170,46089,1,2,3:2:0:0:
207,170,46192,1,8,0:0:0:0:
207,170,46296,1,0,3:0:0:0:
426,274,46503,2,0,P|435:229|455:161,1,107.999996704102,10|0,0:0|0:0,0:0:0:0:
265,11,46916,6,0,B|141:17|193:73|66:80,1,215.999993408203,6|10,3:2|0:0,0:0:0:0:
6,206,47537,1,8,0:0:0:0:
6,206,47640,1,8,0:0:0:0:
6,206,47744,1,10,0:0:0:0:
161,145,47951,1,2,3:2:0:0:
311,81,48158,1,0,3:0:0:0:
149,374,48365,6,0,P|135:319|119:256,1,107.999996704102,14|0,0:0|3:0,0:0:0:0:
395,163,48778,2,0,P|381:216|368:268,1,107.999996704102,2|8,0:0|0:0,0:0:0:0:
237,168,49192,1,2,0:0:0:0:
391,382,49399,6,0,P|442:369|468:323,1,107.999996704102,12|2,0:0|0:0,0:0:0:0:
221,259,49813,1,10,0:0:0:0:
184,270,49916,1,8,0:0:0:0:
147,281,50020,1,10,0:0:0:0:
111,292,50123,1,8,0:0:0:0:
73,303,50227,6,0,P|53:223|16:78,1,215.999993408203,6|10,3:2|0:0,0:0:0:0:
228,119,50847,1,0,3:0:0:0:
228,119,50950,1,8,0:0:0:0:
228,119,51054,2,0,P|187:167|135:169,1,107.999996704102,2|2,3:2|0:0,0:0:0:0:
207,0,51468,1,10,0:0:0:0:
391,136,51675,6,0,P|442:119|498:105,1,107.999996704102,2|0,0:0|3:0,0:0:0:0:
310,271,52089,2,0,P|259:254|203:240,1,107.999996704102,2|8,0:0|0:0,0:0:0:0:
467,201,52503,2,0,L|453:253,1,53.9999983520508,2|8,3:2|0:0,0:0:0:0:
269,107,52709,2,0,L|282:159,1,53.9999983520508,0|8,3:0|0:0,0:0:0:0:
310,271,52916,1,2,0:0:0:0:
358,37,53123,1,10,0:0:0:0:
494,105,53330,1,2,0:0:0:0:
206,240,53537,6,0,B|149:221|96:263|124:280|71:320|10:298,1,215.999993408203,2|10,3:2|0:0,0:0:0:0:
191,343,54157,1,0,3:0:0:0:
191,343,54261,1,8,0:0:0:0:
191,343,54365,2,0,P|247:342|286:302,1,107.999996704102,2|2,3:2|0:0,0:0:0:0:
448,216,54778,1,10,0:0:0:0:
259,102,54985,2,0,P|269:154|279:208,1,107.999996704102,2|0,0:0|3:0,0:0:0:0:
83,181,55399,5,2,0:0:0:0:
214,0,55606,1,10,0:0:0:0:
15,57,55813,1,2,3:2:0:0:
0,23,55916,1,8,0:0:0:0:
185,129,56123,1,8,0:0:0:0:
174,167,56227,1,2,0:0:0:0:
126,351,56433,1,10,0:0:0:0:
0,245,56640,1,2,0:0:0:0:
230,379,56847,6,0,P|222:330|206:257,1,107.999996704102,6|0,3:2|0:0,0:0:0:0:
472,352,57261,2,0,P|420:366|369:385,1,107.999996704102,10|0,0:2|0:0,0:0:0:0:
209,272,57675,1,2,3:2:0:0:
209,272,57778,1,8,0:0:0:0:
209,272,57881,1,0,3:0:0:0:
386,271,58088,2,0,P|437:261|470:209,1,107.999996704102,10|0,0:0|0:0,0:0:0:0:
256,0,58502,6,0,P|273:87|299:221,1,215.999993408203,6|8,3:2|0:0,0:0:0:0:
411,57,59123,1,10,0:0:0:0:
180,201,59330,1,6,3:2:0:0:
351,130,59537,1,8,0:0:0:0:
351,130,59640,1,8,0:0:0:0:
351,130,59744,2,0,P|397:142|428:152,1,53.9999983520508,10|8,0:0|0:0,0:0:0:0:
487,261,59951,5,10,0:0:0:0:
487,261,60054,1,8,0:0:0:0:
487,261,60157,2,0,B|362:267|414:323|287:330,1,215.999993408203,4|8,3:2|0:0,0:0:0:0:
150,151,60778,5,8,0:0:0:0:
150,151,60881,1,8,0:0:0:0:
150,151,60985,2,0,L|214:168,1,53.9999983520508,10|8,0:0|0:0,0:0:0:0:
361,32,61192,2,0,L|297:49,1,53.9999983520508,8|8,0:0|0:0,0:0:0:0:
353,235,61399,1,8,0:0:0:0:
387,218,61503,1,8,0:0:0:0:
409,186,61606,1,10,0:0:0:0:
415,148,61709,1,8,0:0:0:0:
396,115,61813,5,0,3:0:0:0:
218,0,62020,1,8,0:0:0:0:
307,153,62227,1,8,0:0:0:0:
512,0,62434,2,0,L|493:68,1,53.9999983520508,8|8,0:0|0:0,0:0:0:0:
409,186,62640,5,0,3:0:0:0:
412,207,62744,1,0,3:0:0:0:
415,228,62847,1,2,3:2:0:0:
419,249,62951,1,0,3:0:0:0:
422,270,63054,1,2,3:2:0:0:
198,183,63261,1,10,0:0:0:0:
116,296,63468,5,6,3:2:0:0:
116,296,66158,5,2,3:2:0:0:
303,206,66365,2,0,P|294:168|284:124,1,67.5,10|0,0:0|0:0,0:0:0:0:
466,229,66778,6,0,B|406:212|359:260|389:274|341:319|277:299,1,215.999993408203,6|10,3:2|0:0,0:0:0:0:
123,232,67399,1,0,3:0:0:0:
123,232,67502,1,8,0:0:0:0:
123,232,67606,2,0,P|144:174|203:157,1,107.999996704102,2|2,3:2|0:0,0:0:0:0:
277,299,68020,1,10,0:0:0:0:
58,383,68227,2,0,P|51:340|39:273,1,107.999996704102,2|0,0:0|3:0,0:0:0:0:
184,156,68640,5,2,0:0:0:0:
6,28,68847,1,10,0:0:0:0:
215,76,69054,2,0,L|229:22,1,53.9999983520508,2|8,3:2|0:0,0:0:0:0:
52,172,69261,2,0,L|39:120,1,53.9999983520508,0|8,3:0|0:0,0:0:0:0:
100,40,69468,1,2,0:0:0:0:
213,252,69675,1,8,0:0:0:0:
289,128,69882,1,2,0:0:0:0:
512,314,70089,6,0,P|414:341|311:373,1,215.999993408203,6|10,3:2|0:0,0:0:0:0:
419,147,70709,1,0,3:0:0:0:
419,147,70813,1,8,0:0:0:0:
419,147,70916,2,0,P|399:204|432:247,1,107.999996704102,2|0,3:2|0:0,0:0:0:0:
209,293,71330,2,0,P|155:278|102:264,1,107.999996704102,10|0,0:0|0:0,0:0:0:0:
215,12,71744,6,0,P|300:71|297:174,1,215.999993408203,6|8,3:2|0:0,0:0:0:0:
102,151,72365,1,0,3:0:0:0:
102,151,72468,1,8,0:0:0:0:
102,151,72572,2,0,P|152:132|210:113,1,107.999996704102,2|0,3:2|0:0,0:0:0:0:
139,353,72985,2,0,P|118:311|88:259,1,107.999996704102,10|0,0:0|0:0,0:0:0:0:
323,47,73399,6,0,P|359:88|355:149,1,107.999996704102,6|0,3:2|0:0,0:0:0:0:
198,278,73813,2,0,P|199:225|234:185,1,107.999996704102,10|0,0:0|0:0,0:0:0:0:
397,344,74227,1,2,3:2:0:0:
397,344,74330,1,8,0:0:0:0:
397,344,74433,1,2,3:2:0:0:
311,200,74640,1,2,3:2:0:0:
111,383,74847,6,0,P|98:300|73:157,1,215.999993408203,6|2,3:2|0:0,0:0:0:0:
0,70,75468,1,10,0:0:0:0:
210,196,75675,2,0,P|258:178|315:159,1,107.999996704102,2|4,0:0|3:2,0:0:0:0:
166,105,76089,1,2,3:2:0:0:
166,105,76192,1,8,0:0:0:0:
166,105,76296,1,2,3:2:0:0:
265,314,76503,5,10,0:0:0:0:
265,314,76606,1,8,0:0:0:0:
265,314,76709,2,0,B|322:336|372:295|348:278|397:234|458:255,1,215.999993408203,6|10,3:2|0:0,0:0:0:0:
329,74,77330,1,0,3:0:0:0:
329,74,77433,1,8,0:0:0:0:
329,74,77537,2,0,P|340:134|348:181,1,107.999996704102,2|2,3:2|0:0,0:0:0:0:
175,51,77951,1,8,0:0:0:0:
125,247,78158,2,0,P|178:233|230:220,1,107.999996704102,2|0,0:0|3:0,0:0:0:0:
402,285,78572,5,2,0:0:0:0:
251,121,78779,1,10,0:0:0:0:
495,165,78985,1,2,3:2:0:0:
508,127,79089,1,8,0:0:0:0:
327,235,79296,1,10,0:0:0:0:
317,196,79399,1,2,0:0:0:0:
274,0,79607,1,10,0:0:0:0:
181,193,79814,1,2,0:0:0:0:
460,64,80021,6,0,P|369:89|248:123,1,215.999993408203,6|10,3:2|0:0,0:0:0:0:
95,161,80641,1,0,3:0:0:0:
95,161,80745,1,8,0:0:0:0:
95,161,80847,1,2,3:2:0:0:
243,256,81054,1,2,0:0:0:0:
0,142,81261,1,10,0:0:0:0:
101,276,81468,1,2,0:0:0:0:
227,9,81676,6,0,P|330:6|389:91,1,215.999993408203,4|10,3:2|0:0,0:0:0:0:
402,248,82297,1,2,0:0:0:0:
281,106,82503,1,0,3:0:0:0:
505,8,82709,1,8,0:0:0:0:
309,196,82917,1,8,0:0:0:0:
272,203,83020,1,8,0:0:0:0:
234,212,83124,1,10,0:0:0:0:
198,221,83227,1,8,0:0:0:0:
161,230,83331,6,0,P|129:187|132:135,1,107.999996704102,6|0,3:2|0:0,0:0:0:0:
289,0,83744,1,10,0:0:0:0:
393,145,83951,1,8,0:0:0:0:
393,145,84054,1,8,0:0:0:0:
393,145,84158,1,10,0:0:0:0:
207,93,84365,1,0,3:0:0:0:
297,203,84572,1,2,3:2:0:0:
351,70,84778,1,0,3:0:0:0:
52,1,84985,6,0,P|68:88|88:202,1,180,6|2,3:2|0:0,0:0:0:0:
27,278,85606,1,2,0:0:0:0:
126,295,85813,1,2,0:0:0:0:
191,220,86020,1,2,0:0:0:0:
320,342,86227,1,0,3:0:0:0:
503,157,86435,5,8,0:0:0:0:
503,157,86538,1,8,0:0:0:0:
503,157,86641,2,0,B|397:162|441:209|333:215,1,180,6|0,3:2|0:0,0:0:0:0:
337,215,87261,2,0,P|330:165|312:69,1,135,8|0,0:0|0:0,0:0:0:0:
308,37,87675,1,8,0:0:0:0:
221,248,87882,1,8,0:0:0:0:
88,56,88089,1,8,0:0:0:0:
