osu file format v14

[General]
AudioFilename: audio.mp3
AudioLeadIn: 0
PreviewTime: 36354
Countdown: 0
SampleSet: Soft
StackLeniency: 0.7
Mode: 3
LetterboxInBreaks: 0
SpecialStyle: 0
WidescreenStoryboard: 0

[Editor]
DistanceSpacing: 3.2
BeatDivisor: 4
GridSize: 16
TimelineZoom: 2.2

[Metadata]
Title:Gradation feat. Kitazawa Yuuho (TV Size)
TitleUnicode:ぐらでーしょん feat. 北澤ゆうほ (TV Size)
Artist:KANA-BOON
ArtistUnicode:KANA-BOON
Creator:Chrisse
Version:Lv999
Source:山田くんとLv999の恋をする
Tags:keksikosu anime jpop j-pop japanese pop yamada-kun to lv999 level 999 no koi wa suru loving my love story with yamada kun at lv999 yuho yūho kana boon
BeatmapID:4120203
BeatmapSetID:1983868

[Difficulty]
HPDrainRate:8
CircleSize:4
OverallDifficulty:8
ApproachRate:5
SliderMultiplier:1.4
SliderTickRate:1

[Events]
//Background and Video events
Video,0,"video.mp4"
0,0,"GB.jpg",0,0
//Break Periods
//Storyboard Layer 0 (Background)
//Storyboard Layer 1 (Fail)
//Storyboard Layer 2 (Pass)
//Storyboard Layer 3 (Foreground)
//Storyboard Layer 4 (Overlay)
//Storyboard Sound Samples
Sample,39673,0,"clap.wav",50
Sample,42983,0,"clap.wav",50
Sample,50121,0,"Tom3.wav",30
Sample,52914,0,"clap.wav",50
Sample,52914,0,"Hat open.wav",40
Sample,56225,0,"clap.wav",50
Sample,60052,0,"Tom3.wav",30
Sample,61087,0,"Tom1.wav",30
Sample,61190,0,"Tom1.wav",30
Sample,61294,0,"Tom1.wav",30
Sample,61501,0,"Tom2.wav",30
Sample,61707,0,"Tom2.wav",30
Sample,69466,0,"clap.wav",50
Sample,76604,0,"Tom3.wav",30
Sample,79397,0,"clap.wav",50
Sample,82914,0,"clap.wav",50
Sample,83225,0,"Tom2.wav",30

[TimingPoints]
570,413.793103448276,4,2,1,50,1,0
36983,-100,4,2,1,50,0,1
63466,-100,4,2,1,50,0,0
66776,-100,4,2,1,50,0,1
83328,-100,4,2,1,50,0,0

[HitObjects]
64,192,570,128,4,983:0:0:0:0:
320,192,570,128,8,673:0:0:0:0:
448,192,570,128,0,673:0:0:0:0:
320,192,776,128,4,983:0:0:0:0:
448,192,776,128,8,983:0:0:0:0:
192,192,983,128,0,1190:0:0:0:0:
64,192,1190,1,2,0:0:0:0:
320,192,1190,128,4,1604:0:0:0:0:
448,192,1190,1,0,0:0:0:0:
64,192,1604,128,2,2225:0:0:0:0:
192,192,1604,1,0,0:0:0:0:
192,192,1811,1,8,0:0:0:0:
448,192,1811,1,0,0:0:0:0:
320,192,1914,1,8,0:0:0:0:
448,192,2018,1,0,0:0:0:30:Tom1.wav
192,192,2225,128,8,2638:0:0:0:0:
320,192,2225,128,4,2328:0:0:0:0:
448,192,2225,128,0,2328:0:0:0:0:
320,192,2432,128,8,2638:0:0:0:0:
448,192,2432,128,4,2638:0:0:0:0:
64,192,2638,128,0,2845:0:0:0:0:
192,192,2845,1,2,0:0:0:0:
320,192,2845,1,4,0:0:0:0:
448,192,2845,128,0,3259:0:0:0:0:
64,192,3259,128,2,3466:0:0:0:0:
320,192,3259,1,0,0:0:0:0:
192,192,3466,128,8,3673:0:0:0:0:
448,192,3466,1,0,0:0:0:0:
320,192,3570,1,8,0:0:0:0:
64,192,3673,1,0,0:0:0:30:Tom1.wav
448,192,3673,128,0,3880:0:0:0:0:
64,192,3880,128,4,3983:0:0:0:0:
192,192,3880,128,8,3983:0:0:0:0:
320,192,3880,128,0,4294:0:0:0:0:
64,192,4087,128,4,4294:0:0:0:0:
192,192,4087,128,8,4294:0:0:0:0:
448,192,4294,128,0,4501:0:0:0:0:
64,192,4501,128,2,4914:0:0:0:0:
192,192,4501,1,4,0:0:0:0:
320,192,4501,1,0,0:0:0:0:
320,192,4914,1,2,0:0:0:0:
448,192,4914,128,0,5535:0:0:0:0:
64,192,5121,1,8,0:0:0:0:
192,192,5121,1,0,0:0:0:0:
320,192,5121,1,0,0:0:0:0:
64,192,5328,1,8,0:0:0:0:
192,192,5328,1,0,0:0:0:0:
320,192,5328,1,0,0:0:0:0:
64,192,5535,128,0,5742:0:0:0:40:Hat open.wav
192,192,5535,1,0,0:0:0:0:
320,192,5742,128,0,5949:0:0:0:30:Tom2.wav
448,192,5845,1,0,0:0:0:30:Tom2.wav
64,192,5949,1,0,0:0:0:30:Tom3.wav
192,192,5949,128,0,6156:0:0:0:0:
320,192,6156,1,0,0:0:0:30:Tom3.wav
448,192,6156,128,0,6570:0:0:0:0:
64,192,6570,1,8,0:0:0:0:
320,192,6570,1,0,0:0:0:0:
192,192,6673,1,8,0:0:0:0:
448,192,6673,1,0,0:0:0:0:
64,192,6776,1,8,0:0:0:0:
320,192,6776,1,0,0:0:0:0:
64,192,6983,128,2,7604:0:0:0:0:
192,192,6983,128,4,7397:0:0:0:0:
448,192,6983,1,0,0:0:0:0:
320,192,7397,1,2,0:0:0:0:
448,192,7397,1,0,0:0:0:0:
192,192,7604,1,8,0:0:0:0:
320,192,7604,1,0,0:0:0:0:
448,192,7604,128,0,8018:0:0:0:0:
64,192,8018,1,0,0:0:0:15:Hat close.wav
192,192,8225,1,2,0:0:0:0:
320,192,8225,1,0,0:0:0:0:
64,192,8432,1,8,0:0:0:0:
192,192,8432,1,0,0:0:0:0:
448,192,8432,1,0,0:0:0:0:
64,192,8638,1,2,0:0:0:0:
320,192,8638,1,0,0:0:0:0:
192,192,8845,1,0,0:0:0:15:Hat close.wav
320,192,9052,1,2,0:0:0:0:
448,192,9052,1,0,0:0:0:0:
64,192,9259,1,8,0:0:0:0:
192,192,9259,1,0,0:0:0:0:
448,192,9259,1,0,0:0:0:0:
192,192,9466,1,0,0:0:0:0:
320,192,9673,1,2,0:0:0:0:
448,192,9673,1,0,0:0:0:0:
64,192,9880,1,8,0:0:0:0:
192,192,9880,1,0,0:0:0:0:
448,192,9880,1,0,0:0:0:0:
192,192,10087,1,2,0:0:0:0:
320,192,10087,1,0,0:0:0:0:
64,192,10294,1,8,0:0:0:0:
320,192,10294,1,0,0:0:0:40:Hat open.wav
448,192,10294,1,0,0:0:0:0:
192,192,10501,128,0,10914:0:0:0:0:
320,192,10707,1,2,0:0:0:0:
448,192,10707,1,0,0:0:0:0:
64,192,10914,1,8,0:0:0:0:
320,192,10914,1,0,0:0:0:0:
448,192,10914,1,0,0:0:0:0:
64,192,11121,1,0,0:0:0:0:
320,192,11328,128,2,11742:0:0:0:0:
448,192,11328,1,0,0:0:0:0:
64,192,11535,1,2,0:0:0:0:
192,192,11535,1,0,0:0:0:0:
64,192,11742,1,8,0:0:0:0:
192,192,11742,1,0,0:0:0:0:
448,192,11742,1,0,0:0:0:0:
448,192,11949,1,0,0:0:0:0:
64,192,12156,1,2,0:0:0:0:
320,192,12156,1,0,0:0:0:0:
192,192,12363,1,2,0:0:0:0:
320,192,12363,1,0,0:0:0:0:
64,192,12570,1,8,0:0:0:0:
192,192,12570,1,0,0:0:0:0:
448,192,12570,1,0,0:0:0:0:
320,192,12776,1,0,0:0:0:0:
320,192,12983,1,2,0:0:0:0:
448,192,12983,1,0,0:0:0:0:
64,192,13190,1,2,0:0:0:0:
192,192,13190,1,0,0:0:0:0:
64,192,13397,1,8,0:0:0:0:
320,192,13397,1,0,0:0:0:0:
448,192,13397,1,0,0:0:0:0:
192,192,13604,128,0,14018:0:0:0:0:
320,192,13811,1,2,0:0:0:0:
448,192,13811,1,0,0:0:0:40:Hat open.wav
64,192,14225,1,8,0:0:0:0:
320,192,14225,128,0,14432:0:0:0:0:
448,192,14225,128,0,14638:0:0:0:0:
64,192,14638,1,0,0:0:0:15:Hat close.wav
192,192,14845,1,2,0:0:0:0:
320,192,14845,1,0,0:0:0:0:
64,192,15052,1,8,0:0:0:0:
192,192,15052,1,0,0:0:0:0:
448,192,15052,1,0,0:0:0:0:
64,192,15259,128,2,15673:0:0:0:0:
320,192,15259,1,0,0:0:0:0:
192,192,15466,1,0,0:0:0:15:Hat close.wav
320,192,15673,1,2,0:0:0:0:
448,192,15673,128,0,16087:0:0:0:0:
64,192,15880,1,8,0:0:0:0:
192,192,15880,1,0,0:0:0:0:
320,192,15880,1,0,0:0:0:0:
192,192,16087,128,0,16294:0:0:0:0:
320,192,16294,1,2,0:0:0:0:
448,192,16294,1,0,0:0:0:15:Hat close.wav
64,192,16501,1,2,0:0:0:0:
320,192,16501,1,0,0:0:0:0:
64,192,16707,1,8,0:0:0:0:
192,192,16707,1,0,0:0:0:0:
448,192,16707,1,0,0:0:0:0:
192,192,16914,1,0,0:0:0:0:
320,192,16914,1,0,0:0:0:0:
64,192,17121,1,2,0:0:0:0:
448,192,17121,1,0,0:0:0:40:Hat open.wav
192,192,17328,1,0,0:0:0:0:
64,192,17535,1,8,0:0:0:0:
320,192,17535,1,0,0:0:0:0:
448,192,17535,1,0,0:0:0:0:
320,192,17742,1,0,0:0:0:0:
448,192,17845,1,0,0:0:0:0:
64,192,17949,1,2,0:0:0:0:
192,192,17949,1,0,0:0:0:15:Hat close.wav
320,192,18156,1,2,0:0:0:0:
448,192,18156,1,0,0:0:0:0:
64,192,18363,1,8,0:0:0:0:
192,192,18363,1,0,0:0:0:0:
448,192,18363,1,0,0:0:0:0:
192,192,18570,1,0,0:0:0:0:
64,192,18776,1,2,0:0:0:0:
320,192,18776,1,0,0:0:0:15:Hat close.wav
192,192,18983,1,2,0:0:0:0:
448,192,18983,1,0,0:0:0:0:
64,192,19190,1,8,0:0:0:0:
320,192,19190,128,0,19294:0:0:0:15:Hat close.wav
448,192,19190,1,0,0:0:0:0:
192,192,19397,1,2,0:0:0:0:
320,192,19397,128,0,19501:0:0:0:0:
64,192,19604,128,4,19707:0:0:0:0:
192,192,19604,1,2,0:0:0:0:
448,192,19604,1,0,0:0:0:15:Hat close.wav
64,192,19811,128,2,19914:0:0:0:0:
320,192,19811,1,0,0:0:0:15:Hat close.wav
192,192,20018,1,8,0:0:0:0:
320,192,20018,128,0,20121:0:0:0:30:Tom1.wav
64,192,20121,1,0,0:0:0:30:Tom2.wav
448,192,20121,1,0,0:0:0:0:
192,192,20225,1,0,0:0:0:30:Tom3.wav
320,192,20225,128,0,20328:0:0:0:0:
64,192,20432,128,4,20638:0:0:0:0:
192,192,20432,128,8,20535:0:0:0:0:
448,192,20432,1,0,0:0:0:0:
64,192,20845,1,8,0:0:0:0:
192,192,20845,1,2,0:0:0:0:
320,192,20845,1,0,0:0:0:0:
192,192,21052,1,0,0:0:0:0:
64,192,21259,1,8,0:0:0:0:
320,192,21259,1,2,0:0:0:0:
448,192,21259,1,0,0:0:0:0:
192,192,21466,1,2,0:0:0:0:
320,192,21466,1,0,0:0:0:0:
64,192,21673,1,8,0:0:0:0:
192,192,21673,1,0,0:0:0:0:
448,192,21673,1,0,0:0:0:0:
64,192,21880,128,2,22294:0:0:0:0:
320,192,21880,1,4,0:0:0:0:
448,192,21880,1,0,0:0:0:0:
192,192,22294,1,2,0:0:0:0:
448,192,22294,1,0,0:0:0:0:
64,192,22501,1,8,0:0:0:0:
320,192,22501,1,0,0:0:0:40:Hat open.wav
448,192,22501,1,0,0:0:0:0:
64,192,22707,1,8,0:0:0:0:
192,192,22707,1,0,0:0:0:0:
320,192,22707,128,0,23121:0:0:0:0:
192,192,22914,1,4,0:0:0:0:
448,192,22914,1,0,0:0:0:40:Hat open.wav
64,192,23121,1,2,0:0:0:0:
448,192,23121,1,0,0:0:0:0:
64,192,23328,1,4,0:0:0:0:
192,192,23328,1,8,0:0:0:0:
320,192,23328,1,0,0:0:0:40:Hat open.wav
448,192,23535,1,0,0:0:0:0:
192,192,23742,1,4,0:0:0:0:
320,192,23742,1,0,0:0:0:30:Tom1.wav
448,192,23742,1,0,0:0:0:0:
192,192,23949,1,0,0:0:0:0:
64,192,24156,1,8,0:0:0:0:
320,192,24156,1,0,0:0:0:0:
448,192,24156,1,0,0:0:0:0:
320,192,24363,1,0,0:0:0:0:
64,192,24570,1,8,0:0:0:0:
192,192,24570,1,0,0:0:0:0:
448,192,24570,1,0,0:0:0:0:
64,192,24776,1,2,0:0:0:0:
320,192,24776,1,0,0:0:0:0:
192,192,24983,1,8,0:0:0:0:
320,192,24983,1,0,0:0:0:0:
448,192,24983,1,0,0:0:0:0:
64,192,25190,1,4,0:0:0:0:
192,192,25190,1,2,0:0:0:0:
448,192,25190,128,0,25811:0:0:0:0:
192,192,25604,1,2,0:0:0:0:
320,192,25604,1,0,0:0:0:0:
64,192,25811,1,8,0:0:0:0:
192,192,25811,1,0,0:0:0:40:Hat open.wav
320,192,25811,1,0,0:0:0:0:
64,192,26018,1,2,0:0:0:0:
448,192,26018,1,8,0:0:0:0:
320,192,26121,1,0,0:0:0:0:
192,192,26225,1,4,0:0:0:0:
448,192,26225,1,0,0:0:0:40:Hat open.wav
64,192,26432,1,2,0:0:0:0:
320,192,26432,1,0,0:0:0:0:
192,192,26638,1,8,0:0:0:0:
320,192,26638,1,4,0:0:0:0:
448,192,26638,1,0,0:0:0:40:Hat open.wav
192,192,26845,1,0,0:0:0:0:
64,192,27052,128,4,27259:0:0:0:0:
320,192,27052,128,8,27259:0:0:0:0:
448,192,27052,1,0,0:0:0:0:
64,192,27466,1,8,0:0:0:0:
192,192,27466,128,0,27673:0:0:0:0:
448,192,27466,128,0,27673:0:0:0:0:
320,192,27673,128,0,27880:0:0:0:0:
64,192,27880,128,2,28087:0:0:0:0:
192,192,27880,1,0,0:0:0:0:
320,192,28087,128,2,28294:0:0:0:0:
448,192,28087,1,0,0:0:0:0:
64,192,28294,1,8,0:0:0:0:
192,192,28294,128,0,28501:0:0:0:0:
448,192,28294,1,0,0:0:0:0:
64,192,28501,1,2,0:0:0:0:
320,192,28501,1,4,0:0:0:0:
448,192,28501,128,0,28914:0:0:0:0:
192,192,28707,1,0,0:0:0:0:
64,192,28914,1,2,0:0:0:0:
320,192,28914,1,0,0:0:0:0:
192,192,29121,1,8,0:0:0:0:
320,192,29121,1,0,0:0:0:40:Hat open.wav
448,192,29121,1,0,0:0:0:0:
64,192,29328,1,8,0:0:0:0:
192,192,29328,1,0,0:0:0:0:
448,192,29328,1,0,0:0:0:0:
64,192,29535,1,4,0:0:0:0:
320,192,29535,1,0,0:0:0:40:Hat open.wav
192,192,29742,1,2,0:0:0:0:
448,192,29742,1,0,0:0:0:0:
64,192,29949,1,8,0:0:0:0:
192,192,29949,1,0,0:0:0:40:Hat open.wav
320,192,29949,1,0,0:0:0:0:
320,192,30156,1,0,0:0:0:0:
64,192,30363,128,4,30776:0:0:0:0:
192,192,30363,1,2,0:0:0:0:
448,192,30363,1,0,0:0:0:0:
192,192,30776,1,8,0:0:0:0:
320,192,30776,1,0,0:0:0:0:
448,192,30776,1,0,0:0:0:0:
64,192,30983,1,8,0:0:0:0:
192,192,30983,1,0,0:0:0:0:
320,192,31087,1,8,0:0:0:0:
448,192,31087,1,0,0:0:0:0:
64,192,31190,1,8,0:0:0:0:
192,192,31190,1,0,0:0:0:0:
320,192,31397,1,2,0:0:0:0:
448,192,31397,1,0,0:0:0:30:Tom2.wav
64,192,31604,1,2,0:0:0:0:
192,192,31604,1,0,0:0:0:30:Tom3.wav
64,192,31811,128,8,32018:0:0:0:0:
320,192,31811,1,4,0:0:0:0:
448,192,31811,128,0,32018:0:0:0:40:Hat open.wav
192,192,32018,128,0,32638:0:0:0:0:
320,192,32018,128,0,32638:0:0:0:0:
64,192,32432,1,2,0:0:0:0:
448,192,32432,1,0,0:0:0:0:
64,192,32845,128,2,33259:0:0:0:0:
448,192,32845,128,0,33259:0:0:0:0:
192,192,33259,128,2,33466:0:0:0:0:
320,192,33259,128,0,33466:0:0:0:0:
448,192,33466,128,0,33673:0:0:0:0:
64,192,33673,128,8,34087:0:0:0:0:
192,192,33673,128,4,34087:0:0:0:0:
320,192,33673,1,0,0:0:0:0:
320,192,34087,1,0,0:0:0:30:Tom3.wav
448,192,34087,1,0,0:0:0:0:
320,192,34294,1,0,0:0:0:30:Tom2.wav
448,192,34294,1,0,0:0:0:0:
64,192,34501,1,8,0:0:0:0:
192,192,34501,1,0,0:0:0:30:Tom3.wav
448,192,34501,1,0,0:0:0:0:
64,192,34707,1,0,0:0:0:30:Tom2.wav
192,192,34707,1,0,0:0:0:0:
64,192,34914,1,8,0:0:0:0:
320,192,34914,1,0,0:0:0:30:Tom3.wav
448,192,34914,1,0,0:0:0:0:
192,192,35121,1,2,0:0:0:0:
320,192,35121,1,8,0:0:0:0:
448,192,35121,1,4,0:0:0:0:
64,192,35328,1,2,0:0:0:0:
192,192,35328,1,0,0:0:0:0:
320,192,35535,1,8,0:0:0:0:
448,192,35535,1,0,0:0:0:30:Tom2.wav
64,192,35638,1,8,0:0:0:0:
192,192,35638,1,0,0:0:0:30:Tom1.wav
320,192,35742,1,8,0:0:0:0:
448,192,35742,1,0,0:0:0:30:Tom3.wav
64,192,35845,1,8,0:0:0:0:
192,192,35845,1,0,0:0:0:30:Tom1.wav
320,192,35949,1,8,0:0:0:0:
448,192,35949,1,0,0:0:0:30:Tom1.wav
64,192,36052,1,8,0:0:0:0:
192,192,36052,1,0,0:0:0:30:Tom2.wav
320,192,36156,1,8,0:0:0:0:
448,192,36156,1,0,0:0:0:30:Tom1.wav
192,192,36259,1,0,0:0:0:0:
64,192,36363,1,0,0:0:0:30:Tom2.wav
448,192,36363,1,0,0:0:0:0:
192,192,36466,1,0,0:0:0:30:Tom1.wav
320,192,36466,1,0,0:0:0:0:
64,192,36570,1,0,0:0:0:30:Tom2.wav
448,192,36570,128,0,36776:0:0:0:0:
192,192,36776,128,0,36983:0:0:0:30:Tom3.wav
320,192,36776,1,0,0:0:0:0:
64,192,36983,1,2,0:0:0:0:
320,192,36983,1,0,0:0:0:40:dazzling finish.wav
448,192,36983,128,0,37397:0:0:0:50:special finish.wav
192,192,37190,1,0,0:0:0:40:Hat open.wav
64,192,37397,128,8,37604:0:0:0:0:
192,192,37397,1,0,0:0:0:0:
320,192,37397,1,0,0:0:0:0:
448,192,37604,1,0,0:0:0:40:Hat open.wav
192,192,37742,1,0,0:0:0:30:Tom1.wav
320,192,37811,1,2,0:0:0:0:
448,192,37811,1,0,0:0:0:0:
64,192,37914,1,2,0:0:0:0:
192,192,37914,1,8,0:0:0:0:
320,192,38018,1,0,0:0:0:40:Hat open.wav
64,192,38225,1,8,0:0:0:0:
192,192,38225,1,0,0:0:0:0:
448,192,38225,1,0,0:0:0:0:
64,192,38432,128,0,38845:0:0:0:40:Hat open.wav
320,192,38638,1,2,0:0:0:0:
448,192,38638,1,0,0:0:0:0:
192,192,38845,1,0,0:0:0:40:Hat open.wav
64,192,39052,1,8,0:0:0:0:
320,192,39052,1,0,0:0:0:0:
448,192,39052,1,0,0:0:0:0:
192,192,39259,1,0,0:0:0:40:Hat open.wav
320,192,39363,1,0,0:0:0:30:Tom1.wav
64,192,39466,1,0,0:0:0:30:Tom2.wav
192,192,39466,1,0,0:0:0:0:
320,192,39570,1,8,0:0:0:0:
448,192,39570,1,0,0:0:0:30:Tom3.wav
64,192,39673,1,0,0:0:0:40:Hat open.wav
192,192,39880,1,8,0:0:0:0:
320,192,39880,1,0,0:0:0:50:clap.wav
448,192,39880,1,0,0:0:0:0:
448,192,40087,1,0,0:0:0:40:Hat open.wav
64,192,40294,128,2,40707:0:0:0:0:
192,192,40294,1,0,0:0:0:0:
320,192,40294,1,0,0:0:0:0:
448,192,40501,1,0,0:0:0:40:Hat open.wav
192,192,40707,1,8,0:0:0:0:
320,192,40707,1,0,0:0:0:0:
448,192,40707,128,0,40914:0:0:0:0:
64,192,40914,1,0,0:0:0:40:Hat open.wav
320,192,41052,1,0,0:0:0:30:Tom1.wav
64,192,41121,1,2,0:0:0:0:
192,192,41121,1,0,0:0:0:0:
320,192,41225,1,8,0:0:0:0:
448,192,41225,1,0,0:0:0:0:
192,192,41328,1,0,0:0:0:40:Hat open.wav
64,192,41535,1,8,0:0:0:0:
320,192,41535,1,0,0:0:0:0:
448,192,41535,1,0,0:0:0:0:
448,192,41742,128,0,42156:0:0:0:40:Hat open.wav
64,192,41949,1,2,0:0:0:0:
192,192,41949,1,0,0:0:0:0:
320,192,42156,1,0,0:0:0:40:Hat open.wav
64,192,42363,1,8,0:0:0:0:
192,192,42363,1,0,0:0:0:0:
448,192,42363,1,0,0:0:0:0:
320,192,42570,1,0,0:0:0:40:Hat open.wav
448,192,42673,1,0,0:0:0:30:Tom1.wav
64,192,42776,1,2,0:0:0:0:
192,192,42776,1,0,0:0:0:0:
320,192,42880,1,8,0:0:0:0:
448,192,42880,1,0,0:0:0:0:
64,192,42983,1,0,0:0:0:30:Tom1.wav
192,192,42983,1,0,0:0:0:40:Hat open.wav
320,192,43087,1,0,0:0:0:30:Tom1.wav
64,192,43190,1,8,0:0:0:0:
192,192,43190,1,0,0:0:0:50:clap.wav
448,192,43190,1,0,0:0:0:0:
320,192,43397,1,0,0:0:0:40:Hat open.wav
64,192,43604,1,2,0:0:0:0:
192,192,43604,1,0,0:0:0:0:
448,192,43604,1,0,0:0:0:0:
192,192,43811,1,0,0:0:0:40:Hat open.wav
64,192,44018,1,8,0:0:0:0:
320,192,44018,1,2,0:0:0:0:
448,192,44018,1,0,0:0:0:0:
192,192,44225,1,0,0:0:0:40:Hat open.wav
64,192,44328,1,0,0:0:0:30:Tom2.wav
320,192,44432,1,2,0:0:0:0:
448,192,44432,1,0,0:0:0:0:
64,192,44535,1,8,0:0:0:0:
192,192,44535,1,0,0:0:0:0:
448,192,44638,1,0,0:0:0:40:Hat open.wav
64,192,44845,1,8,0:0:0:0:
192,192,44845,1,0,0:0:0:0:
320,192,44845,1,0,0:0:0:0:
448,192,45052,1,0,0:0:0:40:Hat open.wav
320,192,45156,1,0,0:0:0:0:
64,192,45259,1,2,0:0:0:0:
192,192,45259,1,0,0:0:0:0:
448,192,45259,1,0,0:0:0:0:
64,192,45466,1,0,0:0:0:40:Hat open.wav
192,192,45673,1,8,0:0:0:0:
320,192,45673,1,0,0:0:0:0:
448,192,45673,1,0,0:0:0:0:
64,192,45880,1,0,0:0:0:40:Hat open.wav
448,192,45983,1,0,0:0:0:30:Tom1.wav
64,192,46087,1,2,0:0:0:0:
192,192,46087,1,0,0:0:0:0:
320,192,46190,1,8,0:0:0:0:
448,192,46190,1,0,0:0:0:0:
192,192,46294,1,0,0:0:0:40:Hat open.wav
64,192,46501,1,8,0:0:0:0:
320,192,46501,1,0,0:0:0:0:
448,192,46501,1,0,0:0:0:0:
192,192,46707,1,0,0:0:0:40:Hat open.wav
64,192,46914,1,8,0:0:0:0:
192,192,46914,1,4,0:0:0:0:
448,192,46914,128,0,47328:0:0:0:0:
320,192,47121,1,0,0:0:0:40:Hat open.wav
64,192,47328,128,8,47535:0:0:0:0:
192,192,47328,1,0,0:0:0:0:
320,192,47328,1,0,0:0:0:0:
448,192,47535,1,0,0:0:0:40:Hat open.wav
192,192,47638,1,0,0:0:0:30:Tom3.wav
320,192,47638,1,0,0:0:0:0:
64,192,47742,1,8,0:0:0:0:
448,192,47742,1,0,0:0:0:30:Tom2.wav
192,192,47949,1,0,0:0:0:30:Tom2.wav
320,192,47949,1,0,0:0:0:0:
64,192,48156,1,2,0:0:0:0:
448,192,48156,1,0,0:0:0:0:
64,192,48363,1,4,0:0:0:0:
192,192,48363,1,8,0:0:0:0:
320,192,48363,128,0,48776:0:0:0:0:
448,192,48570,1,2,0:0:0:0:
64,192,48776,1,0,0:0:0:40:Hat open.wav
192,192,48776,128,0,49190:0:0:0:0:
320,192,48983,1,8,0:0:0:0:
448,192,48983,1,2,0:0:0:0:
64,192,49190,1,0,0:0:0:40:Hat open.wav
448,192,49190,128,0,49397:0:0:0:0:
64,192,49397,1,8,0:0:0:0:
192,192,49397,1,4,0:0:0:0:
320,192,49397,1,0,0:0:0:0:
448,192,49604,1,0,0:0:0:30:Tom1.wav
64,192,49707,1,0,0:0:0:30:Tom1.wav
192,192,49707,1,0,0:0:0:0:
320,192,49811,1,8,0:0:0:0:
448,192,49811,1,0,0:0:0:30:Tom2.wav
64,192,49914,1,8,0:0:0:0:
192,192,49914,1,0,0:0:0:30:Tom2.wav
320,192,50018,1,8,0:0:0:0:
448,192,50018,1,0,0:0:0:30:Tom3.wav
192,192,50121,1,8,0:0:0:0:
64,192,50225,1,2,0:0:0:0:
320,192,50225,1,0,0:0:0:50:special finish.wav
448,192,50225,128,0,50638:0:0:0:0:
192,192,50432,1,0,0:0:0:40:Hat open.wav
64,192,50638,128,8,50845:0:0:0:0:
192,192,50638,1,0,0:0:0:0:
320,192,50638,1,0,0:0:0:0:
448,192,50845,1,0,0:0:0:40:Hat open.wav
320,192,50949,1,0,0:0:0:30:Tom1.wav
64,192,51052,1,0,0:0:0:30:Tom3.wav
192,192,51052,1,0,0:0:0:0:
320,192,51156,1,0,0:0:0:30:Tom2.wav
448,192,51156,1,0,0:0:0:0:
64,192,51259,1,0,0:0:0:40:Hat open.wav
192,192,51466,1,8,0:0:0:0:
320,192,51466,1,0,0:0:0:0:
448,192,51466,1,0,0:0:0:0:
192,192,51673,128,0,52087:0:0:0:40:Hat open.wav
64,192,51880,1,2,0:0:0:0:
448,192,51880,1,0,0:0:0:0:
320,192,52087,1,0,0:0:0:40:Hat open.wav
64,192,52294,1,8,0:0:0:0:
192,192,52294,1,0,0:0:0:0:
448,192,52294,1,0,0:0:0:0:
320,192,52501,1,0,0:0:0:40:Hat open.wav
64,192,52604,1,0,0:0:0:30:Tom1.wav
320,192,52707,1,2,0:0:0:0:
448,192,52707,1,0,0:0:0:30:Tom2.wav
64,192,52811,1,8,0:0:0:0:
192,192,52811,1,0,0:0:0:30:Tom3.wav
448,192,52914,1,0,0:0:0:30:Tom1.wav
64,192,53121,1,8,0:0:0:0:
192,192,53121,1,0,0:0:0:50:clap.wav
320,192,53121,1,0,0:0:0:0:
448,192,53328,1,0,0:0:0:40:Hat open.wav
64,192,53535,128,2,53949:0:0:0:0:
320,192,53535,1,0,0:0:0:0:
448,192,53535,1,0,0:0:0:0:
192,192,53742,1,0,0:0:0:40:Hat open.wav
192,192,53949,1,8,0:0:0:0:
320,192,53949,1,0,0:0:0:0:
448,192,53949,128,0,54156:0:0:0:0:
64,192,54156,1,0,0:0:0:40:Hat open.wav
320,192,54294,1,0,0:0:0:30:Tom1.wav
64,192,54363,1,2,0:0:0:0:
192,192,54363,1,0,0:0:0:0:
320,192,54466,1,8,0:0:0:0:
448,192,54466,1,0,0:0:0:0:
192,192,54570,1,0,0:0:0:40:Hat open.wav
64,192,54776,1,8,0:0:0:0:
320,192,54776,1,0,0:0:0:0:
448,192,54776,1,0,0:0:0:0:
448,192,54983,128,0,55397:0:0:0:40:Hat open.wav
64,192,55190,1,2,0:0:0:0:
320,192,55190,1,0,0:0:0:0:
192,192,55397,1,0,0:0:0:40:Hat open.wav
64,192,55604,1,8,0:0:0:0:
320,192,55604,1,0,0:0:0:0:
448,192,55604,1,0,0:0:0:0:
192,192,55811,1,0,0:0:0:40:Hat open.wav
64,192,55914,1,0,0:0:0:30:Tom1.wav
320,192,56018,1,2,0:0:0:0:
448,192,56018,1,0,0:0:0:0:
64,192,56121,1,8,0:0:0:0:
192,192,56121,1,0,0:0:0:0:
320,192,56225,1,0,0:0:0:30:Tom1.wav
448,192,56225,1,0,0:0:0:40:Hat open.wav
192,192,56328,1,0,0:0:0:30:Tom1.wav
64,192,56432,1,8,0:0:0:0:
320,192,56432,1,0,0:0:0:50:clap.wav
448,192,56432,1,0,0:0:0:0:
192,192,56638,1,0,0:0:0:40:Hat open.wav
64,192,56845,1,2,0:0:0:0:
192,192,56845,1,4,0:0:0:0:
448,192,56845,1,0,0:0:0:0:
320,192,57052,1,0,0:0:0:40:Hat open.wav
64,192,57259,1,2,0:0:0:0:
320,192,57259,1,8,0:0:0:0:
448,192,57259,1,0,0:0:0:0:
192,192,57466,1,0,0:0:0:40:Hat open.wav
64,192,57570,1,0,0:0:0:30:Tom2.wav
448,192,57570,1,0,0:0:0:0:
192,192,57673,1,2,0:0:0:0:
320,192,57673,1,0,0:0:0:0:
64,192,57776,1,0,0:0:0:30:Tom2.wav
448,192,57776,1,0,0:0:0:0:
192,192,57880,1,0,0:0:0:40:Hat open.wav
320,192,57880,1,0,0:0:0:0:
64,192,58087,128,8,58501:0:0:0:0:
320,192,58087,1,0,0:0:0:0:
448,192,58087,1,0,0:0:0:0:
192,192,58294,1,0,0:0:0:40:Hat open.wav
192,192,58501,1,2,0:0:0:0:
320,192,58501,128,4,58914:0:0:0:0:
448,192,58501,128,0,58914:0:0:0:0:
64,192,58914,1,2,0:0:0:0:
192,192,58914,1,0,0:0:0:30:Tom1.wav
192,192,59121,1,8,0:0:0:0:
320,192,59121,1,0,0:0:0:30:Tom1.wav
64,192,59328,1,8,0:0:0:0:
320,192,59328,1,4,0:0:0:0:
448,192,59328,1,0,0:0:0:0:
64,192,59535,1,8,0:0:0:0:
192,192,59535,1,0,0:0:0:30:Tom2.wav
320,192,59638,1,8,0:0:0:0:
448,192,59638,1,0,0:0:0:30:Tom2.wav
64,192,59742,1,8,0:0:0:0:
192,192,59742,1,0,0:0:0:30:Tom2.wav
320,192,59845,1,8,0:0:0:0:
448,192,59845,1,0,0:0:0:30:Tom2.wav
64,192,59949,1,8,0:0:0:0:
192,192,59949,1,0,0:0:0:30:Tom3.wav
448,192,60052,1,8,0:0:0:0:
64,192,60156,128,4,60259:0:0:0:0:
192,192,60156,1,2,0:0:0:0:
320,192,60156,1,8,0:0:0:0:
64,192,60363,128,0,60466:0:0:0:0:
192,192,60570,128,8,60673:0:0:0:0:
320,192,60570,1,0,0:0:0:0:
448,192,60570,1,0,0:0:0:0:
192,192,60776,128,0,60880:0:0:0:30:Tom1.wav
448,192,60880,1,8,0:0:0:0:
64,192,60983,1,8,0:0:0:0:
320,192,60983,128,2,61087:0:0:0:0:
192,192,61087,1,8,0:0:0:0:
320,192,61190,128,8,61294:0:0:0:0:
192,192,61294,1,8,0:0:0:0:
64,192,61397,1,8,0:0:0:0:
448,192,61397,128,0,61501:0:0:0:30:Tom2.wav
320,192,61501,1,8,0:0:0:0:
192,192,61604,1,8,0:0:0:0:
448,192,61604,128,0,61707:0:0:0:30:Tom2.wav
320,192,61707,1,8,0:0:0:0:
64,192,61811,128,2,61914:0:0:0:0:
192,192,61811,1,0,0:0:0:30:Tom3.wav
64,192,62018,128,8,62121:0:0:0:0:
448,192,62018,1,2,0:0:0:0:
192,192,62225,1,8,0:0:0:0:
320,192,62225,128,0,62328:0:0:0:0:
64,192,62432,1,8,0:0:0:0:
320,192,62432,128,0,62535:0:0:0:0:
448,192,62535,1,8,0:0:0:0:
64,192,62638,1,2,0:0:0:0:
192,192,62638,128,0,62742:0:0:0:30:Tom1.wav
320,192,62742,1,0,0:0:0:30:Tom3.wav
192,192,62845,128,0,62949:0:0:0:30:Tom1.wav
64,192,62949,1,0,0:0:0:30:Tom2.wav
320,192,63052,1,2,0:0:0:0:
448,192,63052,128,0,63156:0:0:0:30:Tom3.wav
64,192,63259,1,8,0:0:0:0:
192,192,63259,1,0,0:0:0:40:Hat open.wav
448,192,63259,128,0,63363:0:0:0:0:
320,192,63466,128,0,63776:0:0:0:15:Hat close.wav
192,192,63776,128,0,64138:0:0:0:0:
448,192,63880,128,0,64294:0:0:0:0:
64,192,64138,128,0,64501:0:0:0:0:
320,192,64294,128,0,64707:0:0:0:0:
192,192,64501,128,0,64914:0:0:0:0:
448,192,64707,128,0,64914:0:0:0:0:
320,192,64914,128,0,65328:0:0:0:0:
64,192,65190,128,0,65466:0:0:0:0:
448,192,65328,128,0,65535:0:0:0:0:
192,192,65466,128,0,65880:0:0:0:0:
320,192,65535,128,0,65742:0:0:0:0:
448,192,65742,128,0,66156:0:0:0:0:
192,192,66156,1,2,0:0:0:0:
320,192,66156,128,0,66363:0:0:0:40:Hat open.wav
64,192,66363,1,8,0:0:0:0:
192,192,66363,1,0,0:0:0:30:Tom1.wav
448,192,66363,128,0,66570:0:0:0:0:
64,192,66570,128,0,66776:0:0:0:0:
192,192,66776,1,2,0:0:0:0:
320,192,66776,1,0,0:0:0:40:dazzling finish.wav
448,192,66776,128,0,67190:0:0:0:50:special finish.wav
64,192,67190,128,8,67397:0:0:0:0:
192,192,67190,1,0,0:0:0:0:
320,192,67190,1,0,0:0:0:0:
448,192,67397,1,0,0:0:0:40:Hat open.wav
192,192,67535,1,0,0:0:0:30:Tom1.wav
320,192,67604,1,2,0:0:0:0:
448,192,67604,1,0,0:0:0:0:
64,192,67707,1,0,0:0:0:30:Tom1.wav
192,192,67707,1,0,0:0:0:0:
320,192,67811,1,0,0:0:0:40:Hat open.wav
64,192,68018,1,8,0:0:0:0:
192,192,68018,1,0,0:0:0:0:
448,192,68018,1,0,0:0:0:0:
64,192,68225,128,0,68638:0:0:0:40:Hat open.wav
320,192,68328,1,0,0:0:0:0:
192,192,68432,1,2,0:0:0:0:
448,192,68432,1,0,0:0:0:0:
320,192,68638,1,0,0:0:0:40:Hat open.wav
192,192,68742,1,0,0:0:0:0:
64,192,68845,1,8,0:0:0:0:
320,192,68845,1,0,0:0:0:0:
448,192,68845,1,0,0:0:0:0:
192,192,69052,1,0,0:0:0:40:Hat open.wav
320,192,69156,1,0,0:0:0:30:Tom1.wav
64,192,69259,1,2,0:0:0:0:
448,192,69259,1,0,0:0:0:30:Tom2.wav
192,192,69363,1,0,0:0:0:30:Tom1.wav
320,192,69363,1,0,0:0:0:0:
448,192,69466,1,0,0:0:0:40:Hat open.wav
192,192,69570,1,0,0:0:0:0:
64,192,69673,1,8,0:0:0:0:
320,192,69673,1,0,0:0:0:50:clap.wav
448,192,69673,1,0,0:0:0:0:
192,192,69880,1,0,0:0:0:40:Hat open.wav
320,192,69983,1,0,0:0:0:0:
64,192,70087,1,2,0:0:0:0:
192,192,70087,1,8,0:0:0:0:
448,192,70087,1,4,0:0:0:0:
320,192,70294,1,0,0:0:0:40:Hat open.wav
192,192,70397,1,0,0:0:0:0:
64,192,70501,1,8,0:0:0:0:
320,192,70501,1,0,0:0:0:0:
448,192,70501,1,0,0:0:0:0:
64,192,70707,1,0,0:0:0:40:Hat open.wav
192,192,70811,1,0,0:0:0:30:Tom1.wav
320,192,70914,1,2,0:0:0:0:
448,192,70914,1,0,0:0:0:30:Tom2.wav
64,192,71018,1,0,0:0:0:30:Tom1.wav
192,192,71018,1,0,0:0:0:0:
320,192,71121,1,0,0:0:0:40:Hat open.wav
64,192,71328,1,8,0:0:0:0:
192,192,71328,1,0,0:0:0:0:
448,192,71328,1,0,0:0:0:0:
320,192,71535,1,0,0:0:0:40:Hat open.wav
192,192,71638,1,0,0:0:0:0:
64,192,71742,1,4,0:0:0:0:
320,192,71742,1,8,0:0:0:0:
448,192,71742,1,2,0:0:0:0:
192,192,71949,1,0,0:0:0:40:Hat open.wav
320,192,72052,1,0,0:0:0:0:
64,192,72156,1,8,0:0:0:0:
192,192,72156,1,0,0:0:0:0:
448,192,72156,1,0,0:0:0:0:
320,192,72363,1,0,0:0:0:40:Hat open.wav
64,192,72466,1,0,0:0:0:30:Tom1.wav
320,192,72570,1,2,0:0:0:0:
448,192,72570,1,0,0:0:0:0:
64,192,72673,1,0,0:0:0:30:Tom1.wav
192,192,72673,1,0,0:0:0:0:
448,192,72776,1,0,0:0:0:40:Hat open.wav
320,192,72880,1,0,0:0:0:0:
64,192,72983,1,8,0:0:0:0:
192,192,72983,1,2,0:0:0:0:
448,192,72983,1,0,0:0:0:0:
320,192,73190,1,0,0:0:0:40:Hat open.wav
192,192,73294,1,0,0:0:0:0:
64,192,73397,1,2,0:0:0:0:
320,192,73397,1,4,0:0:0:0:
448,192,73397,1,8,0:0:0:0:
192,192,73604,1,0,0:0:0:40:Hat open.wav
320,192,73707,1,0,0:0:0:0:
64,192,73811,1,8,0:0:0:0:
192,192,73811,1,0,0:0:0:0:
448,192,73811,1,0,0:0:0:0:
320,192,74018,1,0,0:0:0:40:Hat open.wav
64,192,74121,1,0,0:0:0:30:Tom2.wav
192,192,74121,1,0,0:0:0:0:
320,192,74225,1,2,0:0:0:0:
448,192,74225,1,0,0:0:0:30:Tom3.wav
64,192,74432,1,0,0:0:0:0:
320,192,74638,1,2,0:0:0:0:
448,192,74638,1,0,0:0:0:0:
64,192,74845,1,8,0:0:0:0:
192,192,74845,1,4,0:0:0:0:
448,192,74845,128,0,75259:0:0:0:0:
320,192,75052,1,2,0:0:0:0:
64,192,75259,128,0,75673:0:0:0:40:Hat open.wav
192,192,75259,1,0,0:0:0:0:
320,192,75466,1,8,0:0:0:0:
448,192,75466,1,0,0:0:0:0:
192,192,75673,128,0,75880:0:0:0:40:Hat open.wav
64,192,75880,1,8,0:0:0:0:
320,192,75880,1,4,0:0:0:0:
448,192,75880,1,0,0:0:0:0:
192,192,76087,1,0,0:0:0:0:
320,192,76190,1,0,0:0:0:30:Tom2.wav
448,192,76190,1,0,0:0:0:0:
64,192,76294,1,0,0:0:0:30:Tom2.wav
192,192,76294,1,0,0:0:0:0:
320,192,76397,1,0,0:0:0:30:Tom2.wav
448,192,76397,1,0,0:0:0:0:
64,192,76501,1,8,0:0:0:0:
192,192,76501,1,0,0:0:0:30:Tom3.wav
320,192,76604,1,8,0:0:0:0:
64,192,76707,1,2,0:0:0:0:
192,192,76707,128,0,77121:0:0:0:50:special finish.wav
448,192,76707,1,0,0:0:0:0:
64,192,77121,1,8,0:0:0:0:
320,192,77121,128,0,77328:0:0:0:0:
448,192,77121,1,0,0:0:0:0:
192,192,77328,1,0,0:0:0:40:Hat open.wav
64,192,77466,1,0,0:0:0:30:Tom1.wav
320,192,77535,1,0,0:0:0:30:Tom2.wav
448,192,77535,1,0,0:0:0:0:
64,192,77638,1,0,0:0:0:30:Tom2.wav
192,192,77638,1,0,0:0:0:0:
320,192,77742,1,0,0:0:0:40:Hat open.wav
64,192,77949,1,8,0:0:0:0:
192,192,77949,1,0,0:0:0:0:
448,192,77949,1,0,0:0:0:0:
320,192,78156,128,0,78570:0:0:0:40:Hat open.wav
448,192,78259,1,0,0:0:0:0:
64,192,78363,1,2,0:0:0:0:
192,192,78363,1,0,0:0:0:0:
448,192,78570,1,0,0:0:0:40:Hat open.wav
192,192,78673,1,0,0:0:0:0:
64,192,78776,1,8,0:0:0:0:
320,192,78776,1,0,0:0:0:0:
448,192,78776,1,0,0:0:0:0:
192,192,78983,1,0,0:0:0:40:Hat open.wav
448,192,79087,1,0,0:0:0:30:Tom1.wav
64,192,79190,1,2,0:0:0:0:
192,192,79190,1,0,0:0:0:30:Tom2.wav
320,192,79294,1,0,0:0:0:30:Tom1.wav
448,192,79294,1,0,0:0:0:0:
64,192,79397,1,0,0:0:0:40:Hat open.wav
320,192,79501,1,0,0:0:0:0:
64,192,79604,1,8,0:0:0:0:
192,192,79604,1,0,0:0:0:50:clap.wav
448,192,79604,1,0,0:0:0:0:
320,192,79811,1,0,0:0:0:40:Hat open.wav
192,192,79914,1,0,0:0:0:0:
64,192,80018,1,2,0:0:0:0:
320,192,80018,1,4,0:0:0:0:
448,192,80018,1,0,0:0:0:0:
192,192,80225,1,0,0:0:0:40:Hat open.wav
320,192,80328,1,0,0:0:0:0:
64,192,80432,1,8,0:0:0:0:
192,192,80432,1,0,0:0:0:0:
448,192,80432,1,0,0:0:0:0:
448,192,80638,1,0,0:0:0:40:Hat open.wav
320,192,80742,1,0,0:0:0:30:Tom1.wav
64,192,80845,1,2,0:0:0:0:
192,192,80845,1,0,0:0:0:0:
320,192,80949,1,0,0:0:0:0:
448,192,80949,1,0,0:0:0:0:
64,192,81052,1,0,0:0:0:40:Hat open.wav
192,192,81156,1,0,0:0:0:0:
64,192,81259,1,8,0:0:0:0:
320,192,81259,1,0,0:0:0:0:
448,192,81259,1,0,0:0:0:0:
192,192,81466,1,0,0:0:0:40:Hat open.wav
320,192,81570,1,0,0:0:0:0:
64,192,81673,1,2,0:0:0:0:
192,192,81673,1,4,0:0:0:0:
448,192,81673,1,0,0:0:0:0:
320,192,81880,1,0,0:0:0:40:Hat open.wav
192,192,81983,1,0,0:0:0:0:
64,192,82087,1,8,0:0:0:0:
320,192,82087,1,0,0:0:0:0:
448,192,82087,1,0,0:0:0:0:
448,192,82294,1,0,0:0:0:40:Hat open.wav
64,192,82397,1,0,0:0:0:0:
192,192,82501,1,2,0:0:0:0:
320,192,82501,1,0,0:0:0:0:
448,192,82604,1,0,0:0:0:0:
64,192,82707,1,0,0:0:0:40:Hat open.wav
192,192,82707,1,0,0:0:0:50:clap.wav
320,192,82811,1,0,0:0:0:0:
64,192,82914,1,8,0:0:0:0:
448,192,82914,1,0,0:0:0:30:Tom3.wav
192,192,83018,1,8,0:0:0:0:
320,192,83018,1,0,0:0:0:30:Tom3.wav
64,192,83121,1,8,0:0:0:0:
448,192,83121,1,0,0:0:0:30:Tom2.wav
320,192,83225,1,8,0:0:0:0:
64,192,83328,128,6,83742:0:0:0:0:
192,192,83328,1,0,0:0:0:30:Tom2.wav
448,192,83328,1,0,0:0:0:50:special finish.wav
192,192,83742,1,0,0:0:0:0:
320,192,83949,1,8,0:0:0:0:
448,192,83949,1,0,0:0:0:0:
64,192,84052,1,8,0:0:0:0:
192,192,84052,1,0,0:0:0:0:
320,192,84156,1,8,0:0:0:0:
448,192,84156,1,0,0:0:0:30:Tom1.wav
64,192,84363,1,2,0:0:0:0:
192,192,84363,1,0,0:0:0:0:
192,192,84570,1,0,0:0:0:30:Tom3.wav
320,192,84570,1,0,0:0:0:0:
320,192,84776,1,0,0:0:0:30:Tom2.wav
448,192,84776,1,0,0:0:0:0:
64,192,84983,1,8,0:0:0:0:
192,192,84983,1,4,0:0:0:0:
448,192,84983,128,0,85397:0:0:0:50:dazzling finish.wav
64,192,85604,128,0,85811:0:0:0:40:Hat open.wav
192,192,85811,128,0,86018:0:0:0:40:Hat open.wav
320,192,86018,128,0,86432:0:0:0:0:
64,192,86225,1,2,0:0:0:0:
448,192,86225,1,0,0:0:0:0:
64,192,86432,128,8,87052:0:0:0:0:
192,192,86432,1,0,0:0:0:40:Hat open.wav
448,192,86432,1,0,0:0:0:0:
192,192,86638,128,8,87052:0:0:0:0:
320,192,86638,1,0,0:0:0:40:Hat open.wav
64,192,87259,128,8,87570:0:0:0:0:
192,192,87259,128,0,87570:0:0:0:30:Tom3.wav
448,192,87259,128,0,87570:0:0:0:0:
64,192,87673,128,8,87776:0:0:0:0:
192,192,87673,128,0,87776:0:0:0:30:Tom3.wav
64,192,87880,128,8,87983:0:0:0:0:
192,192,87880,128,0,87983:0:0:0:30:Tom2.wav
320,192,87880,128,0,87983:0:0:0:0:
64,192,88087,128,8,88397:0:0:0:0:
192,192,88087,128,0,88501:0:0:0:30:Tom1.wav
320,192,88087,128,0,88604:0:0:0:0:
448,192,88087,128,0,88707:0:0:0:0:
