osu file format v14

[General]
AudioFilename: audio.mp3
AudioLeadIn: 0
PreviewTime: 36354
Countdown: 0
SampleSet: Soft
StackLeniency: 0.7
Mode: 3
LetterboxInBreaks: 0
SpecialStyle: 0
WidescreenStoryboard: 1

[Editor]
DistanceSpacing: 3.2
BeatDivisor: 4
GridSize: 16
TimelineZoom: 1.3

[Metadata]
Title:Gradation feat. Kitazawa Yuuho (TV Size)
TitleUnicode:ぐらでーしょん feat. 北澤ゆうほ (TV Size)
Artist:KANA-BOON
ArtistUnicode:KANA-BOON
Creator:Chrisse
Version:Easy
Source:山田くんとLv999の恋をする
Tags:keksikosu anime jpop j-pop japanese pop yamada-kun to lv999 level 999 no koi wa suru loving my love story with yamada kun at lv999 yuho yūho kana boon
BeatmapID:4122256
BeatmapSetID:1983868

[Difficulty]
HPDrainRate:6.5
CircleSize:4
OverallDifficulty:6.5
ApproachRate:5
SliderMultiplier:1.4
SliderTickRate:1

[Events]
//Background and Video events
Video,0,"video.mp4"
0,0,"GB.jpg",0,0
//Break Periods
//Storyboard Layer 0 (Background)
//Storyboard Layer 1 (Fail)
//Storyboard Layer 2 (Pass)
//Storyboard Layer 3 (Foreground)
//Storyboard Layer 4 (Overlay)
//Storyboard Sound Samples
Sample,10294,0,"Hat open.wav",40
Sample,13811,0,"Hat open.wav",40
Sample,16294,0,"Hat close.wav",15
Sample,17121,0,"Hat open.wav",40
Sample,17949,0,"Hat close.wav",15
Sample,18776,0,"Hat close.wav",15
Sample,19190,0,"Hat close.wav",15
Sample,19604,0,"Hat close.wav",15
Sample,20018,0,"Tom1.wav",30
Sample,22501,0,"Hat open.wav",40
Sample,23328,0,"Hat open.wav",40
Sample,25811,0,"Hat open.wav",40
Sample,26225,0,"Hat open.wav",40
Sample,26638,0,"Hat open.wav",40
Sample,29121,0,"Hat open.wav",40
Sample,29949,0,"Hat open.wav",40
Sample,31397,0,"Tom2.wav",30
Sample,34914,0,"Tom3.wav",30
Sample,35535,0,"Tom2.wav",30
Sample,35742,0,"Tom3.wav",30
Sample,35949,0,"Tom1.wav",30
Sample,36156,0,"Tom1.wav",30
Sample,36983,0,"special finish.wav",50
Sample,39673,0,"clap.wav",50
Sample,39880,0,"clap.wav",50
Sample,42983,0,"clap.wav",50
Sample,42983,0,"Hat open.wav",40
Sample,43190,0,"clap.wav",50
Sample,47742,0,"Tom2.wav",30
Sample,49811,0,"Tom2.wav",30
Sample,52707,0,"Tom2.wav",30
Sample,52914,0,"clap.wav",50
Sample,52914,0,"Hat open.wav",40
Sample,53121,0,"clap.wav",50
Sample,56225,0,"Hat open.wav",40
Sample,56225,0,"clap.wav",50
Sample,56432,0,"clap.wav",50
Sample,58914,0,"Tom1.wav",30
Sample,59121,0,"Tom1.wav",30
Sample,59535,0,"Tom2.wav",30
Sample,61397,0,"Tom2.wav",30
Sample,61811,0,"Tom3.wav",30
Sample,63052,0,"Tom3.wav",30
Sample,63259,0,"Hat open.wav",40
Sample,66156,0,"Hat open.wav",40
Sample,66363,0,"Tom1.wav",30
Sample,66776,0,"special finish.wav",50
Sample,69259,0,"Tom2.wav",30
Sample,69466,0,"clap.wav",50
Sample,69673,0,"clap.wav",50
Sample,70914,0,"Tom2.wav",30
Sample,74225,0,"Tom3.wav",30
Sample,79190,0,"Tom2.wav",30
Sample,79397,0,"clap.wav",50
Sample,79604,0,"clap.wav",50
Sample,82707,0,"clap.wav",50
Sample,82914,0,"Tom3.wav",30
Sample,82914,0,"clap.wav",50
Sample,83121,0,"Tom2.wav",30
Sample,83328,0,"special finish.wav",50
Sample,84156,0,"Tom1.wav",30
Sample,86432,0,"Hat open.wav",40
Sample,86638,0,"Hat open.wav",40
Sample,87673,0,"Tom3.wav",30
Sample,87880,0,"Tom2.wav",30

[TimingPoints]
570,413.793103448276,4,2,1,50,1,0
36983,-100,4,2,1,50,0,1
63466,-100,4,2,1,50,0,0
66776,-100,4,2,1,50,0,1
83328,-100,4,2,1,50,0,0

[HitObjects]
64,192,570,5,12,0:0:0:0:
320,192,776,128,12,1190:0:0:0:0:
192,192,1190,128,6,1604:0:0:0:0:
64,192,1604,128,2,2225:0:0:0:0:
448,192,2225,1,12,0:0:0:0:
192,192,2432,1,12,0:0:0:0:
320,192,2845,128,6,3259:0:0:0:0:
64,192,3259,1,2,0:0:0:0:
192,192,3466,1,8,0:0:0:0:
448,192,3673,1,0,0:0:0:30:Tom1.wav
320,192,3880,1,12,0:0:0:0:
64,192,4087,1,12,0:0:0:0:
192,192,4501,128,6,4914:0:0:0:0:
320,192,4914,128,2,5535:0:0:0:0:
64,192,5535,1,0,0:0:0:40:Hat open.wav
448,192,5742,1,0,0:0:0:30:Tom2.wav
192,192,5949,1,0,0:0:0:30:Tom3.wav
320,192,6156,1,0,0:0:0:30:Tom3.wav
192,192,6570,1,8,0:0:0:0:
64,192,6983,1,2,0:0:0:0:
448,192,6983,1,4,0:0:0:0:
320,192,7397,1,2,0:0:0:0:
192,192,7604,1,8,0:0:0:0:
448,192,8018,1,0,0:0:0:15:Hat close.wav
64,192,8225,1,2,0:0:0:0:
192,192,8432,1,8,0:0:0:0:
320,192,8638,1,2,0:0:0:0:
448,192,9052,1,2,0:0:0:0:
192,192,9259,1,8,0:0:0:0:
64,192,9673,1,2,0:0:0:0:
320,192,9880,1,8,0:0:0:0:
192,192,10087,1,2,0:0:0:0:
448,192,10294,1,8,0:0:0:0:
64,192,10707,1,2,0:0:0:0:
320,192,10914,1,8,0:0:0:0:
448,192,11328,1,2,0:0:0:0:
192,192,11535,1,2,0:0:0:0:
320,192,11742,1,8,0:0:0:0:
64,192,12156,1,2,0:0:0:0:
448,192,12363,1,2,0:0:0:0:
192,192,12570,1,8,0:0:0:0:
320,192,12983,1,2,0:0:0:0:
64,192,13190,1,2,0:0:0:0:
448,192,13397,1,8,0:0:0:0:
192,192,13811,1,2,0:0:0:0:
320,192,14225,1,8,0:0:0:0:
64,192,14638,1,0,0:0:0:15:Hat close.wav
448,192,14845,1,2,0:0:0:0:
192,192,15052,1,8,0:0:0:0:
320,192,15259,1,2,0:0:0:0:
448,192,15673,1,2,0:0:0:0:
64,192,15880,1,8,0:0:0:0:
320,192,16294,1,2,0:0:0:0:
192,192,16501,1,2,0:0:0:0:
448,192,16707,1,8,0:0:0:0:
64,192,17121,1,2,0:0:0:0:
64,192,17535,1,8,0:0:0:0:
320,192,17949,1,2,0:0:0:0:
320,192,18363,1,8,0:0:0:0:
64,192,18776,1,2,0:0:0:0:
448,192,18983,1,2,0:0:0:0:
192,192,19190,1,8,0:0:0:0:
192,192,19604,1,6,0:0:0:0:
448,192,20018,1,8,0:0:0:0:
64,192,20432,1,4,0:0:0:0:
448,192,20432,1,8,0:0:0:0:
64,192,20845,1,10,0:0:0:0:
320,192,21259,1,10,0:0:0:0:
192,192,21466,1,2,0:0:0:0:
64,192,21673,1,8,0:0:0:0:
448,192,21880,1,6,0:0:0:0:
448,192,22294,1,2,0:0:0:0:
192,192,22501,1,8,0:0:0:0:
320,192,22707,1,8,0:0:0:0:
448,192,23121,1,2,0:0:0:0:
64,192,23328,1,12,0:0:0:0:
320,192,23742,1,4,0:0:0:0:
448,192,23742,1,0,0:0:0:30:Tom1.wav
320,192,24156,1,8,0:0:0:0:
192,192,24570,1,8,0:0:0:0:
192,192,24983,1,8,0:0:0:0:
448,192,25190,1,6,0:0:0:0:
320,192,25604,1,2,0:0:0:0:
64,192,25811,1,8,0:0:0:0:
192,192,26225,1,4,0:0:0:0:
448,192,26432,1,2,0:0:0:0:
64,192,26638,1,12,0:0:0:0:
320,192,27052,1,4,0:0:0:0:
448,192,27052,1,8,0:0:0:0:
448,192,27466,1,8,0:0:0:0:
64,192,27880,1,2,0:0:0:0:
320,192,28087,1,2,0:0:0:0:
192,192,28294,1,8,0:0:0:0:
64,192,28501,1,2,0:0:0:0:
448,192,28501,1,4,0:0:0:0:
320,192,28914,1,2,0:0:0:0:
192,192,29121,1,8,0:0:0:0:
448,192,29328,1,8,0:0:0:0:
64,192,29742,1,2,0:0:0:0:
192,192,29949,1,8,0:0:0:0:
320,192,30156,1,0,0:0:0:0:
64,192,30363,1,4,0:0:0:0:
448,192,30363,1,2,0:0:0:0:
192,192,30776,1,8,0:0:0:0:
320,192,31190,1,8,0:0:0:0:
64,192,31397,1,2,0:0:0:0:
320,192,31811,1,12,0:0:0:0:
448,192,31914,128,0,33776:0:0:0:40:Hat open.wav
192,192,32432,1,2,0:0:0:0:
64,192,32845,1,2,0:0:0:0:
320,192,33259,1,2,0:0:0:0:
64,192,33673,1,8,0:0:0:0:
192,192,33673,1,4,0:0:0:0:
192,192,34087,1,0,0:0:0:30:Tom3.wav
320,192,34501,1,8,0:0:0:0:
448,192,34501,1,0,0:0:0:30:Tom3.wav
320,192,34914,1,8,0:0:0:0:
64,192,35121,1,10,0:0:0:0:
192,192,35121,1,4,0:0:0:0:
448,192,35535,1,8,0:0:0:0:
320,192,35742,1,8,0:0:0:0:
64,192,35949,1,8,0:0:0:0:
192,192,36156,1,8,0:0:0:0:
448,192,36363,128,0,36776:0:0:0:30:Tom2.wav
320,192,36776,1,0,0:0:0:30:Tom3.wav
64,192,36983,1,2,0:0:0:0:
192,192,36983,1,0,0:0:0:40:dazzling finish.wav
64,192,37397,1,8,0:0:0:0:
192,192,37397,1,0,0:0:0:0:
320,192,37811,1,2,0:0:0:0:
64,192,38225,1,8,0:0:0:0:
448,192,38225,1,0,0:0:0:0:
192,192,38638,1,2,0:0:0:0:
320,192,39052,1,8,0:0:0:0:
448,192,39052,1,0,0:0:0:0:
64,192,39466,1,0,0:0:0:30:Tom2.wav
448,192,39673,1,0,0:0:0:40:Hat open.wav
192,192,39880,1,8,0:0:0:0:
320,192,40087,1,0,0:0:0:40:Hat open.wav
64,192,40294,1,2,0:0:0:0:
448,192,40294,1,0,0:0:0:0:
64,192,40707,1,8,0:0:0:0:
448,192,40707,1,0,0:0:0:0:
192,192,41121,1,2,0:0:0:0:
320,192,41535,1,8,0:0:0:0:
448,192,41535,1,0,0:0:0:0:
192,192,41949,1,2,0:0:0:0:
64,192,42363,1,8,0:0:0:0:
448,192,42363,1,0,0:0:0:0:
320,192,42776,1,2,0:0:0:0:
192,192,42983,1,0,0:0:0:30:Tom1.wav
448,192,43190,1,8,0:0:0:0:
64,192,43397,1,0,0:0:0:40:Hat open.wav
320,192,43604,1,2,0:0:0:0:
448,192,43604,1,0,0:0:0:0:
320,192,44018,1,8,0:0:0:0:
448,192,44018,1,2,0:0:0:0:
192,192,44432,1,2,0:0:0:0:
64,192,44845,1,8,0:0:0:0:
448,192,44845,1,0,0:0:0:0:
320,192,45259,1,2,0:0:0:0:
192,192,45673,1,8,0:0:0:0:
320,192,45673,1,0,0:0:0:0:
64,192,46087,1,2,0:0:0:0:
320,192,46501,1,8,0:0:0:0:
448,192,46501,1,0,0:0:0:0:
64,192,46914,1,8,0:0:0:0:
192,192,46914,1,4,0:0:0:0:
64,192,47328,1,8,0:0:0:0:
192,192,47328,1,0,0:0:0:0:
448,192,47742,1,8,0:0:0:0:
64,192,47949,1,0,0:0:0:30:Tom2.wav
192,192,48156,1,2,0:0:0:0:
320,192,48363,128,4,48776:0:0:0:0:
448,192,48363,1,8,0:0:0:0:
192,192,48776,128,0,49190:0:0:0:40:Hat open.wav
64,192,49190,1,0,0:0:0:40:Hat open.wav
320,192,49397,1,8,0:0:0:0:
448,192,49397,128,4,49811:0:0:0:0:
64,192,49811,128,8,50225:0:0:0:0:
192,192,50225,1,2,0:0:0:0:
448,192,50225,1,0,0:0:0:50:special finish.wav
192,192,50638,1,8,0:0:0:0:
448,192,50638,1,0,0:0:0:0:
320,192,51052,1,0,0:0:0:30:Tom3.wav
64,192,51466,1,8,0:0:0:0:
192,192,51466,1,0,0:0:0:0:
320,192,51880,1,2,0:0:0:0:
64,192,52294,1,8,0:0:0:0:
448,192,52294,1,0,0:0:0:0:
192,192,52707,1,2,0:0:0:0:
320,192,52914,1,0,0:0:0:30:Tom1.wav
64,192,53121,1,8,0:0:0:0:
448,192,53328,1,0,0:0:0:40:Hat open.wav
64,192,53535,1,2,0:0:0:0:
192,192,53535,1,0,0:0:0:0:
64,192,53949,1,8,0:0:0:0:
192,192,53949,1,0,0:0:0:0:
320,192,54363,1,2,0:0:0:0:
64,192,54776,1,8,0:0:0:0:
448,192,54776,1,0,0:0:0:0:
192,192,55190,1,2,0:0:0:0:
320,192,55604,1,8,0:0:0:0:
448,192,55604,1,0,0:0:0:0:
64,192,56018,1,2,0:0:0:0:
320,192,56225,1,0,0:0:0:30:Tom1.wav
192,192,56432,1,8,0:0:0:0:
64,192,56638,1,0,0:0:0:40:Hat open.wav
320,192,56845,1,2,0:0:0:0:
448,192,56845,1,4,0:0:0:0:
320,192,57259,1,2,0:0:0:0:
448,192,57259,1,8,0:0:0:0:
192,192,57673,1,2,0:0:0:0:
64,192,58087,1,8,0:0:0:0:
448,192,58087,1,0,0:0:0:0:
192,192,58501,1,2,0:0:0:0:
320,192,58501,1,4,0:0:0:0:
320,192,58914,1,2,0:0:0:0:
64,192,59121,1,8,0:0:0:0:
448,192,59328,1,12,0:0:0:0:
192,192,59535,128,8,60156:0:0:0:0:
320,192,60156,1,6,0:0:0:0:
448,192,60156,1,8,0:0:0:0:
320,192,60570,1,8,0:0:0:0:
64,192,60983,1,8,0:0:0:0:
192,192,60983,1,2,0:0:0:0:
192,192,61397,1,8,0:0:0:0:
448,192,61811,1,2,0:0:0:0:
64,192,62018,1,10,0:0:0:0:
320,192,62225,1,8,0:0:0:0:
192,192,62432,128,8,62845:0:0:0:0:
448,192,62845,1,0,0:0:0:30:Tom1.wav
64,192,63052,1,2,0:0:0:0:
320,192,63259,1,8,0:0:0:0:
192,192,63466,128,0,63880:0:0:0:15:Hat close.wav
448,192,63880,128,0,64294:0:0:0:0:
64,192,64294,128,0,64707:0:0:0:0:
320,192,64707,1,0,0:0:0:0:
192,192,64914,128,0,65328:0:0:0:0:
64,192,65328,1,0,0:0:0:0:
448,192,65535,128,0,65949:0:0:0:0:
320,192,66156,1,2,0:0:0:0:
192,192,66363,1,8,0:0:0:0:
320,192,66776,1,2,0:0:0:0:
448,192,66776,1,0,0:0:0:40:dazzling finish.wav
320,192,67190,1,8,0:0:0:0:
448,192,67190,1,0,0:0:0:0:
192,192,67604,1,2,0:0:0:0:
64,192,68018,1,8,0:0:0:0:
448,192,68018,1,0,0:0:0:0:
320,192,68432,1,2,0:0:0:0:
64,192,68845,1,8,0:0:0:0:
192,192,68845,1,0,0:0:0:0:
448,192,69259,1,2,0:0:0:0:
64,192,69466,1,0,0:0:0:40:Hat open.wav
320,192,69673,1,8,0:0:0:0:
192,192,69880,1,0,0:0:0:40:Hat open.wav
64,192,70087,1,10,0:0:0:0:
448,192,70087,1,4,0:0:0:0:
64,192,70501,1,8,0:0:0:0:
448,192,70501,1,0,0:0:0:0:
320,192,70914,1,2,0:0:0:0:
64,192,71328,1,8,0:0:0:0:
192,192,71328,1,0,0:0:0:0:
320,192,71742,1,12,0:0:0:0:
448,192,71742,1,2,0:0:0:0:
320,192,72156,1,8,0:0:0:0:
448,192,72156,1,0,0:0:0:0:
192,192,72570,1,2,0:0:0:0:
320,192,72776,1,0,0:0:0:40:Hat open.wav
64,192,72983,1,10,0:0:0:0:
448,192,73190,1,0,0:0:0:40:Hat open.wav
64,192,73397,1,6,0:0:0:0:
192,192,73397,1,8,0:0:0:0:
64,192,73811,1,8,0:0:0:0:
192,192,73811,1,0,0:0:0:0:
320,192,74225,1,2,0:0:0:0:
192,192,74432,1,0,0:0:0:0:
64,192,74638,1,2,0:0:0:0:
320,192,74845,1,8,0:0:0:0:
448,192,74845,1,4,0:0:0:0:
448,192,75259,1,0,0:0:0:40:Hat open.wav
192,192,75466,1,8,0:0:0:0:
320,192,75673,1,0,0:0:0:40:Hat open.wav
64,192,75880,1,8,0:0:0:0:
448,192,75880,1,4,0:0:0:0:
192,192,76294,128,0,76707:0:0:0:30:Tom2.wav
320,192,76707,1,2,0:0:0:0:
448,192,76707,1,0,0:0:0:50:special finish.wav
320,192,77121,1,8,0:0:0:0:
448,192,77121,1,0,0:0:0:0:
192,192,77535,1,0,0:0:0:30:Tom2.wav
64,192,77949,1,8,0:0:0:0:
448,192,77949,1,0,0:0:0:0:
320,192,78363,1,2,0:0:0:0:
64,192,78776,1,8,0:0:0:0:
192,192,78776,1,0,0:0:0:0:
448,192,79190,1,2,0:0:0:0:
64,192,79397,1,0,0:0:0:40:Hat open.wav
320,192,79604,1,8,0:0:0:0:
192,192,79811,1,0,0:0:0:40:Hat open.wav
64,192,80018,1,2,0:0:0:0:
448,192,80018,1,4,0:0:0:0:
64,192,80432,1,8,0:0:0:0:
448,192,80432,1,0,0:0:0:0:
320,192,80845,1,2,0:0:0:0:
64,192,81259,1,8,0:0:0:0:
192,192,81259,1,0,0:0:0:0:
320,192,81673,1,6,0:0:0:0:
64,192,82087,1,8,0:0:0:0:
448,192,82087,1,0,0:0:0:0:
192,192,82501,1,2,0:0:0:0:
320,192,82707,1,0,0:0:0:40:Hat open.wav
64,192,82914,1,8,0:0:0:0:
448,192,83121,1,8,0:0:0:0:
64,192,83328,1,6,0:0:0:0:
192,192,83328,128,0,83742:0:0:0:30:Tom2.wav
320,192,83742,128,0,84156:0:0:0:0:
64,192,84156,128,8,84570:0:0:0:0:
192,192,84570,128,0,84983:0:0:0:30:Tom3.wav
320,192,84983,1,12,0:0:0:0:
448,192,84983,1,0,0:0:0:50:dazzling finish.wav
448,192,85604,1,0,0:0:0:40:Hat open.wav
64,192,85811,1,0,0:0:0:40:Hat open.wav
320,192,86018,128,0,86432:0:0:0:0:
192,192,86432,1,8,0:0:0:0:
448,192,86638,128,8,87052:0:0:0:0:
64,192,87259,1,8,0:0:0:0:
192,192,87259,1,0,0:0:0:30:Tom3.wav
320,192,87673,1,8,0:0:0:0:
192,192,87880,1,8,0:0:0:0:
64,192,88087,128,8,88501:0:0:0:0:
448,192,88087,1,0,0:0:0:30:Tom1.wav
