osu file format v14

[General]
AudioFilename: audio.mp3
AudioLeadIn: 0
PreviewTime: 50883
Countdown: 1
SampleSet: Soft
StackLeniency: 0.7
Mode: 0
LetterboxInBreaks: 0
WidescreenStoryboard: 0

[Editor]
Bookmarks: 2365,7828,7921,9772,17272,28939
DistanceSpacing: 0.5
BeatDivisor: 4
GridSize: 4
TimelineZoom: 2.999999

[Metadata]
Title:Baton Road
TitleUnicode:バ トンロ一 ド
Artist:KANA-BOON
ArtistUnicode:KANA-BOON
Creator:gary00737
Version:Insane
Source:BORUTO-ボルト- -NARUTO NEXT GENERATIONS- ボルート:次の世代ナルト
Tags:
BeatmapID:1260759
BeatmapSetID:596189

[Difficulty]
HPDrainRate:6
CircleSize:4
OverallDifficulty:8
ApproachRate:9
SliderMultiplier:1.62
SliderTickRate:1

[Events]
//Background and Video events
0,0,"1223.jpg",0,0
Video,0,"op1.mp4"
//Break Periods
//Storyboard Layer 0 (Background)
//Storyboard Layer 1 (Fail)
//Storyboard Layer 2 (Pass)
//Storyboard Layer 3 (Foreground)
//Storyboard Sound Samples

[TimingPoints]
884,370.37037037037,4,2,1,60,1,0
13013,-100,4,2,1,5,0,0
13106,-100,4,2,1,60,0,0
13383,-100,4,2,1,5,0,0
13476,-100,4,2,1,60,0,0
50883,-200,4,2,1,60,0,0
51069,-200,4,2,1,5,0,0
51254,-83.3333333333333,4,2,1,72,0,1
89587,-83.3333333333333,4,2,1,72,0,0

[Colours]
Combo1 : 166,0,83
Combo2 : 249,249,0
Combo3 : 0,153,227

[HitObjects]
249,51,884,5,2,0:0:0:0:
160,92,1069,1,0,0:0:0:0:
244,148,1254,2,0,P|283:141|317:119,1,81,2|0,0:0|0:0,0:0:0:0:
384,48,1624,1,2,0:0:0:0:
384,48,1809,1,0,0:0:0:0:
424,140,1995,1,2,0:0:0:0:
352,208,2180,1,8,0:0:0:0:
352,208,2272,1,8,0:0:0:0:
352,208,2365,6,0,P|313:220|285:248,1,81,2|0,0:0|0:0,0:0:0:0:
359,369,2735,2,0,P|367:329|356:290,1,81,2|0,0:0|0:0,0:0:0:0:
216,294,3106,2,0,P|246:320|284:331,1,81,2|0,0:0|0:0,0:0:0:0:
352,200,3476,1,2,0:0:0:0:
208,132,3661,1,8,0:0:0:0:
208,132,3754,1,8,0:0:0:0:
208,132,3846,6,0,P|244:114|284:112,1,81,2|0,0:0|0:0,0:0:0:0:
436,151,4217,1,2,0:0:0:0:
319,283,4402,1,8,0:0:0:0:
311,263,4495,1,8,0:0:0:0:
304,243,4587,1,10,0:0:0:0:
359,132,4772,1,0,0:0:0:0:
402,283,4958,1,2,0:0:0:0:
229,248,5143,1,8,0:0:0:0:
209,242,5235,1,8,0:0:0:0:
189,235,5328,6,0,P|149:241|116:264,1,81,2|0,0:0|0:0,0:0:0:0:
111,175,5698,2,0,P|128:139|159:114,1,81,2|0,0:0|0:0,0:0:0:0:
36,136,6069,2,0,P|25:174|39:222,1,81,2|0,0:0|0:0,0:0:0:0:
319,283,6439,1,10,0:0:0:0:
340,248,6531,1,8,0:0:0:0:
354,210,6624,1,8,0:0:0:0:
360,170,6716,1,8,0:0:0:0:
358,130,6809,5,2,0:0:0:0:
138,57,6995,1,0,0:0:0:0:
207,277,7180,1,2,0:0:0:0:
236,153,7365,1,0,0:0:0:0:
113,125,7550,1,2,0:0:0:0:
83,248,7735,1,0,0:0:0:0:
236,153,7921,1,2,0:0:0:0:
76,88,8106,1,8,0:0:0:0:
76,88,8198,1,8,0:0:0:0:
76,88,8291,6,0,L|92:177,1,81,2|0,0:0|0:0,0:0:0:0:
24,340,8661,1,10,0:0:0:0:
24,340,8754,1,8,0:0:0:0:
24,340,8846,1,8,0:0:0:0:
142,232,9032,2,8,L|148:271,1,40.5,10|8,0:0|0:0,0:0:0:0:
23,202,9217,2,8,L|29:162,1,40.5
141,94,9402,2,8,L|147:133,1,40.5,10|8,0:0|0:0,0:0:0:0:
22,64,9587,2,8,L|28:24,1,40.5
192,28,9772,5,2,0:0:0:0:
139,187,9958,1,8,0:0:0:0:
298,239,10143,1,4,0:0:0:0:
346,74,10328,1,8,0:0:0:0:
346,74,10421,1,8,0:0:0:0:
346,74,10513,5,2,0:0:0:0:
471,156,10698,1,8,0:0:0:0:
298,239,10883,2,0,P|237:242|166:208,1,121.5,4|0,0:0|0:0,0:0:0:0:
139,187,11254,5,2,0:0:0:0:
240,107,11439,1,2,0:0:0:0:
346,169,11624,2,0,P|381:229|359:297,1,121.5,4|8,0:0|0:0,0:0:0:0:
269,343,11995,1,2,0:0:0:0:
248,340,12087,1,8,0:0:0:0:
228,336,12180,1,8,0:0:0:0:
140,215,12365,2,0,P|133:274|167:324,1,121.5,4|8,0:0|0:0,0:0:0:0:
228,336,12735,6,0,P|277:302|336:309,1,121.5,2|0,0:0|0:0,0:0:0:0:
395,357,13106,2,0,L|390:236,1,121.5,14|8,0:0|0:0,0:0:0:0:
425,193,13476,2,0,P|431:133|398:84,1,121.5,2|8,0:0|0:0,0:0:0:0:
344,66,13846,1,12,0:0:0:0:
253,239,14032,5,8,0:0:0:0:
425,193,14217,1,2,0:0:0:0:
257,129,14402,1,8,0:0:0:0:
355,277,14587,1,4,0:0:0:0:
365,101,14772,1,8,0:0:0:0:
187,175,14958,1,10,0:0:0:0:
13,161,15143,1,8,0:0:0:0:
29,197,15235,1,8,0:0:0:0:
56,228,15328,1,12,0:0:0:0:
90,248,15420,1,8,0:0:0:0:
129,258,15513,2,0,L|184:256,1,40.5,8|8,0:0|0:0,0:0:0:0:
336,251,15698,5,2,0:0:0:0:
261,171,15883,1,0,0:0:0:0:
243,354,16069,1,4,0:0:0:0:
151,149,16254,1,0,0:0:0:0:
146,133,16346,1,8,0:0:0:0:
142,114,16439,2,0,P|144:61|174:17,1,81,2|2,0:0|0:0,0:0:0:0:
328,20,16809,1,4,0:0:0:0:
240,92,16994,1,0,0:0:0:0:
420,108,17180,5,2,0:0:0:0:
244,190,17365,1,0,0:0:0:0:
456,200,17550,1,4,0:0:0:0:
360,340,17735,1,8,0:0:0:0:
360,340,17828,1,8,0:0:0:0:
360,340,17920,1,2,0:0:0:0:
332,140,18106,1,2,0:0:0:0:
432,288,18291,1,4,0:0:0:0:
244,190,18476,1,8,0:0:0:0:
223,190,18569,1,8,0:0:0:0:
202,190,18661,6,0,P|154:211|132:259,1,81,2|0,0:0|0:0,0:0:0:0:
77,356,19032,2,0,L|67:249,1,81,4|8,0:0|0:0,0:0:0:0:
71,248,19309,1,8,0:0:0:0:
71,248,19402,1,2,0:0:0:0:
59,110,19587,1,2,0:0:0:0:
153,272,19772,1,4,0:0:0:0:
352,228,19957,1,0,0:0:0:0:
216,352,20143,5,2,0:0:0:0:
244,190,20328,1,0,0:0:0:0:
336,336,20513,1,6,0:0:0:0:
63,263,20698,1,8,0:0:0:0:
63,263,20791,1,8,0:0:0:0:
63,263,20883,1,2,0:0:0:0:
212,271,21069,1,2,0:0:0:0:
192,104,21254,1,4,0:0:0:0:
368,32,21439,1,8,0:0:0:0:
368,32,21532,1,8,0:0:0:0:
368,32,21624,6,0,L|456:48,1,81,2|0,0:0|0:0,0:0:0:0:
512,124,21995,1,4,0:0:0:0:
452,208,22180,1,8,0:0:0:0:
452,208,22272,1,8,0:0:0:0:
451,207,22365,2,0,L|372:193,1,81,2|2,0:0|0:0,0:0:0:0:
280,268,22735,1,4,0:0:0:0:
376,354,22921,1,8,0:0:0:0:
376,354,23013,1,8,0:0:0:0:
376,354,23106,6,0,L|456:369,1,81,2|0,0:0|0:0,0:0:0:0:
448,128,23476,1,4,0:0:0:0:
372,274,23661,1,8,0:0:0:0:
372,274,23754,1,8,0:0:0:0:
372,274,23846,2,0,L|452:289,1,81,2|2,0:0|0:0,0:0:0:0:
348,118,24217,1,4,0:0:0:0:
231,244,24402,1,2,0:0:0:0:
237,74,24587,6,0,P|196:65|153:69,1,81,2|0,0:0|0:0,0:0:0:0:
47,189,24958,1,4,0:0:0:0:
214,271,25143,1,8,0:0:0:0:
214,271,25235,1,8,0:0:0:0:
214,271,25328,2,0,L|311:275,1,81,2|2,0:0|0:0,0:0:0:0:
452,280,25698,1,4,0:0:0:0:
430,373,25883,1,0,0:0:0:0:
452,204,26069,5,10,0:0:0:0:
443,164,26161,1,8,0:0:0:0:
419,132,26254,1,8,0:0:0:0:
385,111,26346,1,8,0:0:0:0:
345,105,26439,1,4,0:0:0:0:
192,104,26624,5,8,0:0:0:0:
192,104,26717,1,8,0:0:0:0:
192,104,26809,1,10,0:0:0:0:
348,203,26995,1,2,0:0:0:0:
376,24,27180,1,4,0:0:0:0:
300,104,27365,1,8,0:0:0:0:
300,104,27458,1,8,0:0:0:0:
300,104,27550,5,2,0:0:0:0:
244,240,27735,1,0,0:0:0:0:
192,104,27921,1,4,0:0:0:0:
140,240,28106,1,8,0:0:0:0:
134,259,28198,1,8,0:0:0:0:
130,278,28291,2,0,P|132:331|162:375,1,81,2|2,0:0|0:0,0:0:0:0:
316,372,28661,1,4,0:0:0:0:
228,300,28846,1,0,0:0:0:0:
408,284,29032,5,2,0:0:0:0:
232,202,29217,1,0,0:0:0:0:
444,192,29402,1,4,0:0:0:0:
348,52,29587,1,8,0:0:0:0:
348,52,29680,1,8,0:0:0:0:
348,52,29772,1,2,0:0:0:0:
320,252,29958,1,2,0:0:0:0:
420,104,30143,1,4,0:0:0:0:
232,202,30328,1,8,0:0:0:0:
211,202,30421,1,8,0:0:0:0:
190,202,30513,6,0,P|142:181|120:133,1,81,2|0,0:0|0:0,0:0:0:0:
84,40,30883,1,4,0:0:0:0:
200,121,31069,1,8,0:0:0:0:
200,121,31161,1,8,0:0:0:0:
200,121,31254,1,2,0:0:0:0:
51,129,31439,1,2,0:0:0:0:
204,40,31624,1,4,0:0:0:0:
340,164,31809,1,0,0:0:0:0:
324,56,31995,5,2,0:0:0:0:
232,202,32180,1,0,0:0:0:0:
204,40,32365,1,4,0:0:0:0:
51,129,32550,1,8,0:0:0:0:
51,129,32643,1,8,0:0:0:0:
51,129,32735,1,2,0:0:0:0:
200,121,32921,1,2,0:0:0:0:
44,288,33106,1,4,0:0:0:0:
285,279,33291,1,8,0:0:0:0:
285,279,33383,1,8,0:0:0:0:
285,279,33476,6,0,P|329:273|367:236,1,81,2|0,0:0|0:0,0:0:0:0:
352,87,33846,2,0,P|335:123|339:163,1,81,4|0,0:0|0:0,0:0:0:0:
484,239,34217,2,0,P|460:206|423:190,1,81,2|2,0:0|0:0,0:0:0:0:
285,279,34587,1,4,0:0:0:0:
484,239,34772,1,0,0:0:0:0:
285,279,34958,6,0,P|246:267|218:239,1,81,2|0,0:0|0:0,0:0:0:0:
148,103,35328,1,4,0:0:0:0:
292,118,35513,2,0,P|300:158|289:197,1,81,2|2,0:0|0:0,0:0:0:0:
214,327,35883,1,2,0:0:0:0:
149,193,36069,2,0,P|179:167|217:156,1,81,4|0,0:0|0:0,0:0:0:0:
409,216,36439,6,0,L|397:304,1,81,2|0,0:0|0:0,0:0:0:0:
395,135,36809,2,0,P|458:148|489:194,1,121.5,4|8,0:0|0:0,0:0:0:0:
491,215,37179,1,2,0:0:0:0:
491,331,37365,1,2,0:0:0:0:
347,191,37550,1,4,0:0:0:0:
372,333,37735,1,2,0:0:0:0:
312,120,37921,6,0,P|380:120|408:144,1,81,2|0,0:0|0:0,0:0:0:0:
485,252,38291,1,4,0:0:0:0:
234,269,38476,1,0,0:0:0:0:
440,316,38661,2,0,P|481:268|486:231,1,81,2|0,0:0|0:0,0:0:0:0:
452,79,39032,1,12,0:0:0:0:
419,55,39124,1,8,0:0:0:0:
381,40,39217,1,8,0:0:0:0:
341,35,39309,1,8,0:0:0:0:
301,39,39402,5,2,0:0:0:0:
208,248,39587,1,2,0:0:0:0:
364,104,39958,5,2,0:0:0:0:
136,188,40143,1,2,0:0:0:0:
8,84,40513,5,4,0:0:0:0:
44,236,40698,1,8,0:0:0:0:
76,259,40790,1,8,0:0:0:0:
114,274,40883,1,10,0:0:0:0:
154,280,40975,1,8,0:0:0:0:
194,277,41068,1,8,0:0:0:0:
233,264,41160,1,8,0:0:0:0:
267,243,41254,6,8,L|280:188,1,40.5,12|8,0:0|0:0,0:0:0:0:
252,56,41439,2,8,L|239:111,1,40.5
160,188,41624,1,2,0:0:0:0:
364,120,41809,1,2,0:0:0:0:
120,64,41995,1,4,0:0:0:0:
264,352,42365,5,2,0:0:0:0:
308,118,42550,1,2,0:0:0:0:
180,340,42921,5,2,0:0:0:0:
192,96,43106,1,2,0:0:0:0:
504,84,43476,5,4,0:0:0:0:
468,236,43661,1,8,0:0:0:0:
435,259,43753,1,8,0:0:0:0:
397,274,43846,1,10,0:0:0:0:
357,280,43938,1,8,0:0:0:0:
317,277,44031,1,8,0:0:0:0:
278,264,44123,1,8,0:0:0:0:
244,243,44217,6,8,L|231:188,1,40.5,12|8,0:0|0:0,0:0:0:0:
259,56,44402,2,8,L|272:111,1,40.5
351,188,44587,1,2,0:0:0:0:
147,120,44772,1,2,0:0:0:0:
391,64,44958,1,4,0:0:0:0:
184,256,45328,6,0,P|233:260|282:231,1,81,2|0,0:0|0:0,0:0:0:0:
208,98,45698,2,0,P|204:147|233:196,1,81,4|0,0:0|0:0,0:0:0:0:
365,128,46069,2,0,L|281:128,1,81,2|2,0:0|0:0,0:0:0:0:
258,102,46346,1,0,0:0:0:0:
232,76,46439,2,0,L|148:76,1,81,4|0,0:0|0:0,0:0:0:0:
36,232,46809,6,0,L|24:328,2,81,2|0|4,0:0|0:0|0:0,0:0:0:0:
52,128,47365,1,0,0:0:0:0:
140,156,47550,2,0,L|152:60,2,81,2|2|4,0:0|0:0|0:0,0:0:0:0:
124,260,48106,1,0,0:0:0:0:
248,352,48291,5,10,0:0:0:0:
262,337,48383,1,8,0:0:0:0:
276,320,48476,2,0,B|328:320|328:320|352:304,1,81,8|4,0:0|0:0,0:0:0:0:
416,192,48846,1,8,0:0:0:0:
402,207,48938,1,8,0:0:0:0:
388,224,49031,2,0,B|336:224|336:224|312:240,1,81,2|2,0:0|0:0,0:0:0:0:
248,352,49402,2,0,P|208:306|216:228,1,121.5,4|8,0:0|0:0,0:0:0:0:
224,200,49772,5,2,0:0:0:0:
40,352,49957,1,2,0:0:0:0:
204,128,50328,5,2,0:0:0:0:
120,348,50513,1,2,0:0:0:0:
134,95,50883,6,0,P|99:101|75:85,1,60.75
56,32,51254,5,2,0:0:0:0:
228,40,51439,1,8,0:0:0:0:
36,160,51624,1,4,0:0:0:0:
272,152,51809,1,8,0:0:0:0:
272,152,51902,1,8,0:0:0:0:
272,152,51995,1,10,0:0:0:0:
128,264,52180,1,8,0:0:0:0:
120,60,52365,1,4,0:0:0:0:
212,236,52550,1,8,0:0:0:0:
297,39,52735,6,0,P|345:25|393:35,1,97.1999970336915,2|8,0:0|0:0,0:0:0:0:
399,208,53105,2,0,P|363:171|348:124,1,97.1999970336915,2|8,0:0|0:0,0:0:0:0:
495,35,53476,2,0,P|481:82|449:119,1,97.1999970336915,2|8,0:0|0:0,0:0:0:0:
298,39,53846,1,4,0:0:0:0:
296,204,54032,1,8,0:0:0:0:
297,39,54217,5,2,0:0:0:0:
364,264,54402,1,8,0:0:0:0:
435,124,54588,1,4,0:0:0:0:
251,77,54773,1,8,0:0:0:0:
257,98,54866,1,8,0:0:0:0:
264,118,54958,1,10,0:0:0:0:
348,308,55143,1,8,0:0:0:0:
224,228,55328,1,4,0:0:0:0:
372,164,55514,1,8,0:0:0:0:
153,161,55699,6,0,P|94:193|28:197,1,97.1999970336915,2|8,0:0|0:0,0:0:0:0:
128,266,56069,2,0,P|174:280|223:280,1,97.1999970336915,4|8,0:0|0:0,0:0:0:0:
108,348,56439,2,0,P|66:326|32:291,1,97.1999970336915,2|8,0:0|0:0,0:0:0:0:
251,77,56810,1,12,0:0:0:0:
289,92,56902,1,8,0:0:0:0:
323,113,56995,1,8,0:0:0:0:
353,141,57087,1,8,0:0:0:0:
376,173,57180,5,2,0:0:0:0:
376,344,57365,1,8,0:0:0:0:
480,228,57550,1,4,0:0:0:0:
223,280,57735,2,0,P|156:277|111:244,1,97.1999970336915,8|2,0:0|0:0,0:0:0:0:
162,94,58106,2,0,P|192:159|187:210,1,97.1999970336915,8|4,0:0|0:0,0:0:0:0:
75,175,58476,1,8,0:0:0:0:
232,48,58661,5,2,0:0:0:0:
400,124,58846,2,0,P|348:160|292:160,1,97.1999970336915,8|4,0:0|0:0,0:0:0:0:
64,198,59217,1,8,0:0:0:0:
90,238,59309,1,8,0:0:0:0:
128,268,59402,1,10,0:0:0:0:
174,282,59494,1,8,0:0:0:0:
222,280,59587,1,8,0:0:0:0:
251,77,59772,1,4,0:0:0:0:
315,248,59958,1,8,0:0:0:0:
168,84,60143,6,0,L|84:36,1,97.1999970336915,2|8,0:0|0:0,0:0:0:0:
90,238,60513,2,0,L|174:286,1,97.1999970336915,4|8,0:0|0:0,0:0:0:0:
172,184,60883,2,0,L|88:136,1,97.1999970336915,2|8,0:0|0:0,0:0:0:0:
264,344,61254,2,0,L|370:344,1,97.1999970336915,4|8,0:0|0:0,0:0:0:0:
496,276,61624,5,2,0:0:0:0:
432,104,61809,1,8,0:0:0:0:
392,75,61901,1,8,0:0:0:0:
347,57,61995,1,12,0:0:0:0:
299,51,62086,1,8,0:0:0:0:
251,57,62180,2,0,L|240:112,1,48.5999985168458,8|8,0:0|0:0,0:0:0:0:
216,276,62365,6,0,L|196:208,1,48.5999985168458,10|8,0:0|0:0,0:0:0:0:
146,131,62550,1,8,0:0:0:0:
100,145,62642,1,8,0:0:0:0:
62,175,62735,1,12,0:0:0:0:
36,217,62827,1,8,0:0:0:0:
27,264,62920,1,8,0:0:0:0:
35,312,63012,1,8,0:0:0:0:
59,354,63105,5,2,0:0:0:0:
202,229,63291,1,8,0:0:0:0:
36,217,63476,1,4,0:0:0:0:
208,344,63661,1,8,0:0:0:0:
208,344,63754,1,8,0:0:0:0:
208,344,63847,1,10,0:0:0:0:
280,160,64032,1,8,0:0:0:0:
344,340,64217,1,4,0:0:0:0:
202,229,64402,1,8,0:0:0:0:
448,216,64587,5,2,0:0:0:0:
416,324,64772,1,8,0:0:0:0:
472,113,64958,2,0,P|453:66|403:31,1,97.1999970336915,4|8,0:0|0:0,0:0:0:0:
371,127,65328,2,0,L|349:222,1,97.1999970336915,2|8,0:0|0:0,0:0:0:0:
244,316,65698,1,4,0:0:0:0:
200,152,65883,1,8,0:0:0:0:
349,221,66069,5,2,0:0:0:0:
156,256,66254,1,8,0:0:0:0:
280,140,66439,1,4,0:0:0:0:
424,272,66624,1,8,0:0:0:0:
424,272,66717,1,8,0:0:0:0:
424,272,66810,1,10,0:0:0:0:
371,127,66995,1,8,0:0:0:0:
336,280,67180,1,4,0:0:0:0:
508,264,67365,1,8,0:0:0:0:
253,300,67550,6,0,P|188:316|137:358,1,97.1999970336915,2|8,0:0|0:0,0:0:0:0:
162,238,67921,2,0,P|187:197|223:165,1,97.1999970336915,4|8,0:0|0:0,0:0:0:0:
92,192,68291,2,0,P|74:255|84:320,1,97.1999970336915,2|8,0:0|0:0,0:0:0:0:
175,95,68661,2,0,P|126:91|78:91,1,97.1999970336915,4|8,0:0|0:0,0:0:0:0:
340,272,69032,5,2,0:0:0:0:
456,184,69217,1,8,0:0:0:0:
456,184,69402,1,12,0:0:0:0:
176,96,69587,1,8,0:0:0:0:
176,96,69680,1,8,0:0:0:0:
176,96,69772,2,0,P|112:92|76:92,1,97.1999970336915,2|2,0:0|0:0,0:0:0:0:
344,132,70143,1,4,0:0:0:0:
216,252,70328,1,8,0:0:0:0:
384,324,70513,5,2,0:0:0:0:
176,324,70698,2,0,P|128:320|67:299,1,97.1999970336915,8|4,0:0|0:0,0:0:0:0:
188,196,71069,1,8,0:0:0:0:
264,332,71254,1,2,0:0:0:0:
328,196,71439,1,8,0:0:0:0:
176,324,71624,1,4,0:0:0:0:
244,130,71810,1,8,0:0:0:0:
336,288,71995,6,0,P|384:300|433:282,1,97.1999970336915,2|8,0:0|0:0,0:0:0:0:
488,100,72365,1,4,0:0:0:0:
371,21,72550,2,0,L|379:216,1,194.399994067383,8|8,0:0|0:0,0:0:0:0:
384,372,73106,1,4,0:0:0:0:
488,208,73291,1,8,0:0:0:0:
240,288,73476,5,10,0:0:0:0:
240,288,73569,1,8,0:0:0:0:
240,288,73661,1,8,0:0:0:0:
296,136,73846,1,4,0:0:0:0:
336,288,74032,1,8,0:0:0:0:
172,204,74217,1,2,0:0:0:0:
72,360,74402,1,8,0:0:0:0:
72,209,74587,2,0,P|81:163|128:112,1,97.1999970336915,4|8,0:0|0:0,0:0:0:0:
251,160,74958,6,0,P|241:207|213:246,1,97.1999970336915,2|8,0:0|0:0,0:0:0:0:
212,61,75328,1,4,0:0:0:0:
140,208,75513,2,0,P|164:313|250:323,1,194.399994067383,8|8,0:0|0:0,0:0:0:0:
340,252,76069,1,4,0:0:0:0:
440,352,76254,1,8,0:0:0:0:
428,212,76439,6,0,P|436:164|459:121,1,97.1999970336915,2|8,0:0|0:0,0:0:0:0:
367,122,76810,2,0,P|325:147|293:183,1,97.1999970336915,4|8,0:0|0:0,0:0:0:0:
321,52,77180,2,0,P|366:36|415:35,1,97.1999970336915,2|8,0:0|0:0,0:0:0:0:
223,135,77550,2,0,P|219:86|218:37,1,97.1999970336915,4|8,0:0|0:0,0:0:0:0:
246,265,77921,6,0,P|262:213|321:172,1,97.1999970336915,2|8,0:0|0:0,0:0:0:0:
459,121,78291,1,4,0:0:0:0:
459,309,78476,1,8,0:0:0:0:
460,323,78569,1,8,0:0:0:0:
460,337,78661,2,0,P|413:352|351:327,1,97.1999970336915,2|8,0:0|0:0,0:0:0:0:
328,112,79032,1,4,0:0:0:0:
411,270,79217,1,8,0:0:0:0:
175,247,79402,5,10,0:0:0:0:
175,247,79495,1,8,0:0:0:0:
175,247,79587,1,8,0:0:0:0:
84,172,79772,2,0,P|68:140|76:72,1,97.1999970336915,4|8,0:0|0:0,0:0:0:0:
239,89,80143,2,0,P|183:113|127:113,1,97.1999970336915,2|8,0:0|0:0,0:0:0:0:
232,184,80513,2,0,P|260:253|244:298,1,97.1999970336915,4|8,0:0|0:0,0:0:0:0:
88,279,80883,6,0,P|128:251|188:251,1,97.1999970336915,2|8,0:0|0:0,0:0:0:0:
340,252,81254,1,4,0:0:0:0:
120,352,81439,2,0,P|71:356|18:318,2,97.1999970336915,8|2|8,0:0|0:0|0:0,0:0:0:0:
256,272,81995,1,4,0:0:0:0:
112,104,82180,5,8,0:0:0:0:
88,279,82365,1,2,0:0:0:0:
232,144,82550,2,0,L|240:28,1,97.1999970336915,8|4,0:0|0:0,0:0:0:0:
488,32,82921,2,8,L|474:100,1,48.5999985168458
370,140,83107,2,8,L|362:92,1,48.5999985168458,10|8,0:0|0:0,0:0:0:0:
489,170,83292,2,8,L|478:224,1,48.5999985168458
371,278,83477,2,8,L|357:223,1,48.5999985168458,10|8,0:0|0:0,0:0:0:0:
490,308,83662,2,8,L|480:364,1,48.5999985168458
296,331,83846,5,10,0:0:0:0:
370,140,84032,1,8,0:0:0:0:
181,64,84217,1,4,0:0:0:0:
105,254,84402,1,8,0:0:0:0:
105,254,84495,1,8,0:0:0:0:
105,254,84587,1,10,0:0:0:0:
237,201,84772,1,8,0:0:0:0:
44,164,84958,1,4,0:0:0:0:
195,281,85143,1,8,0:0:0:0:
100,60,85328,5,2,0:0:0:0:
350,76,85513,1,8,0:0:0:0:
200,200,85698,2,0,P|152:216|92:200,1,97.1999970336915,4|8,0:0|0:0,0:0:0:0:
312,184,86069,2,0,P|360:168|420:184,1,97.1999970336915,2|8,0:0|0:0,0:0:0:0:
332,304,86439,1,8,0:0:0:0:
287,323,86531,1,8,0:0:0:0:
239,331,86624,1,8,0:0:0:0:
191,327,86716,1,8,0:0:0:0:
145,311,86809,6,0,L|160:248,1,48.5999985168458,8|0,0:0|0:0,0:0:0:0:
180,136,86995,2,0,L|124:160,1,48.5999985168458,4|0,0:0|0:0,0:0:0:0:
56,248,87180,2,0,L|71:185,1,48.5999985168458,8|8,0:0|0:0,0:0:0:0:
100,72,87365,2,0,L|144:52,1,48.5999985168458,6|0,0:0|0:0,0:0:0:0:
287,65,87550,6,0,L|272:128,1,48.5999985168458,8|0,0:0|0:0,0:0:0:0:
252,240,87736,2,0,L|308:216,1,48.5999985168458,4|0,0:0|0:0,0:0:0:0:
376,128,87921,2,0,L|361:191,1,48.5999985168458,8|8,0:0|0:0,0:0:0:0:
332,304,88106,2,0,L|287:323,1,48.5999985168458,4|0,0:0|0:0,0:0:0:0:
145,311,88291,6,0,L|160:248,1,48.5999985168458,8|0,0:0|0:0,0:0:0:0:
180,136,88476,2,0,L|124:160,1,48.5999985168458,4|0,0:0|0:0,0:0:0:0:
56,248,88661,2,0,L|71:185,1,48.5999985168458,8|8,0:0|0:0,0:0:0:0:
100,72,88847,2,0,L|144:52,1,48.5999985168458,4|0,0:0|0:0,0:0:0:0:
352,40,89032,5,2,0:0:0:0:
220,308,89217,1,2,0:0:0:0:
212,72,89402,1,2,0:0:0:0:
388,248,89587,1,2,0:0:0:0:
