osu file format v14

[General]
AudioFilename: audio.mp3
AudioLeadIn: 0
PreviewTime: 51145
Countdown: 0
SampleSet: None
StackLeniency: 0.7
Mode: 2
LetterboxInBreaks: 0
WidescreenStoryboard: 1

[Editor]
Bookmarks: 775,9663,21515,33367,45219,51145,60034,71886,80774,89663
DistanceSpacing: 0.5
BeatDivisor: 4
GridSize: 16
TimelineZoom: 1

[Metadata]
Title:Baton Road
TitleUnicode:バ トンロ一 ド
Artist:KANA-BOON
ArtistUnicode:KANA-BOON
Creator:Seija
Version:Platter
Source:BORUTO-ボルト- NARUTO NEXT GENERATIONS
Tags:
BeatmapID:1970083
BeatmapSetID:943378

[Difficulty]
HPDrainRate:5
CircleSize:3.5
OverallDifficulty:8
ApproachRate:8
SliderMultiplier:1.6
SliderTickRate:1

[Events]
//Background and Video events
0,0,"2.jpg",0,0
//Break Periods
//Storyboard Layer 0 (Background)
//Storyboard Layer 1 (Fail)
//Storyboard Layer 2 (Pass)
//Storyboard Layer 3 (Foreground)
//Storyboard Sound Samples

[TimingPoints]
775,370.37037037037,4,3,13,50,1,0
28923,-66.6666666666667,4,3,13,50,0,0
29293,-100,4,3,13,50,0,0
30404,-100,4,3,13,50,0,0
36330,-100,4,3,13,70,0,0
36515,-100,4,3,13,80,0,0
39386,-100,4,3,13,5,0,0
39478,-100,4,3,13,80,0,0
39571,-100,4,3,13,5,0,0
39849,-100,4,3,13,80,0,0
39941,-100,4,3,13,5,0,0
40034,-100,4,3,13,80,0,0
40126,-100,4,3,13,5,0,0
40404,-100,4,3,13,80,0,0
42163,-100,4,3,13,5,0,0
42256,-100,4,3,13,80,0,0
42349,-100,4,3,13,5,0,0
42441,-100,4,3,13,80,0,0
42534,-100,4,3,13,5,0,0
42812,-100,4,3,13,80,0,0
42904,-100,4,3,13,5,0,0
42997,-100,4,3,13,80,0,0
43089,-100,4,3,13,5,0,0
43367,-100,4,3,13,80,0,0
45497,-100,4,3,13,5,0,0
45589,-100,4,3,13,80,0,0
45867,-100,4,3,13,5,0,0
45960,-100,4,3,13,80,0,0
46237,-100,4,3,13,5,0,0
46330,-100,4,3,13,80,0,0
46608,-100,4,3,13,5,0,0
46700,-100,4,3,13,80,0,0
50774,-100,4,3,13,40,0,0
51052,-100,4,3,13,5,0,0
51145,-100,4,3,13,90,0,1
71886,-100,4,3,13,90,0,0

[Colours]
Combo1 : 5,160,254
Combo2 : 255,255,128
Combo3 : 240,159,106
Combo4 : 62,75,198

[HitObjects]
142,318,775,6,0,P|89:255|154:196,1,160,2|0,0:2|0:0,0:0:0:0:
330,197,1515,1,0,0:0:0:0:
191,196,1886,1,0,0:0:0:0:
344,286,2071,1,2,0:2:0:0:
387,288,2163,1,2,0:2:0:0:
344,286,2256,6,0,L|247:285,1,80,2|0,0:2|0:0,0:0:0:0:
143,287,2626,2,0,L|144:183,1,80,0|0,0:0|0:0,0:0:0:0:
290,197,2997,1,0,0:0:0:0:
125,145,3367,1,0,0:0:0:0:
265,131,3552,1,2,0:2:0:0:
307,133,3645,1,2,0:2:0:0:
265,131,3737,6,0,L|165:131,1,80,2|0,0:2|0:0,0:0:0:0:
323,228,4108,1,0,0:0:0:0:
188,268,4293,2,0,L|147:308,2,40,2|2|2,0:2|0:2|0:2,0:0:0:0:
314,263,4663,1,0,0:0:0:0:
410,188,4849,1,0,0:0:0:0:
293,146,5034,1,2,0:2:0:0:
246,147,5126,1,2,0:2:0:0:
293,146,5219,6,0,L|403:146,1,80,2|0,0:2|0:0,0:0:0:0:
265,242,5589,2,0,L|158:243,1,80,2|0,0:2|0:0,0:0:0:0:
355,253,5960,2,0,L|357:343,1,80,2|0,0:2|0:0,0:0:0:0:
227,337,6330,1,8,0:0:0:0:
205,330,6423,1,8,0:0:0:0:
210,313,6515,1,8,0:0:0:0:
238,307,6608,1,8,0:0:0:0:
411,317,6700,5,2,0:2:0:0:
480,277,6886,1,2,0:2:0:0:
463,193,7071,1,0,0:0:0:0:
370,156,7256,1,0,0:0:0:0:
269,163,7441,1,0,0:0:0:0:
385,136,7626,1,0,0:0:0:0:
499,102,7812,1,2,0:0:0:0:
499,102,7997,1,0,0:0:0:0:
229,91,8182,6,0,L|224:197,1,80,2|2,0:2|0:2,0:0:0:0:
354,220,8552,2,0,L|419:223,2,40,8|8|0,0:0|0:0|0:0,0:0:0:0:
206,181,8923,1,8,3:0:0:0:
152,168,9015,1,0,0:0:0:0:
108,185,9108,1,8,3:0:0:0:
68,229,9200,1,8,3:0:0:0:
65,288,9293,1,4,3:0:0:0:
95,331,9386,1,4,3:0:0:0:
137,353,9478,1,4,3:0:0:0:
197,358,9571,1,4,3:0:0:0:
403,348,9663,5,6,0:2:0:0:
481,307,9849,1,0,0:0:0:0:
426,223,10034,1,0,1:0:0:0:
301,210,10219,2,0,P|274:162|359:109,1,160,2|0,0:2|0:0,0:0:0:0:
472,105,10774,1,0,1:0:0:0:
472,105,10960,1,0,0:0:0:0:
206,118,11145,6,0,P|146:172|222:212,1,160,8|0,0:0|1:0,0:0:0:0:
313,226,11700,1,0,0:0:0:0:
160,228,11886,2,0,P|109:239|156:319,1,160,0|0,0:0|1:0,0:0:0:0:
268,324,12441,1,0,0:0:0:0:
458,324,12626,5,4,0:0:0:0:
280,295,12997,1,4,0:0:0:0:
452,244,13367,1,8,3:0:0:0:
276,241,13552,1,0,0:0:0:0:
217,206,13645,2,0,L|374:191,1,120,8|8,0:0|0:0,0:0:0:0:
124,166,14293,5,8,0:0:0:0:
236,190,14478,1,4,0:0:0:0:
195,293,14663,1,8,0:0:0:0:
71,304,14849,1,4,0:0:0:0:
226,329,15034,1,4,0:0:0:0:
97,325,15219,1,0,1:0:0:0:
59,314,15312,1,0,1:0:0:0:
66,283,15404,1,0,1:0:0:0:
98,279,15497,1,0,1:0:0:0:
388,317,15589,6,0,P|450:279|386:231,1,160,2|8,0:2|0:2,0:0:0:0:
255,228,16145,2,0,L|185:226,1,40,0|0,0:2|0:0,0:0:0:0:
255,228,16330,2,0,L|363:233,1,80,2|0,0:2|0:0,0:0:0:0:
199,335,16700,2,0,L|103:335,1,80,8|0,0:2|0:0,0:0:0:0:
383,346,17071,5,2,0:2:0:0:
466,305,17256,1,0,0:0:0:0:
408,230,17441,1,10,0:2:0:0:
296,228,17626,2,0,P|241:204|297:152,1,160,0|0,0:0|0:0,0:0:0:0:
456,159,18182,2,0,L|466:71,1,80,10|0,0:2|0:0,0:0:0:0:
397,69,18460,1,0,0:0:0:0:
182,80,18552,6,0,P|126:118|196:171,1,160,2|8,0:2|0:2,0:0:0:0:
325,185,19108,2,0,L|388:185,1,40,0|0,0:0|0:0,0:0:0:0:
325,185,19293,2,0,L|213:182,1,80,2|0,0:2|0:0,0:0:0:0:
356,275,19663,2,0,L|444:274,1,80,8|0,0:2|0:0,0:0:0:0:
148,345,20034,5,2,0:2:0:0:
66,318,20219,1,0,0:0:0:0:
103,241,20404,1,10,0:2:0:0:
217,235,20589,2,0,P|263:207|205:124,1,160,0|0,0:0|0:0,0:0:0:0:
93,137,21145,2,0,L|-5:136,1,80,10|0,0:2|0:0,0:0:0:0:
58,123,21423,1,0,0:0:0:0:
388,317,21515,6,0,P|450:279|386:231,1,160,2|8,0:2|0:2,0:0:0:0:
255,228,22071,2,0,L|185:226,1,40,0|0,0:0|0:0,0:0:0:0:
255,228,22256,2,0,L|363:233,1,80,2|0,0:2|0:0,0:0:0:0:
182,283,22626,1,8,0:2:0:0:
109,348,22812,1,0,0:0:0:0:
379,353,22997,5,2,0:2:0:0:
460,326,23182,1,0,0:0:0:0:
445,237,23367,1,10,0:2:0:0:
317,206,23552,2,0,L|129:174,2,160,0|0|0,0:0|0:0|0:0,0:0:0:0:
252,231,24386,1,0,0:0:0:0:
44,249,24478,6,0,L|37:342,1,80,2|0,0:2|0:0,0:0:0:0:
190,331,24849,1,8,0:2:0:0:
74,329,25034,1,2,0:2:0:0:
14,261,25219,1,2,0:2:0:0:
72,192,25404,1,0,0:0:0:0:
157,188,25589,1,8,0:2:0:0:
301,211,25774,1,4,3:0:0:0:
246,212,25867,1,4,3:0:0:0:
189,214,25960,5,2,0:2:0:0:
301,211,26145,1,4,0:0:0:0:
414,212,26330,1,8,0:2:0:0:
256,242,26515,1,0,0:0:0:0:
183,240,26608,2,0,L|337:242,1,120,0|0,0:0|0:0,0:0:0:0:
133,252,27071,2,0,L|120:350,1,80,8|0,0:2|0:0,0:0:0:0:
201,335,27349,1,0,0:0:0:0:
396,285,27441,6,0,P|442:249|377:177,1,160,2|8,0:2|0:2,0:0:0:0:
254,188,27997,2,0,L|184:186,1,40,0|0,0:0|0:0,0:0:0:0:
254,188,28182,2,0,L|359:191,1,80,2|0,0:2|0:0,0:0:0:0:
481,204,28552,2,0,L|491:299,1,80,8|0,0:2|0:0,0:0:0:0:
223,298,28923,5,2,0:2:0:0:
144,245,29108,1,0,0:0:0:0:
186,162,29293,1,10,0:2:0:0:
277,128,29478,2,0,L|110:138,1,160,2|0,0:2|0:0,0:0:0:0:
284,229,30034,2,0,L|309:321,1,80,8|0,0:2|0:0,0:0:0:0:
224,321,30312,1,0,0:0:0:0:
69,321,30404,6,0,P|30:296|92:215,1,160,2|8,0:2|0:2,0:0:0:0:
236,203,30960,2,0,L|290:205,1,40,0|0,0:0|0:0,0:0:0:0:
236,203,31145,2,0,L|138:203,1,80,2|0,0:2|0:0,0:0:0:0:
309,281,31515,2,0,L|417:286,1,80,8|0,0:2|0:0,0:0:0:0:
130,338,31886,5,2,0:2:0:0:
57,301,32071,1,0,0:0:0:0:
90,233,32256,1,10,0:2:0:0:
186,216,32441,2,0,L|367:209,1,160,0|0,0:0|0:0,0:0:0:0:
220,146,32997,2,0,L|116:146,1,80,10|0,0:2|0:0,0:0:0:0:
197,178,33274,1,0,0:0:0:0:
429,182,33367,6,0,P|478:221|426:316,1,160,2|8,0:2|0:2,0:0:0:0:
335,316,33923,1,0,0:0:0:0:
209,320,34108,2,0,L|203:145,1,160,2|8,0:2|0:2,0:0:0:0:
333,155,34663,1,0,0:0:0:0:
65,201,34849,6,0,L|-5:274,2,80,8|0|8,3:0|0:0|0:2,0:0:0:0:
205,193,35404,2,0,L|388:197,1,160,8|0,0:0|0:0,0:0:0:0:
252,267,35960,1,8,0:2:0:0:
395,284,36145,2,0,L|470:286,1,40,0|0,0:0|0:0,0:0:0:0:
395,284,36330,6,0,L|228:279,1,160,8|8,0:3|0:2,0:0:0:0:
357,343,36886,2,0,L|406:345,2,40,4|4|0,0:0|0:0|0:0,0:0:0:0:
221,335,37256,1,4,0:0:0:0:
356,298,37441,1,8,0:2:0:0:
97,223,37626,6,0,P|36:261|102:309,1,160,2|0,0:2|1:0,0:0:0:0:
219,328,38182,2,0,L|325:328,1,80,0|0,1:0|0:0,0:0:0:0:
181,262,38552,2,0,L|82:257,1,80,8|0,0:0|0:0,0:0:0:0:
264,173,38923,2,0,L|328:170,2,40,0|0|8,1:0|1:0|0:0,0:0:0:0:
91,224,39293,5,6,1:0:0:0:
261,272,39478,1,2,1:0:0:0:
278,329,39849,1,2,1:0:0:0:
101,365,40035,1,2,1:0:0:0:
290,364,40404,1,0,0:0:0:0:
172,355,40589,6,0,P|111:333|154:264,1,160,2|0,1:0|0:0,0:0:0:0:
322,249,41145,2,0,L|347:163,1,80,0|0,1:0|1:0,0:0:0:0:
212,151,41515,1,4,0:0:0:0:
326,147,41700,1,4,0:0:0:0:
474,146,41886,2,0,L|469:250,1,80,0|0,1:0|0:0,0:0:0:0:
301,264,42256,5,6,1:0:0:0:
464,312,42441,1,2,1:0:0:0:
487,272,42812,1,2,1:0:0:0:
314,227,42997,1,2,1:0:0:0:
437,274,43367,1,0,0:0:0:0:
283,186,43552,6,0,L|472:183,1,160,2|0,1:0|0:0,0:0:0:0:
288,104,44108,2,0,L|175:104,1,80,0|0,1:0|1:0,0:0:0:0:
363,183,44478,1,4,0:0:0:0:
248,184,44663,1,4,0:0:0:0:
368,288,44849,2,0,L|478:288,1,80,0|0,1:0|0:0,0:0:0:0:
108,324,45219,6,0,P|54:281|138:240,1,160,2|2,0:2|0:2,0:0:0:0:
243,198,45774,1,0,0:0:0:0:
106,208,45960,2,0,L|90:317,1,80,2|0,0:2|0:0,0:0:0:0:
245,326,46330,2,0,L|363:329,1,80,2|0,0:2|0:0,0:0:0:0:
133,340,46700,6,0,P|76:320|139:245,1,160,8|0,0:0|1:0,0:0:0:0:
243,229,47256,1,4,0:0:0:0:
396,235,47441,2,0,L|417:137,1,80,8|4,0:0|0:0,0:0:0:0:
249,106,47812,2,0,L|156:108,1,80,0|2,1:0|0:2,0:0:0:0:
222,149,48089,1,2,0:2:0:0:
415,195,48182,6,0,L|425:283,1,80,2|2,0:2|0:2,0:0:0:0:
230,286,48552,2,0,L|139:311,1,80,2|2,1:2|0:2,0:0:0:0:
223,331,48830,1,2,0:2:0:0:
297,337,48923,2,0,L|392:334,1,80,2|2,0:2|0:2,0:0:0:0:
193,225,49293,2,0,L|96:224,1,80,2|2,1:2|0:2,0:0:0:0:
394,265,49663,5,0,1:0:0:0:
245,324,49849,1,0,1:0:0:0:
399,340,50219,1,0,1:0:0:0:
239,324,50404,1,0,1:0:0:0:
439,311,50774,2,0,P|448:289|419:217,1,80,4|0,3:0|0:0,0:0:0:0:
150,292,51145,5,4,0:1:0:0:
64,251,51330,1,0,0:0:0:0:
101,169,51515,1,0,1:0:0:0:
232,140,51700,2,0,L|43:129,1,160,0|0,0:0|0:0,0:0:0:0:
175,204,52256,2,0,L|280:208,1,80,0|0,1:0|0:0,0:0:0:0:
211,224,52534,1,0,0:0:0:0:
146,226,52626,6,0,L|132:318,1,80,4|0,0:0|0:0,0:0:0:0:
268,333,52997,2,0,L|365:335,1,80,2|0,1:2|0:0,0:0:0:0:
184,351,53367,2,0,L|131:352,2,40,2|0|0,0:2|0:0|0:0,0:0:0:0:
330,352,53737,2,0,L|352:246,1,80,0|0,1:0|0:0,0:0:0:0:
46,236,54108,5,4,0:0:0:0:
126,283,54293,1,0,0:0:0:0:
230,291,54478,1,0,1:0:0:0:
114,229,54663,2,0,P|50:263|103:331,1,160,2|0,0:2|0:0,0:0:0:0:
149,328,55126,1,0,0:0:0:0:
217,338,55219,2,0,L|310:335,1,80,0|0,1:0|0:0,0:0:0:0:
98,257,55589,6,0,L|34:233,2,40,0|0|0,1:0|0:0|0:0,0:0:0:0:
248,265,55960,2,0,L|254:364,1,80,0|0,1:0|0:0,0:0:0:0:
108,342,56330,2,0,L|47:346,2,40,2|0|0,1:2|0:0|0:0,0:0:0:0:
254,340,56700,2,0,L|354:341,1,80,2|0,1:2|0:0,0:0:0:0:
114,299,57071,5,4,0:0:0:0:
249,306,57256,2,0,P|297:279|252:198,1,160,0|0,0:0|0:0,0:0:0:0:
192,192,57719,1,0,0:0:0:0:
126,194,57812,2,0,L|126:100,1,80,4|0,0:0|0:0,0:0:0:0:
263,107,58182,1,0,1:0:0:0:
150,84,58367,2,0,L|94:84,1,40,0|0,0:0|0:0,0:0:0:0:
150,84,58552,6,0,L|260:81,1,80,4|0,0:0|0:0,0:0:0:0:
111,175,58923,1,0,1:0:0:0:
264,177,59108,2,0,P|292:238|217:298,1,160,0|4,0:0|0:0,0:0:0:0:
79,294,59663,2,0,L|30:371,1,80,0|0,1:0|0:0,0:0:0:0:
387,313,60034,6,0,L|400:207,1,80,0|0,1:0|0:0,0:0:0:0:
244,218,60404,2,0,L|239:125,1,80,0|0,1:0|0:0,0:0:0:0:
313,130,60682,1,0,0:0:0:0:
387,125,60774,2,0,L|270:123,1,80,0|0,1:0|0:0,0:0:0:0:
135,212,61145,2,0,L|38:209,1,80,0|0,1:0|0:0,0:0:0:0:
301,317,61515,5,4,0:0:0:0:
163,313,61700,2,0,P|95:264|147:209,1,160,0|0,0:0|0:0,0:0:0:0:
257,188,62256,2,0,L|346:186,1,80,0|0,1:0|0:0,0:0:0:0:
235,113,62626,1,0,1:0:0:0:
198,125,62719,1,0,1:0:0:0:
192,161,62812,1,0,1:0:0:0:
228,182,62904,1,0,1:0:0:0:
405,219,62997,5,4,0:1:0:0:
304,288,63182,1,0,0:0:0:0:
183,299,63367,1,0,1:0:0:0:
316,348,63552,2,0,P|363:322|300:242,1,160,0|0,0:0|0:0,0:0:0:0:
270,242,64015,1,0,0:0:0:0:
209,243,64108,2,0,L|204:139,1,80,0|0,1:0|0:0,0:0:0:0:
468,96,64478,5,4,0:0:0:0:
338,98,64663,1,0,0:0:0:0:
206,104,64849,2,0,P|175:151|247:218,1,160,0|4,1:0|0:0,0:0:0:0:
377,221,65404,1,0,0:0:0:0:
223,303,65589,2,0,L|120:306,1,80,0|0,1:0|0:0,0:0:0:0:
192,287,65867,1,0,0:0:0:0:
415,298,65960,5,4,0:0:0:0:
479,239,66145,1,0,0:0:0:0:
425,155,66330,1,0,1:0:0:0:
296,153,66515,2,0,L|117:156,1,160,0|0,0:0|0:0,0:0:0:0:
200,162,66978,1,0,0:0:0:0:
264,169,67071,2,0,L|366:173,1,80,0|0,1:0|0:0,0:0:0:0:
69,235,67441,6,0,L|39:344,1,80,0|0,1:0|0:0,0:0:0:0:
191,134,67812,2,0,L|201:216,1,80,0|0,1:0|0:0,0:0:0:0:
83,87,68182,2,0,L|0:75,1,80,2|0,1:2|0:0,0:0:0:0:
320,65,68552,2,0,L|425:64,1,80,2|0,1:2|0:0,0:0:0:0:
128,174,68923,5,4,0:0:0:0:
249,178,69108,2,0,P|286:233|225:302,1,160,0|0,0:0|0:0,0:0:0:0:
178,302,69571,1,8,0:0:0:0:
111,294,69663,2,0,L|97:378,1,80,0|4,0:0|0:0,0:0:0:0:
260,362,70034,2,0,L|364:367,1,80,0|0,1:0|0:0,0:0:0:0:
73,332,70404,5,2,1:2:0:0:
73,332,70589,1,8,0:0:0:0:
217,231,70774,2,0,L|35:232,1,160,4|2,0:0|1:2,0:0:0:0:
171,302,71330,1,2,0:2:0:0:
333,310,71515,1,8,0:0:0:0:
374,299,71608,1,8,0:0:0:0:
364,263,71700,1,8,0:0:0:0:
312,249,71793,1,8,0:0:0:0:
79,268,71886,6,0,L|17:176,2,80,4|2|2,0:1|0:2|1:2,0:0:0:0:
226,282,72441,2,0,P|283:249|235:180,1,160,2|2,0:2|0:2,0:0:0:0:
99,173,72997,2,0,L|6:175,1,80,2|2,1:2|0:2,0:0:0:0:
321,262,73367,6,0,L|355:302,2,40,2|2|2,0:2|0:2|0:2,0:0:0:0:
184,253,73737,2,0,L|168:158,1,80,2|2,1:2|0:2,0:0:0:0:
312,151,74108,2,0,L|341:64,1,80,2|2,0:2|0:2,0:0:0:0:
191,82,74478,2,0,L|97:84,1,80,2|0,1:2|0:0,0:0:0:0:
400,171,74849,6,0,L|473:230,2,80,2|2|2,0:2|0:2|1:2,0:0:0:0:
247,155,75404,2,0,P|210:209|284:255,1,160,2|2,0:2|0:2,0:0:0:0:
417,250,75960,2,0,L|447:335,1,80,0|2,1:0|0:2,0:0:0:0:
368,337,76237,1,0,0:0:0:0:
129,330,76330,6,0,L|117:219,1,80,2|2,0:2|0:2,0:0:0:0:
247,229,76700,1,0,0:0:0:0:
139,168,76886,1,2,0:2:0:0:
296,164,77071,2,0,L|317:257,1,80,2|0,0:2|0:0,0:0:0:0:
187,280,77441,2,0,L|94:297,1,80,2|0,1:2|0:0,0:0:0:0:
381,335,77812,6,0,L|492:310,2,80,2|0|2,0:2|0:0|1:2,0:0:0:0:
215,339,78367,2,0,P|159:323|186:217,1,160,2|2,0:2|0:2,0:0:0:0:
302,201,78923,2,0,L|394:202,1,80,2|2,1:2|0:2,0:0:0:0:
110,242,79293,6,0,L|38:242,2,40,2|2|2,0:2|0:2|0:2,0:0:0:0:
228,240,79663,2,0,L|334:240,1,80,2|2,1:2|0:2,0:0:0:0:
447,149,80034,2,0,L|341:147,1,80,2|0,0:2|0:0,0:0:0:0:
195,145,80404,2,0,L|89:144,1,80,2|0,1:2|0:0,0:0:0:0:
405,319,80774,6,0,P|453:273|393:208,1,160,2|0,0:2|1:0,0:0:0:0:
243,203,81330,2,0,L|171:202,1,40,2|0,0:2|0:0,0:0:0:0:
243,203,81515,2,0,L|358:205,1,80,0|2,0:0|0:2,0:0:0:0:
162,283,81886,2,0,L|143:369,1,80,0|2,1:0|0:2,0:0:0:0:
415,357,82256,5,2,0:2:0:0:
318,349,82441,2,0,P|259:325|311:258,1,160,2|2,0:2|0:2,0:0:0:0:
400,250,82997,1,0,0:0:0:0:
268,230,83182,1,0,1:0:0:0:
383,157,83367,1,0,1:0:0:0:
421,171,83460,1,0,1:0:0:0:
426,207,83552,1,0,1:0:0:0:
387,220,83645,1,0,1:0:0:0:
183,230,83737,6,0,L|155:320,1,80,2|2,0:2|0:2,0:0:0:0:
261,312,84108,1,2,1:2:0:0:
138,337,84293,2,0,P|72:308|117:240,1,160,2|2,0:2|0:2,0:0:0:0:
238,238,84849,2,0,L|328:239,1,80,2|2,1:2|0:2,0:0:0:0:
72,188,85219,6,0,P|35:240|108:306,1,160,2|4,0:2|0:0,0:0:0:0:
223,305,85774,1,0,0:0:0:0:
348,311,85960,2,0,P|394:284|344:186,1,160,4|0,0:0|1:0,0:0:0:0:
303,193,86423,1,0,1:0:0:0:
239,194,86515,1,0,1:0:0:0:
166,195,86608,1,0,1:0:0:0:
90,197,86700,6,0,P|45:248|113:300,1,160,8|0,0:0|0:0,0:0:0:0:
242,303,87256,2,0,L|410:298,1,160,8|0,0:0|0:0,0:0:0:0:
239,180,87812,2,0,P|197:247|270:305,1,160,8|0,0:0|0:0,0:0:0:0:
371,307,88367,2,0,P|412:270|348:182,1,160,8|0,0:0|0:0,0:0:0:0:
262,180,88923,1,0,1:0:0:0:
145,184,89108,1,0,1:0:0:0:
262,180,89293,1,0,1:0:0:0:
12,185,89478,1,0,1:0:0:0:
