osu file format v14

[General]
AudioFilename: KANA-BOON - Baton Road.mp3
AudioLeadIn: 0
PreviewTime: 51052
Countdown: 0
SampleSet: Soft
StackLeniency: 0.3
Mode: 0
LetterboxInBreaks: 0
WidescreenStoryboard: 0

[Editor]
Bookmarks: 775,89478
DistanceSpacing: 0.5
BeatDivisor: 4
GridSize: 4
TimelineZoom: 1

[Metadata]
Title:Baton Road
TitleUnicode:バトンロード
Artist:KANA-BOON
ArtistUnicode:KANA-BOON
Creator:Gero
Version:-LIGHT INSANE-
Source:BORUTO-ボルト- NARUTO NEXT GENERATIONS
Tags:NARUTO-ナルト- 疾風伝 ボルト:新世代ナルト Shippuden Shipuden Opening Lanturn iYiyo Cosmolade bor borborygmos _83 102335 imbor Hazu- PolkaMocha Veridian -Sh1n1- pkhg MkGuh Marianna MugiwaraSekai Irohas Haruto_aizawa Haruto Voli Shmiklak Marvollo M_a_r_v_o_l_l_o ArMiN A_r_M_i_N Venix Irreversible Monstrata
BeatmapID:1287528
BeatmapSetID:609700

[Difficulty]
HPDrainRate:7
CircleSize:4.5
OverallDifficulty:7
ApproachRate:8.5
SliderMultiplier:1.6
SliderTickRate:1

[Events]
//Background and Video events
Video,-400,"Video.flv"
0,0,"10.jpg",0,0
//Break Periods
//Storyboard Layer 0 (Background)
//Storyboard Layer 1 (Fail)
//Storyboard Layer 2 (Pass)
//Storyboard Layer 3 (Foreground)
//Storyboard Sound Samples

[TimingPoints]
775,370.37037037037,4,2,1,55,1,0
9663,-100,4,2,1,60,0,0
15589,-100,4,2,1,70,0,0
50774,-100,4,2,1,30,0,0
51145,-83.3333333333333,4,2,1,80,0,1
55867,-83.3333333333333,4,2,1,5,0,1
55960,-83.3333333333333,4,2,1,80,0,1
56237,-83.3333333333333,4,2,1,5,0,1
56330,-83.3333333333333,4,2,1,80,0,1
62904,-83.3333333333333,4,2,1,80,0,0
62997,-83.3333333333333,4,2,1,80,0,1
67719,-83.3333333333333,4,2,1,5,0,1
67812,-83.3333333333333,4,2,1,80,0,1
68089,-83.3333333333333,4,2,1,5,0,1
68182,-83.3333333333333,4,2,1,80,0,1
71886,-100,4,2,1,80,0,0

[Colours]
Combo1 : 255,53,255
Combo2 : 224,54,118
Combo3 : 215,183,57
Combo4 : 77,198,204
Combo5 : 79,198,62
Combo6 : 150,77,193
Combo7 : 244,91,53
Combo8 : 104,133,164

[HitObjects]
293,264,775,6,0,B|256:280|256:280|219:264,1,80,4|0,1:0|0:0,0:0:0:0:
256,192,1145,1,2,0:0:0:0:
219,120,1330,2,0,B|219:73|256:54|256:54|293:73|293:120,1,160,0|0,0:0|0:0,0:0:0:0:
330,192,1886,1,2,0:0:0:0:
367,264,2071,1,8,0:0:0:0:
367,264,2163,1,8,0:0:0:0:
367,264,2256,6,0,B|406:264|406:264|434:235,1,80,4|0,1:0|0:0,0:0:0:0:
434,149,2626,2,0,B|406:120|406:120|367:120,1,80,2|0,0:0|0:0,0:0:0:0:
330,192,2997,2,0,B|260:192|260:192|256:196|256:196|256:188|256:188|252:192|252:192|182:192,1,160,2|2,0:0|0:0,0:0:0:0:
145,120,3552,1,8,0:0:0:0:
145,120,3645,1,8,0:0:0:0:
145,120,3737,6,0,P|132:83|145:46,1,80,4|0,1:0|0:0,0:0:0:0:
217,83,4108,1,2,0:0:0:0:
256,152,4293,2,0,L|256:192,2,40,8|8|4,0:0|0:0|1:0,0:0:0:0:
295,83,4663,1,0,0:0:0:0:
367,120,4849,2,0,P|380:83|367:46,1,80,2|8,0:0|0:0,0:0:0:0:
367,46,5126,1,8,0:0:0:0:
367,46,5219,5,4,1:0:0:0:
256,152,5589,1,2,0:0:0:0:
145,46,5960,1,2,0:0:0:0:
217,83,6145,1,8,0:0:0:0:
295,83,6331,1,8,0:0:0:0:
300,88,6423,1,8,0:0:0:0:
305,93,6515,1,8,0:0:0:0:
368,46,6700,6,0,P|343:15|305:2,1,80,4|0,1:0|0:0,0:0:0:0:
217,82,7071,2,0,B|256:91|256:91|295:82,1,80,2|0,0:0|0:0,0:0:0:0:
207,2,7441,2,0,P|169:14|144:45,1,80,2|0,0:0|0:0,0:0:0:0:
72,82,7812,1,2,0:0:0:0:
145,119,7997,1,0,0:0:0:0:
72,82,8182,5,4,1:0:0:0:
0,119,8367,1,4,1:0:0:0:
72,156,8552,2,0,L|100:184,2,40,8|8|8,0:0|0:0|0:0,0:0:0:0:
145,119,8923,6,0,L|173:147,7,40,8|8|8|8|8|8|8|8,0:0|0:0|0:0|0:0|0:0|0:0|0:0|0:0,0:0:0:0:
201,175,9663,5,4,1:0:0:0:
256,232,9849,1,2,0:0:0:0:
311,175,10034,1,4,0:0:0:0:
256,232,10219,2,0,B|275:251|275:251|277:259|277:259|283:253|283:253|286:262|286:262|305:281,1,80,0|2,0:0|0:0,0:0:0:0:
366,232,10589,1,2,0:0:0:0:
366,232,10774,2,0,B|385:251|385:251|387:259|387:259|393:253|393:253|396:262|396:262|415:281,1,80,4|0,0:0|0:0,0:0:0:0:
470,224,11145,6,0,P|500:152|470:80,1,160,2|4,0:0|0:0,0:0:0:0:
415,21,11700,1,0,0:0:0:0:
360,81,11886,2,0,B|314:81|314:81|252:81|224:140,1,160,2|4,0:0|0:0,0:0:0:0:
164,192,12441,1,0,0:0:0:0:
224,244,12626,6,0,B|252:303|314:303|314:303|360:303,2,160,2|4|2,0:0|0:0|0:0,0:0:0:0:
164,192,13552,1,4,0:0:0:0:
225,140,13737,1,0,0:0:0:0:
164,192,13923,2,0,B|114:237|114:237|111:246|111:246|106:240|106:240|103:248|103:248|54:294,1,160,4|4,0:0|0:0,0:0:0:0:
12,228,14478,2,0,B|-6:192|-6:192|12:156,1,80,2|0,0:0|0:0,0:0:0:0:
56,88,14849,6,0,B|110:62|110:62|164:88,1,120,4|4,0:0|0:0,0:0:0:0:
164,88,15219,1,4,0:0:0:0:
225,140,15404,1,4,0:0:0:0:
225,140,15589,6,0,B|256:115|256:115|287:140,1,80,4|2,1:0|0:0,0:0:0:0:
348,88,15960,2,0,B|402:62|402:62|456:88,1,120,4|0,0:0|0:0,0:0:0:0:
456,88,16330,1,2,0:0:0:0:
402,148,16515,1,2,0:0:0:0:
456,208,16700,1,4,0:0:0:0:
402,268,16886,1,0,0:0:0:0:
402,268,16978,1,0,0:0:0:0:
402,268,17071,6,0,P|365:281|328:268,1,80,2|2,0:0|0:0,0:0:0:0:
256,304,17441,1,4,0:0:0:0:
184,267,17626,1,0,0:0:0:0:
184,267,17719,2,0,B|129:267|129:267|121:271|121:271|65:271,1,120,4|2,0:0|0:0,0:0:0:0:
24,192,18182,1,4,0:0:0:0:
64,113,18367,1,0,0:0:0:0:
64,113,18460,1,0,0:0:0:0:
64,113,18552,6,0,B|92:84|92:84|132:84,1,80,2|2,0:0|0:0,0:0:0:0:
196,32,18923,2,0,P|170:84|196:136,1,120,4|0,0:0|0:0,0:0:0:0:
195,136,19293,1,2,0:0:0:0:
256,192,19478,1,2,0:0:0:0:
317,136,19663,1,4,0:0:0:0:
378,192,19849,1,0,0:0:0:0:
378,192,19941,1,0,0:0:0:0:
378,192,20034,6,0,L|458:192,2,80,2|2|4,0:0|0:0|0:0,0:0:0:0:
317,248,20589,1,0,0:0:0:0:
317,248,20682,2,0,B|281:248|281:248|240:248|209:286,1,120,4|2,0:0|0:0,0:0:0:0:
153,343,21145,1,4,0:0:0:0:
96,286,21330,1,0,0:0:0:0:
96,286,21423,1,0,0:0:0:0:
96,286,21515,6,0,L|39:229,1,80,2|2,0:0|0:0,0:0:0:0:
96,172,21886,2,0,L|11:87,1,120,4|0,0:0|0:0,0:0:0:0:
11,87,22256,1,2,0:0:0:0:
67,30,22441,1,2,0:0:0:0:
122,87,22626,1,4,0:0:0:0:
177,30,22812,1,0,0:0:0:0:
177,30,22904,1,0,0:0:0:0:
177,30,22997,6,0,P|214:17|251:30,1,80,2|2,0:0|0:0,0:0:0:0:
307,87,23367,1,4,0:0:0:0:
251,143,23552,1,0,0:0:0:0:
251,143,23645,2,0,L|330:233,1,120,4|2,0:0|0:0,0:0:0:0:
387,289,24108,1,4,0:0:0:0:
444,234,24293,1,0,0:0:0:0:
444,234,24386,1,0,0:0:0:0:
444,234,24478,6,0,B|494:272|468:372|384:372|384:372|339:372,1,240,2|4,0:0|0:0,0:0:0:0:
257,355,25219,2,0,B|281:289|350:289|350:289|387:289,1,160,2|4,0:0|0:0,0:0:0:0:
444,234,25774,1,0,0:0:0:0:
444,150,25960,2,0,B|494:112|468:12|384:12|384:12|339:12,1,240,2|4,0:0|0:0,0:0:0:0:
257,29,26700,2,0,B|281:95|350:95|350:95|387:95,1,160,2|4,0:0|0:0,0:0:0:0:
444,150,27256,1,0,0:0:0:0:
501,95,27441,6,0,B|516:58|516:58|501:21,1,80,4|2,1:0|0:0,0:0:0:0:
444,150,27812,2,0,B|428:176|402:192|402:192|428:208|444:234,1,120,4|0,0:0|0:0,0:0:0:0:
444,234,28182,1,2,0:0:0:0:
501,289,28367,1,2,0:0:0:0:
445,344,28552,1,4,0:0:0:0:
389,289,28737,1,0,0:0:0:0:
389,289,28830,1,0,0:0:0:0:
389,289,28923,6,0,B|349:289|349:289|320:317,1,80,2|2,0:0|0:0,0:0:0:0:
256,272,29293,1,4,0:0:0:0:
191,226,29478,1,0,0:0:0:0:
191,226,29571,2,0,P|172:170|191:114,1,120,4|2,0:0|0:0,0:0:0:0:
256,68,30034,1,4,0:0:0:0:
321,21,30219,1,0,0:0:0:0:
321,21,30312,1,0,0:0:0:0:
321,21,30404,6,0,P|358:8|395:21,1,80,2|2,0:0|0:0,0:0:0:0:
460,68,30774,2,0,B|460:119|460:119|464:127|464:127|468:135|468:135|468:186,1,120,4|0,0:0|0:0,0:0:0:0:
468,186,31145,1,2,0:0:0:0:
411,242,31330,1,2,0:0:0:0:
468,298,31515,1,4,0:0:0:0:
411,354,31700,1,0,0:0:0:0:
411,354,31793,1,0,0:0:0:0:
411,354,31886,6,0,B|373:366|373:366|335:354,1,80,2|2,0:0|0:0,0:0:0:0:
256,332,32256,1,4,0:0:0:0:
177,353,32441,1,0,0:0:0:0:
177,353,32534,2,0,B|121:375|121:375|65:353,1,120,4|2,0:0|0:0,0:0:0:0:
121,293,32997,1,4,0:0:0:0:
177,233,33182,1,0,0:0:0:0:
177,233,33274,1,0,0:0:0:0:
177,233,33367,6,0,B|256:223|256:223|335:233,1,160,2|4,0:0|0:0,0:0:0:0:
391,173,33923,1,0,0:0:0:0:
391,173,34015,2,0,P|416:121|391:69,1,120,4|2,0:0|0:0,0:0:0:0:
447,11,34478,1,4,0:0:0:0:
504,69,34663,1,0,0:0:0:0:
504,69,34756,1,0,0:0:0:0:
504,69,34849,6,0,B|508:90|519:106|519:106|508:122|504:143,2,80,2|2|4,0:0|0:0|0:0,0:0:0:0:
447,11,35404,1,0,0:0:0:0:
447,11,35497,2,0,P|391:-8|335:11,1,120,4|2,0:0|0:0,0:0:0:0:
278,69,35960,1,4,0:0:0:0:
335,127,36145,1,0,0:0:0:0:
335,127,36237,1,0,0:0:0:0:
335,127,36330,6,0,L|256:266,1,160,2|4,0:0|0:0,0:0:0:0:
312,322,36886,2,0,L|331:287,2,40,0|0|2,0:0|0:0|0:0,0:0:0:0:
256,377,37256,1,2,0:0:0:0:
200,322,37441,1,4,0:0:0:0:
256,266,37626,6,4,P|283:192|256:118,1,160,4|4,0:0|0:0,0:0:0:0:
312,62,38182,2,0,L|392:62,1,80,4|0,0:0|0:0,0:0:0:0:
256,118,38552,2,0,L|176:118,1,80,4|0,0:0|0:0,0:0:0:0:
312,174,38923,2,0,L|352:174,3,40,8|8|8|8,0:0|0:0|0:0|0:0,0:0:0:0:
388,192,39293,5,4,1:0:0:0:
444,136,39478,2,0,B|480:151|480:151|480:233|480:233|444:248,1,160,2|2,1:0|1:0,0:0:0:0:
388,192,40034,2,0,B|352:177|352:177|352:95|352:95|388:80,1,160,2|2,1:0|0:0,0:0:0:0:
444,136,40589,6,0,B|366:136|366:136|358:140|358:140|358:132|358:132|350:136|350:136|318:136|318:136|310:140|310:140|310:132|310:132|302:136|302:136|224:136,1,240,4|4,1:0|0:0,0:0:0:0:
256,208,41330,1,8,0:0:0:0:
256,208,41423,1,4,0:0:0:0:
256,208,41515,1,8,0:0:0:0:
288,280,41700,1,4,0:0:0:0:
256,352,41886,1,8,0:0:0:0:
124,192,42256,5,4,1:0:0:0:
68,136,42441,2,0,B|32:151|32:151|32:233|32:233|68:248,1,160,2|2,1:0|1:0,0:0:0:0:
124,192,42997,2,0,B|160:177|160:177|160:95|160:95|124:80,1,160,2|2,1:0|0:0,0:0:0:0:
68,136,43552,6,0,B|146:136|146:136|154:140|154:140|154:132|154:132|162:136|162:136|194:136|194:136|202:140|202:140|202:132|202:132|210:136|210:136|288:136,1,240,4|4,1:0|0:0,0:0:0:0:
256,208,44293,1,8,0:0:0:0:
256,208,44386,1,4,0:0:0:0:
256,208,44478,1,8,0:0:0:0:
224,280,44663,1,4,0:0:0:0:
256,352,44849,1,8,0:0:0:0:
388,192,45219,5,4,1:0:0:0:
256,104,45589,1,10,0:0:0:0:
124,192,45960,1,10,0:0:0:0:
256,280,46330,1,10,0:0:0:0:
388,191,46700,6,0,P|373:114|320:56,1,160,10|10,0:0|0:0,0:0:0:0:
256,104,47256,1,0,0:0:0:0:
192,55,47441,2,0,P|139:113|124:191,1,160,10|10,0:0|0:0,0:0:0:0:
189,236,47997,1,8,0:0:0:0:
189,236,48089,1,8,0:0:0:0:
189,236,48182,6,0,P|256:273|323:236,1,160,4|6,1:0|0:0,0:0:0:0:
256,192,48737,1,0,0:0:0:0:
256,192,48830,2,0,L|256:312,1,120,4|0,0:0|0:0,0:0:0:0:
199,368,49293,1,6,0:0:0:0:
256,312,49478,1,0,0:0:0:0:
313,368,49663,5,2,0:0:0:0:
313,368,49849,1,2,0:0:0:0:
256,192,50219,1,2,0:0:0:0:
256,192,50404,1,2,0:0:0:0:
199,368,50774,1,2,0:0:0:0:
199,368,51145,5,4,1:0:0:0:
256,312,51330,1,2,0:0:0:0:
256,312,51515,1,4,0:0:0:0:
313,368,51700,1,0,0:0:0:0:
313,368,51793,2,0,B|344:348|356:312|356:312|344:276|313:256,1,143.999995605469,4|2,0:0|0:0,0:0:0:0:
256,192,52256,1,4,0:0:0:0:
199,256,52441,1,0,0:0:0:0:
199,256,52534,1,8,0:0:0:0:
199,256,52626,6,0,B|155:275|155:275|111:256,1,95.9999970703126,2|2,0:0|0:0,0:0:0:0:
53,192,52997,1,4,0:0:0:0:
110,128,53182,1,0,0:0:0:0:
110,128,53274,1,4,0:0:0:0:
110,128,53367,2,0,B|117:105|117:105|110:82,2,47.9999985351563,2|4|2,0:0|0:0|0:0,0:0:0:0:
53,192,53737,1,4,0:0:0:0:
110,255,53923,1,0,0:0:0:0:
110,255,54015,1,8,0:0:0:0:
110,255,54108,5,2,0:0:0:0:
167,192,54293,1,2,0:0:0:0:
110,128,54478,1,4,0:0:0:0:
167,64,54663,1,0,0:0:0:0:
167,64,54756,2,0,B|197:64|197:64|258:64|282:128,1,143.999995605469,4|2,0:0|0:0,0:0:0:0:
343,66,55219,1,4,0:0:0:0:
404,127,55404,1,0,0:0:0:0:
404,127,55497,1,8,0:0:0:0:
404,127,55589,6,0,P|431:192|404:257,1,143.999995605469,2|0,0:0|0:0,0:0:0:0:
441,280,55960,2,0,P|376:253|311:280,1,143.999995605469,4|4,0:0|0:0,0:0:0:0:
271,262,56330,2,0,B|287:280|287:280|271:298,2,47.9999985351563,2|4|2,0:0|0:0|0:0,0:0:0:0:
220,192,56700,1,4,0:0:0:0:
271,122,56886,1,0,0:0:0:0:
271,122,56978,1,8,0:0:0:0:
271,122,57071,5,2,0:0:0:0:
220,192,57256,2,0,L|124:192,1,95.9999970703126,2|4,0:0|0:0,0:0:0:0:
271,262,57626,1,0,0:0:0:0:
271,262,57719,2,0,B|343:262|343:262|393:312,1,143.999995605469,4|2,0:0|0:0,0:0:0:0:
452,376,58182,1,4,0:0:0:0:
510,313,58367,1,0,0:0:0:0:
510,313,58460,1,8,0:0:0:0:
510,313,58552,5,2,0:0:0:0:
452,250,58737,2,0,B|440:208|408:192|384:192|384:192|408:192|440:176|452:134,1,191.999994140625,2|0,0:0|0:0,0:0:0:0:
510,71,59293,1,2,0:0:0:0:
510,71,59386,1,4,0:0:0:0:
510,71,59478,1,2,0:0:0:0:
452,8,59663,1,4,0:0:0:0:
394,71,59849,1,0,0:0:0:0:
394,71,59941,1,8,0:0:0:0:
394,71,60034,6,0,B|366:71|366:71|334:71|306:99,1,95.9999970703126,2|2,0:0|0:0,0:0:0:0:
256,28,60404,1,4,0:0:0:0:
205,98,60589,2,0,L|172:65,2,47.9999985351563,0|4|2,0:0|0:0|0:0,0:0:0:0:
256,169,60960,1,2,0:0:0:0:
307,240,61145,2,0,B|292:276|256:287|256:287|220:276|205:240,1,143.999995605469,4|8,0:0|0:0,0:0:0:0:
205,240,61515,1,4,0:0:0:0:
256,169,61700,6,0,L|141:323,1,191.999994140625,4|4,0:0|0:0,0:0:0:0:
100,236,62256,2,0,B|81:192|81:192|100:148,1,95.9999970703126,4|8,0:0|0:0,0:0:0:0:
141,62,62626,2,0,B|163:72|163:72|185:62,3,47.9999985351563,8|8|8|8,0:0|0:0|0:0|0:0,0:0:0:0:
200,16,62997,5,4,1:0:0:0:
256,72,63182,1,2,0:0:0:0:
256,72,63367,1,4,0:0:0:0:
313,16,63552,1,0,0:0:0:0:
313,16,63645,2,0,B|344:36|356:72|356:72|344:108|313:128,1,143.999995605469,4|2,0:0|0:0,0:0:0:0:
256,192,64108,1,4,0:0:0:0:
199,128,64293,1,0,0:0:0:0:
199,128,64386,1,8,0:0:0:0:
199,128,64478,6,0,B|155:109|155:109|111:128,1,95.9999970703126,2|2,0:0|0:0,0:0:0:0:
53,192,64849,1,4,0:0:0:0:
110,256,65034,1,0,0:0:0:0:
110,256,65126,1,4,0:0:0:0:
110,256,65219,2,0,B|117:279|117:279|110:302,2,47.9999985351563,2|4|2,0:0|0:0|0:0,0:0:0:0:
53,192,65589,1,4,0:0:0:0:
110,129,65774,1,0,0:0:0:0:
110,129,65867,1,8,0:0:0:0:
110,129,65960,5,2,0:0:0:0:
167,192,66145,1,2,0:0:0:0:
110,256,66330,1,4,0:0:0:0:
167,320,66515,1,0,0:0:0:0:
167,320,66608,2,0,B|197:320|197:320|258:320|282:256,1,143.999995605469,4|2,0:0|0:0,0:0:0:0:
343,318,67071,1,4,0:0:0:0:
404,257,67256,1,0,0:0:0:0:
404,257,67349,1,8,0:0:0:0:
404,257,67441,6,0,P|431:192|404:127,1,143.999995605469,2|0,0:0|0:0,0:0:0:0:
441,104,67812,2,0,P|376:131|311:104,1,143.999995605469,4|4,0:0|0:0,0:0:0:0:
271,122,68182,2,0,B|287:104|287:104|271:86,2,47.9999985351563,2|4|2,0:0|0:0|0:0,0:0:0:0:
220,192,68552,1,4,0:0:0:0:
271,262,68737,1,0,0:0:0:0:
271,262,68830,1,8,0:0:0:0:
271,262,68923,5,2,0:0:0:0:
220,192,69108,2,0,L|124:192,1,95.9999970703126,2|4,0:0|0:0,0:0:0:0:
271,122,69478,1,0,0:0:0:0:
271,122,69571,2,0,B|343:122|343:122|393:72,1,143.999995605469,4|2,0:0|0:0,0:0:0:0:
452,8,70034,1,4,0:0:0:0:
510,71,70219,1,0,0:0:0:0:
510,71,70312,1,8,0:0:0:0:
510,71,70404,5,4,1:0:0:0:
452,134,70589,2,0,B|440:176|408:192|384:192|384:192|408:192|440:208|452:250,1,191.999994140625,4|4,1:0|0:0,0:0:0:0:
510,313,71145,1,2,0:0:0:0:
510,313,71237,1,0,0:0:0:0:
510,313,71330,5,2,0:0:0:0:
452,376,71515,1,4,0:0:0:0:
394,313,71700,1,4,0:0:0:0:
394,313,71793,1,4,0:0:0:0:
394,313,71886,5,4,1:0:0:0:
452,250,72071,1,2,0:0:0:0:
510,313,72256,1,4,0:0:0:0:
452,250,72441,2,0,B|433:231|433:231|431:223|431:223|425:229|425:229|422:220|422:220|403:201,1,80,0|2,0:0|0:0,0:0:0:0:
336,250,72812,1,2,0:0:0:0:
336,250,72997,2,0,B|317:231|317:231|315:223|315:223|309:229|309:229|306:220|306:220|287:201,1,80,4|0,0:0|0:0,0:0:0:0:
224,140,73367,5,2,0:0:0:0:
224,140,73460,1,0,0:0:0:0:
224,140,73552,1,2,0:0:0:0:
286,79,73737,2,0,B|308:36|352:36|352:36|388:36,1,120,4|4,0:0|0:0,0:0:0:0:
410,0,74108,2,0,B|392:36|392:36|410:72,1,80,2|2,0:0|0:0,0:0:0:0:
482,36,74478,2,0,L|437:147,1,120,4|8,0:0|0:0,0:0:0:0:
466,176,74849,5,2,0:0:0:0:
409,232,75034,1,2,0:0:0:0:
466,288,75219,1,4,0:0:0:0:
409,344,75404,1,0,0:0:0:0:
409,344,75497,1,4,0:0:0:0:
409,344,75589,2,0,B|368:344|368:344|335:365,1,80,2|2,0:0|0:0,0:0:0:0:
256,365,75960,1,4,0:0:0:0:
176,365,76145,1,0,0:0:0:0:
176,365,76237,1,8,0:0:0:0:
176,365,76330,6,0,B|143:344|143:344|102:344,1,80,2|2,0:0|0:0,0:0:0:0:
46,288,76700,1,4,0:0:0:0:
103,232,76885,1,0,0:0:0:0:
103,232,76978,1,4,0:0:0:0:
103,232,77071,2,0,P|139:217|175:232,1,80,2|2,0:0|0:0,0:0:0:0:
256,232,77441,1,4,0:0:0:0:
336,232,77626,1,0,0:0:0:0:
336,232,77719,1,8,0:0:0:0:
336,232,77812,6,0,P|372:217|408:232,1,80,2|2,0:0|0:0,0:0:0:0:
466,176,78182,1,4,0:0:0:0:
409,120,78367,1,0,0:0:0:0:
409,120,78460,2,0,L|493:35,1,120,4|2,0:0|0:0,0:0:0:0:
352,64,78923,2,0,L|295:120,1,80,4|0,0:0|0:0,0:0:0:0:
256,52,79293,5,2,0:0:0:0:
256,52,79386,1,0,0:0:0:0:
256,52,79478,1,2,0:0:0:0:
216,120,79663,2,0,P|198:176|216:232,1,120,4|4,0:0|0:0,0:0:0:0:
216,232,80034,1,2,0:0:0:0:
256,300,80219,1,2,0:0:0:0:
296,232,80404,2,0,P|314:176|296:120,1,120,4|8,0:0|0:0,0:0:0:0:
295,119,80774,5,2,0:0:0:0:
160,64,80960,1,2,0:0:0:0:
216,120,81145,1,4,0:0:0:0:
352,64,81330,1,0,0:0:0:0:
352,64,81423,1,4,0:0:0:0:
351,63,81515,2,0,P|330:30|297:8,1,80,2|2,0:0|0:0,0:0:0:0:
160,63,81886,2,0,P|181:30|214:8,1,80,4|0,0:0|0:0,0:0:0:0:
295,119,82256,5,10,0:0:0:0:
256,188,82441,1,4,0:0:0:0:
216,120,82626,1,10,0:0:0:0:
256,48,82812,1,4,0:0:0:0:
256,188,82997,5,8,0:0:0:0:
256,208,83089,1,8,0:0:0:0:
256,228,83182,1,8,0:0:0:0:
256,248,83274,1,8,0:0:0:0:
256,268,83367,1,4,0:0:0:0:
256,288,83459,1,4,0:0:0:0:
256,308,83552,1,4,0:0:0:0:
256,328,83645,1,4,0:0:0:0:
256,348,83737,5,4,1:0:0:0:
324,308,83923,1,2,0:0:0:0:
256,268,84108,1,4,0:0:0:0:
188,308,84293,1,0,0:0:0:0:
188,308,84386,1,4,0:0:0:0:
188,308,84478,2,0,B|168:288|168:288|166:280|166:280|160:286|160:286|157:277|157:277|138:258,1,80,2|2,0:0|0:0,0:0:0:0:
324,308,84849,2,0,B|343:288|343:288|345:280|345:280|351:286|351:286|354:277|354:277|373:258,1,80,4|0,0:0|0:0,0:0:0:0:
188,308,85219,5,2,0:0:0:0:
256,120,85404,1,4,0:0:0:0:
324,308,85589,1,4,0:0:0:0:
324,308,85960,5,4,0:0:0:0:
324,308,86331,5,8,0:0:0:0:
299,286,86423,1,8,0:0:0:0:
274,265,86516,1,8,0:0:0:0:
250,244,86608,1,8,0:0:0:0:
228,224,86700,6,0,P|172:242|116:224,1,120,4|10,0:0|0:0,0:0:0:0:
284,160,87256,2,0,P|340:142|396:160,1,120,4|10,0:0|0:0,0:0:0:0:
228,212,87812,6,0,P|172:230|116:212,1,120,4|10,0:0|0:0,0:0:0:0:
284,148,88367,2,0,P|340:130|396:148,1,120,4|10,0:0|0:0,0:0:0:0:
228,200,88923,6,0,P|190:211|152:200,1,80,2|2,1:0|1:0,0:0:0:0:
16,147,89293,2,0,P|54:136|92:147,1,80,2|2,1:0|1:0,0:0:0:0:
