osu file format v14

[General]
AudioFilename: KANA-BOON - Baton Road.mp3
AudioLeadIn: 0
PreviewTime: 51052
Countdown: 0
SampleSet: Soft
StackLeniency: 0.3
Mode: 0
LetterboxInBreaks: 0
WidescreenStoryboard: 1

[Editor]
Bookmarks: 589,89478
DistanceSpacing: 1.5
BeatDivisor: 4
GridSize: 4
TimelineZoom: 1

[Metadata]
Title:Baton Road
TitleUnicode:バトンロード
Artist:KANA-BOON
ArtistUnicode:KANA-BOON
Creator:Gero
Version:-EXTRA-
Source:BORUTO-ボルト- NARUTO NEXT GENERATIONS
Tags:NARUTO-ナルト- 疾風伝 ボルト:新世代ナルト Shippuden Shipuden Opening Lanturn iYiyo Cosmolade bor borborygmos _83 102335 imbor Hazu- PolkaMocha Veridian -Sh1n1- pkhg MkGuh Marianna MugiwaraSekai Irohas Haruto_aizawa Haruto Voli Shmiklak Marvollo M_a_r_v_o_l_l_o ArMiN A_r_M_i_N Venix Irreversible Monstrata
BeatmapID:1514842
BeatmapSetID:609700

[Difficulty]
HPDrainRate:7
CircleSize:4.5
OverallDifficulty:8
ApproachRate:9
SliderMultiplier:1.8
SliderTickRate:1

[Events]
//Background and Video events
Video,-400,"Video.flv"
0,0,"21.jpg",0,0
//Break Periods
//Storyboard Layer 0 (Background)
//Storyboard Layer 1 (Fail)
//Storyboard Layer 2 (Pass)
//Storyboard Layer 3 (Foreground)
//Storyboard Sound Samples

[TimingPoints]
775,370.37037037037,4,2,1,55,1,0
9663,-100,4,2,1,60,0,0
15589,-100,4,2,1,70,0,0
39293,-50,4,2,1,70,0,0
39386,-50,4,2,1,5,0,0
39478,-50,4,2,1,70,0,0
39571,-50,4,2,1,5,0,0
39849,-50,4,2,1,70,0,0
39941,-50,4,2,1,5,0,0
40034,-50,4,2,1,70,0,0
40126,-50,4,2,1,5,0,0
40404,-100,4,2,1,70,0,0
40589,-66.6666666666667,4,2,1,70,0,0
41145,-83.3333333333333,4,2,1,70,0,0
42256,-50,4,2,1,70,0,0
42349,-50,4,2,1,5,0,0
42441,-50,4,2,1,70,0,0
42534,-50,4,2,1,5,0,0
42812,-50,4,2,1,70,0,0
42904,-50,4,2,1,5,0,0
42997,-50,4,2,1,70,0,0
43089,-50,4,2,1,5,0,0
43367,-100,4,2,1,70,0,0
43552,-66.6666666666667,4,2,1,70,0,0
44108,-83.3333333333333,4,2,1,70,0,0
45219,-100,4,2,1,70,0,0
49663,-50,4,2,1,70,0,0
49756,-50,4,2,1,5,0,0
49849,-50,4,2,1,70,0,0
50312,-50,4,2,1,5,0,0
50404,-50,4,2,1,70,0,0
50774,-200,4,2,1,30,0,0
50821,-200,4,2,1,5,0,0
51145,-83.3333333333333,4,2,1,80,0,1
62904,-83.3333333333333,4,2,1,80,0,0
62997,-83.3333333333333,4,2,1,80,0,1
71886,-100,4,2,1,80,0,0

[Colours]
Combo1 : 255,53,255
Combo2 : 224,54,118
Combo3 : 215,183,57
Combo4 : 77,198,204
Combo5 : 79,198,62
Combo6 : 150,77,193
Combo7 : 244,91,53
Combo8 : 104,133,164

[HitObjects]
356,40,589,5,0,0:0:0:0:
356,40,682,1,0,0:0:0:0:
356,40,775,2,0,P|325:73|313:115,1,90,4|0,1:0|0:0,0:0:0:0:
412,316,1145,1,2,0:0:0:0:
496,160,1330,2,0,B|440:148|440:148|325:192,1,180,0|0,0:0|0:0,0:0:0:0:
196,140,1886,1,2,0:0:0:0:
256,300,2071,5,8,0:0:0:0:
256,316,2163,1,8,0:0:0:0:
256,332,2256,1,4,1:0:0:0:
256,84,2441,1,0,0:0:0:0:
195,243,2626,2,0,P|175:282|177:326,1,90,2|0,0:0|0:0,0:0:0:0:
334,326,2997,2,0,P|336:282|316:243,1,90,2|0,0:0|0:0,0:0:0:0:
196,140,3367,1,2,0:0:0:0:
256,300,3552,5,8,0:0:0:0:
256,316,3644,1,8,0:0:0:0:
256,332,3737,1,4,1:0:0:0:
316,140,3923,1,0,0:0:0:0:
196,243,4108,1,2,0:0:0:0:
256,84,4293,5,8,0:0:0:0:
256,68,4385,1,8,0:0:0:0:
256,52,4478,1,4,1:0:0:0:
316,244,4664,1,0,0:0:0:0:
196,140,4849,1,2,0:0:0:0:
3,192,5034,5,8,0:0:0:0:
3,192,5126,1,8,0:0:0:0:
3,192,5219,2,0,P|46:180|89:192,1,90,4|0,1:0|0:0,0:0:0:0:
139,378,5589,2,0,P|127:335|139:292,1,90,2|0,0:0|0:0,0:0:0:0:
275,192,5960,2,0,P|232:204|189:192,1,90,2|8,0:0|0:0,0:0:0:0:
228,48,6330,5,8,0:0:0:0:
252,68,6423,1,8,0:0:0:0:
256,100,6515,1,8,0:0:0:0:
232,120,6608,1,0,0:0:0:0:
200,120,6700,5,4,1:0:0:0:
332,80,6886,1,0,0:0:0:0:
144,64,7071,5,2,0:0:0:0:
248,184,7256,1,0,0:0:0:0:
228,48,7441,5,2,0:0:0:0:
204,248,7626,1,0,0:0:0:0:
68,80,7812,5,2,0:0:0:0:
344,236,7997,1,0,0:0:0:0:
4,264,8182,5,4,1:0:0:0:
432,228,8367,1,4,1:0:0:0:
228,48,8552,2,0,L|201:84,1,45,8|8,0:0|0:0,0:0:0:0:
88,191,8737,1,8,0:0:0:0:
280,276,8923,5,8,0:0:0:0:
320,268,9016,1,8,0:0:0:0:
344,236,9108,1,8,0:0:0:0:
344,192,9200,1,8,0:0:0:0:
384,220,9293,5,8,0:0:0:0:
432,228,9386,1,8,0:0:0:0:
472,212,9478,1,8,0:0:0:0:
500,172,9571,1,8,0:0:0:0:
504,124,9663,5,4,1:0:0:0:
360,16,9849,1,2,0:0:0:0:
384,220,10034,1,4,0:0:0:0:
396,112,10219,5,0,0:0:0:0:
396,112,10312,1,4,0:0:0:0:
396,112,10404,1,2,0:0:0:0:
512,284,10589,1,2,0:0:0:0:
286,112,10774,2,0,L|304:200,1,90,4|0,0:0|0:0,0:0:0:0:
213,141,11052,5,0,0:0:0:0:
213,141,11145,2,0,P|209:97|228:57,1,90,2|2,0:0|0:0,0:0:0:0:
432,228,11515,2,0,P|436:272|417:312,1,90,4|0,0:0|0:0,0:0:0:0:
362,259,11793,5,6,0:0:0:0:
362,259,11886,2,0,L|325:232,1,45,2|4,0:0|0:0,0:0:0:0:
468,368,12071,1,2,0:0:0:0:
286,112,12256,1,4,0:0:0:0:
123,311,12441,1,0,0:0:0:0:
123,311,12534,1,0,0:0:0:0:
123,311,12626,6,0,P|207:336|280:288,1,180,2|4,0:0|0:0,0:0:0:0:
164,68,13367,6,0,B|152:108|152:108|178:197,1,135,2|4,0:0|0:0,0:0:0:0:
192,236,13737,1,0,0:0:0:0:
248,20,13923,5,4,0:0:0:0:
80,132,14108,1,0,0:0:0:0:
256,124,14293,1,4,0:0:0:0:
72,28,14478,1,2,0:0:0:0:
178,197,14663,1,0,0:0:0:0:
248,20,14849,1,4,0:0:0:0:
80,132,15034,5,0,0:0:0:0:
48,168,15126,1,4,0:0:0:0:
52,216,15219,1,4,0:0:0:0:
84,252,15312,1,4,0:0:0:0:
112,292,15404,1,4,0:0:0:0:
104,340,15497,1,4,0:0:0:0:
72,376,15589,6,0,L|160:360,1,90,4|2,1:0|0:0,0:0:0:0:
280,288,15960,1,4,0:0:0:0:
52,216,16145,5,0,0:0:0:0:
52,216,16237,1,0,0:0:0:0:
52,216,16330,2,0,L|140:200,1,90,2|2,0:0|0:0,0:0:0:0:
260,128,16701,1,4,0:0:0:0:
112,292,16886,5,0,0:0:0:0:
112,292,16978,1,0,0:0:0:0:
112,292,17072,1,2,0:0:0:0:
152,112,17256,1,2,0:0:0:0:
192,292,17441,1,4,0:0:0:0:
140,200,17626,5,0,0:0:0:0:
140,200,17718,1,4,0:0:0:0:
140,200,17812,1,2,0:0:0:0:
100,380,17996,1,2,0:0:0:0:
57,200,18182,2,0,P|67:156|99:125,1,90,4|0,0:0|0:0,0:0:0:0:
182,125,18460,5,0,0:0:0:0:
182,125,18552,2,0,P|171:169|140:200,1,90,2|2,0:0|0:0,0:0:0:0:
60,48,18923,1,4,0:0:0:0:
220,36,19108,5,0,0:0:0:0:
220,36,19200,1,0,0:0:0:0:
220,36,19293,2,0,L|304:66,1,90,2|2,0:0|0:0,0:0:0:0:
140,64,19663,1,4,0:0:0:0:
400,16,19849,5,0,0:0:0:0:
400,16,19941,1,0,0:0:0:0:
400,16,20034,1,2,0:0:0:0:
336,176,20219,1,2,0:0:0:0:
488,80,20404,1,4,0:0:0:0:
304,66,20589,5,0,0:0:0:0:
304,66,20682,1,4,0:0:0:0:
304,66,20774,1,2,0:0:0:0:
448,188,20960,1,2,0:0:0:0:
386,112,21145,2,0,P|358:146|349:189,1,90,4|0,0:0|0:0,0:0:0:0:
376,264,21423,5,0,0:0:0:0:
376,264,21515,2,0,B|344:248|344:248|289:251,1,90,2|2,0:0|0:0,0:0:0:0:
444,352,21886,1,4,0:0:0:0:
268,172,22071,5,0,0:0:0:0:
268,172,22163,1,0,0:0:0:0:
268,172,22256,2,0,B|236:156|236:156|181:159,1,90,2|2,0:0|0:0,0:0:0:0:
336,260,22626,1,4,0:0:0:0:
456,176,22812,5,0,0:0:0:0:
456,176,22904,1,0,0:0:0:0:
456,176,22997,1,2,0:0:0:0:
361,94,23182,1,2,0:0:0:0:
268,172,23367,1,4,0:0:0:0:
448,92,23552,5,0,0:0:0:0:
448,92,23645,1,4,0:0:0:0:
448,92,23737,2,0,P|435:49|404:17,1,90,2|2,0:0|0:0,0:0:0:0:
274,96,24108,2,0,P|286:138|317:170,1,90,4|0,0:0|0:0,0:0:0:0:
390,208,24386,1,0,0:0:0:0:
390,208,24478,6,0,B|319:170|319:170|221:191,1,180,2|4,0:0|0:0,0:0:0:0:
136,256,25034,1,0,0:0:0:0:
160,268,25126,1,0,0:0:0:0:
184,280,25219,1,2,0:0:0:0:
256,368,25404,1,2,0:0:0:0:
68,312,25589,2,0,P|49:248|76:188,1,135,4|0,0:0|0:0,0:0:0:0:
128,128,25960,5,2,0:0:0:0:
48,20,26145,2,0,B|36:40|36:40|48:105,1,90,2|4,0:0|0:0,0:0:0:0:
204,200,26515,1,0,0:0:0:0:
212,184,26608,1,4,0:0:0:0:
220,168,26700,1,2,0:0:0:0:
168,52,26886,1,2,0:0:0:0:
324,208,27071,1,4,0:0:0:0:
288,60,27256,5,0,0:0:0:0:
280,76,27348,1,0,0:0:0:0:
272,92,27441,2,0,L|360:73,1,90,4|2,1:0|0:0,0:0:0:0:
452,156,27812,1,4,0:0:0:0:
324,208,27997,5,0,0:0:0:0:
316,224,28089,1,0,0:0:0:0:
308,240,28182,2,0,L|396:221,1,90,2|2,0:0|0:0,0:0:0:0:
488,304,28553,1,4,0:0:0:0:
312,332,28737,5,0,0:0:0:0:
304,348,28829,1,0,0:0:0:0:
296,364,28923,1,2,0:0:0:0:
396,221,29108,1,2,0:0:0:0:
240,284,29293,1,4,0:0:0:0:
296,188,29478,5,0,0:0:0:0:
296,188,29571,1,4,0:0:0:0:
296,188,29663,2,0,P|282:147|245:122,1,90,2|2,0:0|0:0,0:0:0:0:
88,207,30034,2,0,P|129:193|154:156,1,90,4|0,0:0|0:0,0:0:0:0:
82,129,30312,5,0,0:0:0:0:
82,129,30404,2,0,P|123:115|148:78,1,90,2|2,0:0|0:0,0:0:0:0:
64,40,30774,1,4,0:0:0:0:
88,208,30960,5,0,0:0:0:0:
92,228,31052,1,0,0:0:0:0:
96,248,31145,1,2,0:0:0:0:
36,340,31330,1,2,0:0:0:0:
192,264,31515,1,4,0:0:0:0:
124,328,31700,5,0,0:0:0:0:
128,348,31792,1,0,0:0:0:0:
132,368,31885,1,2,0:0:0:0:
8,216,32071,1,2,0:0:0:0:
96,248,32256,1,4,0:0:0:0:
156,164,32441,5,0,0:0:0:0:
156,164,32534,1,4,0:0:0:0:
156,164,32626,2,0,P|167:121|159:77,1,90,2|2,0:0|0:0,0:0:0:0:
288,174,32997,2,0,P|263:236|275:302,1,135,4|0,0:0|0:0,0:0:0:0:
336,360,33367,6,0,B|424:388|424:328|512:356,1,180,2|4,0:0|0:0,0:0:0:0:
376,204,33923,1,0,0:0:0:0:
376,204,34015,1,4,0:0:0:0:
376,204,34108,2,0,P|367:247|382:289,1,90,2|2,0:0|0:0,0:0:0:0:
460,144,34478,1,4,0:0:0:0:
284,232,34663,5,0,0:0:0:0:
284,232,34756,1,0,0:0:0:0:
284,232,34849,1,2,0:0:0:0:
356,44,35034,2,0,B|364:80|364:80|347:130,1,90,2|4,0:0|0:0,0:0:0:0:
184,32,35404,5,0,0:0:0:0:
184,32,35497,1,4,0:0:0:0:
184,32,35589,1,2,0:0:0:0:
346,130,35774,1,2,0:0:0:0:
184,140,35960,2,0,L|97:114,1,90,4|0,0:0|0:0,0:0:0:0:
8,168,36237,5,0,0:0:0:0:
8,168,36330,2,0,B|128:208|128:208|75:219,1,180,2|4,0:0|0:0,0:0:0:0:
204,312,36886,1,0,0:0:0:0:
204,312,36978,1,0,0:0:0:0:
204,312,37071,2,0,P|234:280|246:237,1,90,2|2,0:0|0:0,0:0:0:0:
188,116,37441,1,4,0:0:0:0:
323,115,37626,2,0,P|367:115|406:95,1,90,4|0,0:0|0:0,0:0:0:0:
468,28,37997,5,4,0:0:0:0:
380,276,38182,1,4,0:0:0:0:
488,140,38367,1,0,0:0:0:0:
380,276,38552,5,4,0:0:0:0:
351,52,38737,1,0,0:0:0:0:
460,254,38923,1,8,0:0:0:0:
468,300,39015,1,8,0:0:0:0:
442,343,39108,1,8,0:0:0:0:
400,366,39200,1,8,0:0:0:0:
358,358,39293,6,0,P|320:336|299:297,1,90,4|0,1:0|0:0,0:0:0:0:
401,192,39478,2,0,P|439:215|460:254,1,90,2|0,1:0|0:0,0:0:0:0:
111,193,39849,6,0,P|72:215|51:254,1,90,2|0,1:0|0:0,0:0:0:0:
153,358,40034,2,0,P|191:336|212:297,1,90,2|0,1:0|0:0,0:0:0:0:
36,76,40404,5,2,0:0:0:0:
132,276,40589,2,0,B|232:284|232:284|292:248|292:248|392:256,1,270.000010299683,4|0,1:0|0:0,0:0:0:0:
240,44,41145,5,4,0:0:0:0:
236,80,41237,1,8,0:0:0:0:
232,116,41330,1,8,0:0:0:0:
228,152,41423,1,4,0:0:0:0:
224,188,41515,6,0,L|214:241,1,53.9999983520508,8|0,0:0|0:0,0:0:0:0:
383,310,41700,2,0,L|392:256,1,53.9999983520508,4|0,0:0|0:0,0:0:0:0:
324,104,41886,1,8,0:0:0:0:
324,104,42256,6,0,L|310:192,1,90,4|0,1:0|0:0,0:0:0:0:
125,320,42441,2,0,L|138:231,1,90,2|0,1:0|0:0,0:0:0:0:
345,330,42812,6,0,L|257:316,1,90,2|0,1:0|0:0,0:0:0:0:
129,131,42997,2,0,L|218:144,1,90,2|0,1:0|0:0,0:0:0:0:
41,115,43367,5,2,0:0:0:0:
125,320,43552,2,0,B|152:232|152:232|112:59,1,270.000010299683,4|0,1:0|0:0,0:0:0:0:
64,212,44108,5,4,0:0:0:0:
107,223,44200,1,8,0:0:0:0:
151,234,44293,1,8,0:0:0:0:
194,246,44385,1,4,0:0:0:0:
238,257,44478,5,8,0:0:0:0:
49,292,44663,1,4,0:0:0:0:
311,199,44849,2,0,P|328:249|319:301,1,107.999996704102,8|8,0:0|0:0,0:0:0:0:
238,257,45219,5,4,1:0:0:0:
311,199,45404,1,0,0:0:0:0:
319,301,45589,1,10,0:0:0:0:
216,160,45774,1,0,0:0:0:0:
244,356,45960,5,10,0:0:0:0:
292,104,46145,1,0,0:0:0:0:
152,232,46330,1,10,0:0:0:0:
384,140,46515,1,0,0:0:0:0:
196,64,46700,5,10,0:0:0:0:
238,257,46886,1,0,0:0:0:0:
364,44,47071,1,10,0:0:0:0:
216,160,47256,1,0,0:0:0:0:
392,244,47441,5,10,0:0:0:0:
272,16,47626,1,0,0:0:0:0:
300,192,47812,1,10,0:0:0:0:
408,40,47997,5,8,0:0:0:0:
408,40,48089,1,8,0:0:0:0:
408,40,48182,2,0,P|452:28|495:39,1,90,4|0,1:0|0:0,0:0:0:0:
250,187,48552,2,0,P|207:198|164:188,1,90,6|0,0:0|0:0,0:0:0:0:
306,147,48830,5,4,0:0:0:0:
306,147,48923,2,0,L|297:236,1,90
120,376,49293,1,6,0:0:0:0:
383,198,49478,1,0,0:0:0:0:
96,32,49663,6,0,P|71:68|69:112,1,90,2|0,0:0|0:0,0:0:0:0:
373,292,49849,1,2,0:0:0:0:
416,352,50219,6,0,P|441:316|443:272,1,90,2|0,0:0|0:0,0:0:0:0:
139,92,50404,1,2,0:0:0:0:
343,151,50774,6,0,L|351:84,1,67.5,2|0,0:0|0:0,0:0:0:0:
343,151,51145,5,4,1:0:0:0:
256,16,51330,1,2,0:0:0:0:
196,176,51515,1,4,0:0:0:0:
428,76,51700,1,0,0:0:0:0:
440,68,51793,1,4,0:0:0:0:
452,60,51886,1,2,0:0:0:0:
280,208,52071,1,2,0:0:0:0:
364,20,52256,1,4,0:0:0:0:
472,156,52441,5,0,0:0:0:0:
472,156,52534,1,8,0:0:0:0:
472,156,52626,2,0,P|477:208|449:253,1,107.999996704102,2|2,0:0|0:0,0:0:0:0:
220,368,52997,2,0,P|214:315|242:270,1,107.999996704102,4|0,0:0|0:0,0:0:0:0:
404,192,53274,5,4,0:0:0:0:
404,192,53367,2,0,L|360:160,1,53.9999983520508,2|4,0:0|0:0,0:0:0:0:
256,52,53552,2,0,L|300:84,1,53.9999983520508,2|0,0:0|0:0,0:0:0:0:
389,23,53737,1,4,0:0:0:0:
224,160,53923,5,0,0:0:0:0:
184,176,54015,1,8,0:0:0:0:
144,160,54108,1,2,0:0:0:0:
4,96,54293,1,2,0:0:0:0:
157,269,54478,1,4,0:0:0:0:
135,79,54663,5,0,0:0:0:0:
135,79,54756,1,4,0:0:0:0:
135,79,54849,2,0,P|88:101|65:149,1,107.999996704102,2|0,0:0|0:0,0:0:0:0:
294,230,55219,2,0,P|271:182|224:160,1,107.999996704102,4|0,0:0|0:0,0:0:0:0:
96,292,55589,5,2,0:0:0:0:
60,80,55774,1,2,0:0:0:0:
204,308,55960,1,4,0:0:0:0:
168,64,56145,5,0,0:0:0:0:
168,100,56237,1,4,0:0:0:0:
168,136,56330,1,2,0:0:0:0:
168,172,56422,1,4,0:0:0:0:
168,208,56515,1,2,0:0:0:0:
276,48,56700,1,4,0:0:0:0:
64,149,56886,5,0,0:0:0:0:
64,185,56978,1,8,0:0:0:0:
64,221,57071,1,2,0:0:0:0:
168,136,57256,2,0,P|221:127|270:148,1,107.999996704102,2|4,0:0|0:0,0:0:0:0:
440,124,57626,5,0,0:0:0:0:
440,124,57719,1,4,0:0:0:0:
440,124,57812,1,2,0:0:0:0:
364,308,57997,2,0,B|348:272|348:272|358:204,1,107.999996704102,2|4,0:0|0:0,0:0:0:0:
456,312,58367,5,0,0:0:0:0:
447,336,58460,1,8,0:0:0:0:
439,360,58552,1,2,0:0:0:0:
268,304,58737,1,2,0:0:0:0:
512,220,58923,1,4,0:0:0:0:
372,136,59108,5,0,0:0:0:0:
363,112,59201,1,4,0:0:0:0:
355,88,59293,1,2,0:0:0:0:
346,64,59386,1,4,0:0:0:0:
338,40,59478,1,2,0:0:0:0:
176,144,59663,1,4,0:0:0:0:
388,228,59849,5,0,0:0:0:0:
388,228,59941,1,8,0:0:0:0:
388,228,60034,2,0,L|376:335,1,107.999996704102,2|2,0:0|0:0,0:0:0:0:
280,140,60404,2,0,L|287:247,1,107.999996704102,4|0,0:0|0:0,0:0:0:0:
352,164,60682,5,4,0:0:0:0:
352,164,60774,2,0,L|363:56,1,107.999996704102,2|2,0:0|0:0,0:0:0:0:
460,252,61144,2,0,L|452:144,1,107.999996704102,4|0,0:0|0:0,0:0:0:0:
488,80,61423,5,8,0:0:0:0:
488,80,61515,1,4,0:0:0:0:
287,247,61700,1,4,0:0:0:0:
356,116,61886,1,8,0:0:0:0:
368,331,62071,1,4,0:0:0:0:
408,24,62256,1,4,0:0:0:0:
372,208,62441,6,0,L|349:256,1,53.9999983520508,8|8,0:0|0:0,0:0:0:0:
436,360,62626,2,0,L|458:311,1,53.9999983520508,8|8,0:0|0:0,0:0:0:0:
378,67,62812,2,0,L|355:115,1,53.9999983520508,8|8,0:0|0:0,0:0:0:0:
442,219,62997,6,0,L|487:120,1,107.999996704102,4|2,1:0|0:0,0:0:0:0:
304,8,63367,2,0,L|258:106,1,107.999996704102,4|0,0:0|0:0,0:0:0:0:
256,180,63645,5,4,0:0:0:0:
256,180,63737,1,2,0:0:0:0:
354,115,63923,1,2,0:0:0:0:
256,320,64108,1,4,0:0:0:0:
158,115,64293,5,0,0:0:0:0:
148,100,64386,1,8,0:0:0:0:
139,83,64478,2,0,P|85:77|35:96,1,107.999996704102,2|2,0:0|0:0,0:0:0:0:
100,192,64849,1,4,0:0:0:0:
22,248,65033,5,0,0:0:0:0:
32,263,65126,1,4,0:0:0:0:
40,279,65219,2,0,L|66:326,1,53.9999983520508,2|4,0:0|0:0,0:0:0:0:
240,352,65404,2,0,L|213:304,1,53.9999983520508,2|0,0:0|0:0,0:0:0:0:
84,352,65589,1,4,0:0:0:0:
200,280,65774,5,0,0:0:0:0:
190,265,65867,1,8,0:0:0:0:
181,248,65959,2,0,P|166:198|184:147,1,107.999996704102,2|2,0:0|0:0,0:0:0:0:
278,61,66330,1,4,0:0:0:0:
380,184,66515,5,0,0:0:0:0:
364,180,66608,1,4,0:0:0:0:
348,176,66700,1,2,0:0:0:0:
160,32,66886,1,2,0:0:0:0:
240,200,67071,1,4,0:0:0:0:
388,100,67256,5,0,0:0:0:0:
372,96,67349,1,8,0:0:0:0:
356,92,67441,1,2,0:0:0:0:
84,68,67626,1,2,0:0:0:0:
281,138,67812,1,4,0:0:0:0:
108,192,67997,5,0,0:0:0:0:
79,236,68089,1,4,0:0:0:0:
84,289,68182,1,2,0:0:0:0:
121,328,68274,1,4,0:0:0:0:
173,336,68367,1,2,0:0:0:0:
292,200,68552,2,0,L|191:238,1,107.999996704102,4|0,0:0|0:0,0:0:0:0:
264,300,68830,5,8,0:0:0:0:
264,300,68923,2,0,L|364:261,1,107.999996704102,2|2,0:0|0:0,0:0:0:0:
460,172,69293,1,4,0:0:0:0:
336,44,69478,5,0,0:0:0:0:
328,76,69571,1,4,0:0:0:0:
336,112,69663,1,2,0:0:0:0:
443,251,69849,1,2,0:0:0:0:
448,48,70034,1,4,0:0:0:0:
268,180,70219,5,0,0:0:0:0:
236,198,70312,1,8,0:0:0:0:
201,222,70404,1,4,1:0:0:0:
24,24,70589,1,4,1:0:0:0:
96,288,70774,5,4,0:0:0:0:
176,32,70960,1,4,0:0:0:0:
56,164,71145,1,2,0:0:0:0:
308,76,71330,1,2,0:0:0:0:
224,252,71515,5,4,0:0:0:0:
192,256,71608,1,4,0:0:0:0:
168,228,71701,1,4,0:0:0:0:
172,200,71793,1,4,0:0:0:0:
204,188,71886,5,4,1:0:0:0:
392,240,72071,1,2,0:0:0:0:
200,344,72256,1,4,0:0:0:0:
296,144,72441,5,0,0:0:0:0:
296,144,72534,1,4,0:0:0:0:
296,144,72626,1,2,0:0:0:0:
336,352,72812,1,2,0:0:0:0:
280,248,72997,1,4,0:0:0:0:
452,348,73183,1,0,0:0:0:0:
512,244,73367,5,2,0:0:0:0:
512,244,73460,1,0,0:0:0:0:
512,244,73552,2,0,P|525:201|512:158,1,90,2|4,0:0|0:0,0:0:0:0:
392,60,73923,1,0,0:0:0:0:
392,60,74016,1,4,0:0:0:0:
392,60,74108,2,0,P|379:103|392:146,1,90,2|2,0:0|0:0,0:0:0:0:
488,12,74478,1,4,0:0:0:0:
296,108,74663,5,0,0:0:0:0:
284,120,74756,1,8,0:0:0:0:
272,132,74849,1,2,0:0:0:0:
300,8,75034,1,2,0:0:0:0:
352,204,75219,1,4,0:0:0:0:
480,104,75404,5,0,0:0:0:0:
492,92,75497,1,4,0:0:0:0:
504,80,75590,1,2,0:0:0:0:
476,204,75775,1,2,0:0:0:0:
424,8,75960,1,4,0:0:0:0:
440,280,76145,5,0,0:0:0:0:
440,280,76237,1,8,0:0:0:0:
440,280,76330,1,2,0:0:0:0:
316,143,76515,2,0,B|344:135|344:135|401:154,1,90,2|4,0:0|0:0,0:0:0:0:
256,268,76886,5,0,0:0:0:0:
240,280,76978,1,4,0:0:0:0:
224,292,77071,1,2,0:0:0:0:
160,160,77256,1,2,0:0:0:0:
104,348,77441,1,4,0:0:0:0:
256,116,77626,5,0,0:0:0:0:
272,104,77718,1,8,0:0:0:0:
288,92,77811,1,2,0:0:0:0:
144,40,77997,1,2,0:0:0:0:
300,192,78182,1,4,0:0:0:0:
160,160,78367,5,0,0:0:0:0:
160,160,78460,1,4,0:0:0:0:
160,160,78552,1,2,0:0:0:0:
272,316,78737,1,2,0:0:0:0:
128,260,78923,1,4,0:0:0:0:
300,192,79109,1,0,0:0:0:0:
172,332,79293,5,2,0:0:0:0:
172,332,79386,1,0,0:0:0:0:
172,331,79478,2,0,P|129:344|86:331,1,90,2|4,0:0|0:0,0:0:0:0:
255,120,79849,1,0,0:0:0:0:
255,120,79942,1,4,0:0:0:0:
255,119,80034,2,0,P|297:106|339:119,1,90,2|2,0:0|0:0,0:0:0:0:
168,220,80404,2,0,B|152:132|152:132|171:89,1,135,4|8,0:0|0:0,0:0:0:0:
192,44,80774,5,2,0:0:0:0:
32,204,80960,1,2,0:0:0:0:
92,44,81145,1,4,0:0:0:0:
252,204,81331,5,0,0:0:0:0:
252,204,81423,1,4,0:0:0:0:
252,204,81515,1,2,0:0:0:0:
151,135,81700,1,2,0:0:0:0:
326,23,81886,2,0,L|292:107,1,90,4|0,0:0|0:0,0:0:0:0:
312,360,82256,5,10,0:0:0:0:
90,190,82441,1,4,0:0:0:0:
256,300,82626,1,10,0:0:0:0:
422,190,82812,1,4,0:0:0:0:
176,296,82997,5,8,0:0:0:0:
162,271,83089,1,8,0:0:0:0:
157,244,83182,1,8,0:0:0:0:
161,216,83274,1,8,0:0:0:0:
175,192,83367,5,4,0:0:0:0:
132,203,83459,1,4,0:0:0:0:
90,190,83552,1,4,0:0:0:0:
61,157,83644,1,4,0:0:0:0:
55,113,83737,5,4,1:0:0:0:
168,68,83923,1,2,0:0:0:0:
175,192,84108,1,4,0:0:0:0:
84,28,84293,5,0,0:0:0:0:
84,28,84386,1,4,0:0:0:0:
84,28,84478,1,2,0:0:0:0:
256,116,84663,1,2,0:0:0:0:
4,181,84849,2,0,P|19:139|55:113,1,90,4|0,0:0|0:0,0:0:0:0:
196,36,85219,5,2,0:0:0:0:
88,192,85404,1,4,0:0:0:0:
348,48,85589,6,0,L|435:28,1,90,4|0,0:0|0:0,0:0:0:0:
292,176,85960,2,0,L|204:156,1,90,4|0,0:0|0:0,0:0:0:0:
372,136,86330,5,8,0:0:0:0:
380,179,86422,1,8,0:0:0:0:
368,222,86515,1,8,0:0:0:0:
337,254,86607,1,8,0:0:0:0:
294,267,86700,5,4,0:0:0:0:
212,48,86886,1,2,0:0:0:0:
256,36,86978,1,10,0:0:0:0:
300,48,87071,1,0,0:0:0:0:
339,351,87256,5,4,0:0:0:0:
256,131,87442,1,2,0:0:0:0:
300,119,87534,1,10,0:0:0:0:
344,131,87627,1,2,0:0:0:0:
383,268,87812,5,4,0:0:0:0:
300,48,87998,1,2,0:0:0:0:
344,36,88090,1,10,0:0:0:0:
388,48,88183,1,0,0:0:0:0:
427,351,88368,5,4,0:0:0:0:
344,131,88552,1,2,0:0:0:0:
388,119,88645,1,10,0:0:0:0:
432,131,88737,1,0,0:0:0:0:
471,268,88923,5,2,1:0:0:0:
44,56,89109,1,2,1:0:0:0:
252,372,89293,1,2,1:0:0:0:
468,56,89478,1,2,1:0:0:0:
