osu file format v14

[General]
AudioFilename: KANA-BOON - Baton Road.mp3
AudioLeadIn: 0
PreviewTime: 51052
Countdown: 0
SampleSet: Soft
StackLeniency: 0.7
Mode: 0
LetterboxInBreaks: 0
WidescreenStoryboard: 0

[Editor]
Bookmarks: 775,89478
DistanceSpacing: 1.2
BeatDivisor: 4
GridSize: 4
TimelineZoom: 1

[Metadata]
Title:Baton Road
TitleUnicode:バトンロード
Artist:KANA-BOON
ArtistUnicode:KANA-BOON
Creator:Gero
Version:-EASY-
Source:BORUTO-ボルト- NARUTO NEXT GENERATIONS
Tags:NARUTO-ナルト- 疾風伝 ボルト:新世代ナルト Shippuden Shipuden Opening Lanturn iYiyo Cosmolade bor borborygmos _83 102335 imbor Hazu- PolkaMocha Veridian -Sh1n1- pkhg MkGuh Marianna MugiwaraSekai Irohas Haruto_aizawa Haruto Voli Shmiklak Marvollo M_a_r_v_o_l_l_o ArMiN A_r_M_i_N Venix Irreversible Monstrata
BeatmapID:1288293
BeatmapSetID:609700

[Difficulty]
HPDrainRate:2
CircleSize:3
OverallDifficulty:2
ApproachRate:3
SliderMultiplier:0.8
SliderTickRate:1

[Events]
//Background and Video events
Video,-400,"Video.flv"
0,0,"1.jpg",0,0
//Break Periods
//Storyboard Layer 0 (Background)
//Storyboard Layer 1 (Fail)
//Storyboard Layer 2 (Pass)
//Storyboard Layer 3 (Foreground)
//Storyboard Sound Samples

[TimingPoints]
775,370.37037037037,4,2,1,55,1,0
9663,-100,4,2,1,60,0,0
15589,-100,4,2,1,70,0,0
51145,-83.3333333333333,4,2,1,80,0,1
62904,-83.3333333333333,4,2,1,80,0,0
62997,-83.3333333333333,4,2,1,80,0,1
71886,-83.3333333333333,4,2,1,80,0,0

[Colours]
Combo1 : 255,53,255
Combo2 : 224,54,118
Combo3 : 215,183,57
Combo4 : 77,198,204
Combo5 : 79,198,62
Combo6 : 150,77,193
Combo7 : 244,91,53
Combo8 : 104,133,164

[HitObjects]
142,136,775,6,0,P|124:192|142:248,2,120,4|0|2,1:0|0:0|0:0,0:0:0:0:
218,192,2256,2,0,P|256:203|294:192,1,80,4|2,1:0|0:0,0:0:0:0:
370,136,2997,1,2,0:0:0:0:
446,192,3367,1,2,0:0:0:0:
369,248,3737,6,0,P|356:325|301:382,1,160,4|4,1:0|1:0,0:0:0:0:
256,296,4849,1,2,0:0:0:0:
210,382,5219,2,0,P|155:325|142:248,1,160,4|2,1:0|0:0,0:0:0:0:
66,192,6330,1,8,0:0:0:0:
142,136,6700,6,0,B|142:98|172:56|222:56|222:56|256:56|256:56|290:56|290:56|340:56|370:98|370:136,2,320,4|4|4,1:0|1:0|1:0,0:0:0:0:
218,192,10034,2,0,B|256:204|256:204|294:192,1,80,4|2,0:0|0:0,0:0:0:0:
370,248,10774,1,4,0:0:0:0:
446,192,11145,2,0,B|486:180|498:136|498:136|486:92|446:80,1,160,2|2,0:0|0:0,0:0:0:0:
370,24,12256,1,4,0:0:0:0:
294,80,12626,6,0,B|294:143|294:143|294:188|256:204|256:204|218:188|218:143|218:143|218:80,1,280,2|4,0:0|0:0,0:0:0:0:
140,200,14478,1,2,0:0:0:0:
208,268,14849,1,4,0:0:0:0:
304,268,15219,1,4,0:0:0:0:
372,200,15589,6,0,B|256:168|256:168|140:200,1,240,4|4,1:0|0:0,0:0:0:0:
208,268,17071,2,0,B|256:304|256:304|304:268,2,120,2|0|4,0:0|0:0|0:0,0:0:0:0:
140,200,18552,6,0,B|256:168|256:168|372:200,1,240,2|4,0:0|0:0,0:0:0:0:
304,268,20034,2,0,B|256:304|256:304|208:268,2,120,2|0|4,0:0|0:0|0:0,0:0:0:0:
372,336,21515,5,2,0:0:0:0:
256,184,22256,1,2,0:0:0:0:
140,336,22997,2,0,B|93:336|93:336|85:340|85:340|85:332|85:332|77:336|77:336|30:336,2,120,2|0|4,0:0|0:0|0:0,0:0:0:0:
208,268,24478,6,0,B|244:260|256:236|256:236|268:260|304:268,2,120,2|0|4,0:0|0:0|0:0,0:0:0:0:
140,200,25960,2,0,B|93:200|93:200|85:196|85:196|85:204|85:204|77:200|77:200|30:200,2,120,2|0|4,0:0|0:0|0:0,0:0:0:0:
208,132,27441,6,0,B|216:92|256:72|256:72|296:92|304:132,1,160,4|2,1:0|0:0,0:0:0:0:
372,200,28552,1,4,0:0:0:0:
440,132,28923,2,0,B|418:76|418:76|440:20,2,120,2|0|4,0:0|0:0|0:0,0:0:0:0:
508,200,30404,5,2,0:0:0:0:
440,268,30774,1,4,0:0:0:0:
372,200,31145,2,0,B|334:188|334:188|296:200,1,80,2|4,0:0|0:0,0:0:0:0:
227,132,31886,2,0,P|171:151|115:132,2,120,2|0|4,0:0|0:0|0:0,0:0:0:0:
171,56,33367,6,0,L|28:249,1,240,2|4,0:0|0:0,0:0:0:0:
96,317,34849,2,0,L|167:220,2,120,2|0|4,0:0|0:0|0:0,0:0:0:0:
163,384,36330,6,0,P|256:320|349:384,1,240,2|4,0:0|0:0,0:0:0:0:
416,317,37812,1,2,0:0:0:0:
256,212,38552,1,4,0:0:0:0:
96,317,39293,6,0,B|40:293|40:233|40:233|40:180,1,160,4|2,1:0|1:0,0:0:0:0:
40,37,40589,2,0,B|104:37|152:89|152:89|224:89,1,200,4|8,1:0|0:0,0:0:0:0:
416,67,42256,6,0,B|472:91|472:151|472:151|472:203,1,160,4|2,1:0|1:0,0:0:0:0:
472,347,43552,2,0,B|408:347|360:295|360:295|287:295,1,200,4|8,1:0|0:0,0:0:0:0:
256,192,45219,12,2,49663,0:0:0:0:
195,192,51145,6,0,B|212:221|244:221|244:221|256:221|256:221|268:221|268:221|300:221|317:192,2,143.999995605469,4|0|4,1:0|0:0|0:0,0:0:0:0:
124,280,52626,2,0,B|256:338|256:338|388:280,1,287.999991210938,2|4,0:0|0:0,0:0:0:0:
317,192,54108,6,0,B|300:163|268:163|268:163|256:163|256:163|244:163|244:163|212:163|195:192,2,143.999995605469,2|0|4,0:0|0:0|0:0,0:0:0:0:
388,104,55589,2,0,B|256:46|256:46|124:104,1,287.999991210938,2|4,0:0|0:0,0:0:0:0:
53,192,57071,6,0,B|53:228|19:252|19:252|53:276|53:312,2,143.999995605469,2|0|4,0:0|0:0|0:0,0:0:0:0:
149,252,58552,2,0,B|149:288|115:312|115:312|149:336|149:372,2,143.999995605469,2|0|4,0:0|0:0|0:0,0:0:0:0:
245,312,60034,6,0,B|341:312|341:312|408:244,1,191.999994140625,2|2,0:0|0:0,0:0:0:0:
512,192,61145,1,4,0:0:0:0:
408,139,61515,2,0,B|341:72|341:72|245:72,1,191.999994140625,4|4,0:0|0:0,0:0:0:0:
24,139,62997,6,0,B|-12:160|-22:192|-22:192|-12:224|24:245,2,143.999995605469,4|0|4,1:0|0:0|0:0,0:0:0:0:
128,192,64478,2,0,B|156:156|224:156|256:193|256:193|288:156|356:156|384:192,1,287.999991210938,2|4,0:0|0:0,0:0:0:0:
488,139,65960,6,0,B|524:160|534:192|534:192|524:224|488:245,2,143.999995605469,2|0|4,0:0|0:0|0:0,0:0:0:0:
384,192,67441,2,0,B|356:156|288:156|256:193|256:193|224:156|156:156|128:192,1,287.999991210938,2|4,0:0|0:0,0:0:0:0:
24,139,68923,6,0,B|69:93|69:93|77:90|77:90|86:88|86:88|130:44,2,143.999995605469,2|0|4,0:0|0:0|0:0,0:0:0:0:
24,245,70404,2,0,B|69:290|69:290|77:293|77:293|86:295|86:295|130:339,2,143.999995605469,4|4|4,1:0|0:0|0:0,0:0:0:0:
128,192,71886,6,0,B|139:172|164:162|164:162|189:172|200:192,1,95.9999970703126,4|4,1:0|0:0,0:0:0:0:
312,192,72626,2,0,B|323:172|348:162|348:162|373:172|384:192,1,95.9999970703126,2|4,0:0|0:0,0:0:0:0:
488,245,73367,6,0,B|451:281|462:332|462:332|411:321|374:358,1,191.999994140625,2|2,0:0|0:0,0:0:0:0:
256,358,74478,1,4,0:0:0:0:
137,358,74849,2,0,B|100:321|49:332|49:332|60:281|24:245,1,191.999994140625,2|2,0:0|0:0,0:0:0:0:
126,192,75960,1,4,0:0:0:0:
228,139,76330,6,0,B|248:108|256:73|256:73|264:108|284:139,2,143.999995605469,2|0|4,0:0|0:0|0:0,0:0:0:0:
126,192,77812,2,0,P|256:245|386:192,1,287.999991210938,2|4,0:0|0:0,0:0:0:0:
467,273,79293,1,2,0:0:0:0:
256,368,80034,1,2,0:0:0:0:
45,273,80774,6,0,B|45:201|45:201|45:129|105:106,1,191.999994140625,2|2,0:0|0:0,0:0:0:0:
180,20,81886,1,4,0:0:0:0:
256,107,82256,2,0,B|304:107|304:107|356:107|379:56,2,143.999995605469,10|4|4,0:0|0:0|0:0,0:0:0:0:
180,194,83737,6,0,B|220:242|188:310|132:310|132:310|108:310|108:310|64:310|64:310|14:278|14:278|64:246|64:246|108:246|108:246|64:178|104:110|175:78|236:126|236:126|256:107,1,671.999979492188,4|8,1:0|0:0,0:0:0:0:
256,192,86700,12,2,89478,1:0:0:0:
